<?xml version="1.0" standalone="no"?>
<!DOCTYPE svg PUBLIC "-//W3C//DTD SVG 1.1//EN" "http://www.w3.org/Graphics/SVG/1.1/DTD/svg11.dtd" >
<svg xmlns="http://www.w3.org/2000/svg">
<metadata></metadata>
<defs>
<font id="robotobold" horiz-adv-x="1156" >
<font-face units-per-em="2048" ascent="1536" descent="-512" />
<missing-glyph horiz-adv-x="510" />
<glyph unicode="fi" horiz-adv-x="1249" d="M181 0v877h-161v205h161v74q0 204 124.5 314.5t350.5 110.5q78 0 154 -15.5t176 -44.5l-42 -230q-73 22 -132.5 34t-136.5 12q-101 0 -151.5 -46t-50.5 -135v-74h213v-205h-213v-877h-292zM1121 0h-292v1082h292v-1082z" />
<glyph horiz-adv-x="0" />
<glyph unicode="&#x9;" horiz-adv-x="0" />
<glyph unicode=" "  horiz-adv-x="510" />
<glyph unicode="&#x09;" horiz-adv-x="510" />
<glyph unicode="&#xa0;" horiz-adv-x="510" />
<glyph unicode="!" horiz-adv-x="557" d="M426 502h-292v954h292v-954zM426 0h-292v256h292v-256z" />
<glyph unicode="&#x22;" horiz-adv-x="832" d="M372 1181l-102 -249h-129v524h231v-275zM713 1181l-102 -249h-128v524h230v-275z" />
<glyph unicode="#" horiz-adv-x="1219" d="M650 410h-192l-71 -410h-184l72 410h-227v169h256l51 290h-232v171h262l73 416h183l-73 -416h192l74 416h183l-73 -416h220v-171h-250l-51 -290h225v-169h-254l-72 -410h-184zM488 579h191l51 290h-192z" />
<glyph unicode="$" horiz-adv-x="1216" d="M816 383q0 82 -47 131.5t-167 95.5q-226 76 -335 177t-109 284q0 169 109 276.5t296 126.5v214h159v-217q180 -25 282 -140.5t99 -300.5l-2 -5h-285q0 109 -49.5 167.5t-138.5 58.5q-94 0 -136 -49t-42 -132q0 -77 44.5 -123t170.5 -99q222 -72 332 -176.5t110 -286.5 q0 -174 -108.5 -278.5t-296.5 -123.5v-197h-159v197q-192 17 -315.5 127.5t-119.5 324.5l3 6h284q0 -128 62.5 -182.5t162.5 -54.5q98 0 147 48t49 131z" />
<glyph unicode="%" horiz-adv-x="1513" d="M95 1176q0 129 83.5 215t232.5 86q151 0 234 -85.5t83 -215.5v-77q0 -129 -83 -214t-232 -85q-150 0 -234 85t-84 214v77zM289 1099q0 -58 32 -97.5t92 -39.5q58 0 89.5 39.5t31.5 97.5v77q0 58 -32 98.5t-91 40.5t-90.5 -40.5t-31.5 -98.5v-77zM791 357q0 128 84 214 t233 86q150 0 233.5 -85.5t83.5 -214.5v-77q0 -130 -83 -215t-232 -85q-150 0 -234.5 85.5t-84.5 214.5v77zM985 280q0 -57 34.5 -97.5t90.5 -40.5q65 0 93 37.5t28 100.5v77q0 57 -32 97.5t-91 40.5q-60 0 -91.5 -40.5t-31.5 -97.5v-77zM461 109l-142 75l711 1138l142 -75z " />
<glyph unicode="&#x26;" horiz-adv-x="1346" d="M319 781q-66 90 -98 164.5t-32 151.5q0 182 106 281t291 99q159 0 258.5 -98.5t99.5 -238.5q0 -104 -42.5 -180t-125.5 -141l-102 -72l270 -315q36 59 56 129t20 148h233q0 -142 -35.5 -260t-110.5 -209l201 -235l-2 -5h-324l-77 89q-85 -55 -175 -82.5t-193 -27.5 q-218 0 -347 114.5t-129 298.5q0 121 63.5 206.5t194.5 182.5zM552 203q53 0 106 13.5t102 40.5l-295 342l-9 -7q-59 -48 -81 -94t-22 -91q0 -89 55 -146.5t144 -57.5zM450 1100q0 -42 20 -86t61 -96l76 49q56 36 75.5 74t19.5 83q0 51 -33 89.5t-91 38.5q-60 0 -94 -44 t-34 -108z" />
<glyph unicode="'" horiz-adv-x="442" d="M352 1187l-102 -283h-159v552h261v-269z" />
<glyph unicode="(" horiz-adv-x="711" d="M124 592q0 392 152 665.5t344 354.5h6l53 -146q-131 -98 -220 -316t-89 -556v-26q0 -339 89 -556.5t220 -318.5l-53 -143h-6q-192 81 -344 354t-152 666v22z" />
<glyph unicode=")" horiz-adv-x="713" d="M602 570q0 -383 -158.5 -661.5t-352.5 -358.5h-6l-54 143q129 98 219 317t90 558v26q0 336 -91 556.5t-218 319.5l54 142h6q194 -80 352.5 -359t158.5 -661v-22z" />
<glyph unicode="*" horiz-adv-x="857" d="M278 665l-229 76l54 170l240 -79l2 249h176l7 -257l230 78l53 -171l-233 -79l138 -202l-144 -106l-149 208l-145 -199l-145 102z" />
<glyph unicode="+" horiz-adv-x="1117" d="M694 812h360v-252h-360v-414h-276v414h-362v252h362v394h276v-394z" />
<glyph unicode="," horiz-adv-x="528" d="M417 13l-159 -315h-195l70 324v228h284v-237z" />
<glyph unicode="-" horiz-adv-x="892" d="M735 510h-589v225h589v-225z" />
<glyph unicode="." horiz-adv-x="596" d="M436 0h-292v256h292v-256z" />
<glyph unicode="/" horiz-adv-x="825" d="M270 -125h-284l534 1581h284z" />
<glyph unicode="0" horiz-adv-x="1175" d="M1080 527q0 -256 -134.5 -402t-356.5 -146q-224 0 -359 146t-135 402v401q0 255 134.5 402t357.5 147q222 0 357.5 -147t135.5 -402v-401zM789 958q0 140 -53.5 217t-148.5 77q-96 0 -148.5 -77t-52.5 -217v-459q0 -143 53 -219.5t150 -76.5q95 0 147.5 76.5t52.5 219.5 v459z" />
<glyph unicode="1" horiz-adv-x="1175" d="M796 0h-291v1202h-301v223l592 52v-1477z" />
<glyph unicode="2" horiz-adv-x="1175" d="M1094 0h-977v191l451 510q101 119 143.5 201.5t42.5 151.5q0 90 -45 144t-135 54q-95 0 -147 -69t-52 -175h-284l-2 6q-5 194 128 328.5t357 134.5t348 -114.5t124 -307.5q0 -131 -69.5 -239t-239.5 -299l-240 -288l2 -5h595v-224z" />
<glyph unicode="3" horiz-adv-x="1175" d="M579 856q104 0 154.5 54t50.5 152q0 82 -53 136t-148 54q-80 0 -134.5 -49t-54.5 -125h-282l-2 6q-6 171 132 282t341 111q226 0 359 -106.5t133 -305.5q0 -100 -57.5 -183.5t-157.5 -131.5q114 -43 176 -130.5t62 -211.5q0 -200 -144.5 -314.5t-370.5 -114.5 q-199 0 -348 108t-144 303l2 6h284q0 -82 57.5 -137.5t148.5 -55.5q100 0 162 59t62 149q0 115 -58 170.5t-170 55.5h-161v219h161z" />
<glyph unicode="4" horiz-adv-x="1175" d="M955 542h164v-226h-164v-316h-292v316h-593l-14 175l604 965h295v-914zM321 542h342v529l-6 1l-30 -65z" />
<glyph unicode="5" horiz-adv-x="1175" d="M139 642l84 814h812v-234h-573l-40 -340q41 30 103 49.5t135 21.5q203 3 314.5 -125.5t111.5 -360.5q0 -214 -121 -351t-370 -137q-201 0 -344 106.5t-138 292.5l2 5l281 13q0 -91 55 -142t144 -51q104 0 151.5 68t47.5 194t-52 200.5t-154 74.5q-84 0 -128.5 -31 t-63.5 -84z" />
<glyph unicode="6" horiz-adv-x="1175" d="M669 1477q85 0 157.5 -15.5t143.5 -45.5l-52 -214q-68 23 -122 34.5t-125 11.5q-128 0 -206.5 -98t-78.5 -273v-47q58 57 138.5 88.5t179.5 31.5q187 0 292 -132.5t105 -345.5q0 -219 -136 -356t-355 -137q-228 0 -371.5 156t-143.5 427v305q0 277 162.5 443.5 t411.5 166.5zM607 729q-79 0 -134.5 -25.5t-86.5 -70.5v-78q0 -168 61.5 -260t162.5 -92q91 0 145 76.5t54 192.5q0 120 -54.5 188.5t-147.5 68.5z" />
<glyph unicode="7" horiz-adv-x="1175" d="M1095 1231q-247 -289 -336 -520.5t-89 -530.5v-180h-292v180q0 304 111.5 554.5t324.5 496.5h-743v225h1024v-225z" />
<glyph unicode="8" horiz-adv-x="1175" d="M1056 1078q0 -108 -56 -191.5t-154 -130.5q119 -49 189 -140.5t70 -209.5q0 -202 -140.5 -314.5t-359.5 -112.5q-229 0 -376 112.5t-147 314.5q0 118 72.5 209.5t196.5 140.5q-103 47 -161.5 130.5t-58.5 191.5q0 192 131 295.5t341 103.5q201 0 327 -103.5t126 -295.5z M813 420q0 97 -60.5 159.5t-149.5 62.5q-98 0 -163 -62.5t-65 -159.5q0 -99 64.5 -158t165.5 -59q90 0 149 59t59 158zM765 1065q0 86 -45 136.5t-117 50.5q-82 0 -131 -49.5t-49 -137.5q0 -89 50 -143.5t132 -54.5q72 0 116 54t44 144z" />
<glyph unicode="9" horiz-adv-x="1175" d="M532 203q108 0 177 81.5t69 227.5v94q-49 -63 -116 -95t-144 -32q-203 0 -318.5 132t-115.5 359q0 219 137 363t350 144q220 0 359 -148t139 -410v-392q0 -252 -151.5 -400t-385.5 -148q-76 0 -156.5 16.5t-151.5 46.5l49 211q63 -26 123 -38t136 -12zM567 693 q71 0 125 29t86 78v170q0 137 -56 209.5t-150 72.5q-88 0 -142 -81.5t-54 -200.5q0 -125 49 -201t142 -76z" />
<glyph unicode=":" horiz-adv-x="582" d="M436 0h-292v256h292v-256zM436 876h-292v256h292v-256z" />
<glyph unicode=";" horiz-adv-x="562" d="M437 876h-292v256h292v-256zM468 13l-159 -315h-195l70 324v228h284v-237z" />
<glyph unicode="&#x3c;" horiz-adv-x="1043" d="M339 550v-6l577 -203v-272l-862 367v227l862 366v-272z" />
<glyph unicode="=" horiz-adv-x="1181" d="M1032 763h-896v229h896v-229zM1032 332h-896v229h896v-229z" />
<glyph unicode="&#x3e;" horiz-adv-x="1058" d="M705 539v6l-586 206v269l872 -366v-227l-872 -367v270z" />
<glyph unicode="?" horiz-adv-x="1021" d="M324 414q1 140 41.5 205t161.5 158q71 58 113.5 125t42.5 150q0 92 -48.5 144t-138.5 52q-74 0 -125.5 -44t-52.5 -129h-284l-2 6q-3 192 126.5 294t337.5 102q224 0 351.5 -113.5t127.5 -308.5q0 -127 -74.5 -235t-186.5 -181q-61 -47 -80 -94.5t-19 -130.5h-291zM617 0 h-294v250h294v-250z" />
<glyph unicode="@" horiz-adv-x="1817" d="M1730 513q-9 -218 -128 -376t-356 -158q-78 0 -135 44t-81 123q-44 -82 -109.5 -123t-153.5 -41q-141 0 -216.5 119t-55.5 315q25 254 143.5 407t287.5 153q116 0 186.5 -26t154.5 -80l-3 -4h5l-51 -573q-7 -95 14 -130t57 -35q115 0 184.5 109t77.5 276 q16 353 -136.5 551t-471.5 198q-303 0 -484 -213t-196 -571q-17 -355 146 -560t469 -205q85 0 175.5 20t155.5 50l38 -147q-67 -42 -170.5 -65.5t-202.5 -23.5q-396 0 -610.5 249t-197.5 682q18 427 255.5 683.5t625.5 256.5q387 0 593 -242.5t190 -662.5zM720 416 q-10 -127 18.5 -192.5t92.5 -65.5q56 0 101.5 26t81.5 96v6.5t1 6.5l44 496q-23 7 -46 11t-48 4q-111 0 -169 -96.5t-76 -291.5z" />
<glyph unicode="A" horiz-adv-x="1303" d="M893 314h-472l-98 -314h-305l491 1456h299l489 -1456h-305zM493 543h329l-161 513h-6z" />
<glyph unicode="B" horiz-adv-x="1305" d="M134 0v1456h477q257 0 401 -100.5t144 -298.5q0 -100 -52 -179t-152 -119q136 -25 205 -118t69 -217q0 -209 -138 -316.5t-391 -107.5h-563zM426 644v-420h271q116 0 177 50.5t61 149.5q0 106 -60 163t-181 57h-268zM426 846h195q117 0 180 48t63 140q0 101 -63.5 149 t-189.5 48h-185v-385z" />
<glyph unicode="C" horiz-adv-x="1303" d="M1226 482l2 -6q4 -233 -142 -365t-403 -132q-262 0 -423 168.5t-161 435.5v289q0 266 157 435.5t412 169.5q266 0 416 -130t146 -366l-2 -6h-284q0 140 -67.5 208.5t-208.5 68.5q-131 0 -204.5 -105.5t-73.5 -272.5v-291q0 -168 77.5 -274t215.5 -106q131 0 195.5 68.5 t64.5 210.5h283z" />
<glyph unicode="D" horiz-adv-x="1355" d="M134 0v1456h508q267 0 440 -170.5t173 -437.5v-241q0 -268 -173 -437.5t-440 -169.5h-508zM426 1231v-1007h216q144 0 232 107.5t88 275.5v243q0 167 -88 274t-232 107h-216z" />
<glyph unicode="E" horiz-adv-x="1139" d="M966 640h-540v-416h642v-224h-934v1456h932v-225h-640v-366h540v-225z" />
<glyph unicode="F" horiz-adv-x="1139" d="M985 605h-559v-605h-292v1456h953v-225h-661v-401h559v-225z" />
<glyph unicode="G" horiz-adv-x="1364" d="M1250 199q-68 -89 -203 -154.5t-348 -65.5q-264 0 -432 166t-168 431v304q0 264 163 430.5t419 166.5q267 0 409 -126.5t137 -337.5l-2 -6h-275q0 116 -67 180.5t-195 64.5q-134 0 -216 -103.5t-82 -266.5v-306q0 -165 84 -269t225 -104q104 0 164.5 21t93.5 53v282h-280 v202h573v-562z" />
<glyph unicode="H" horiz-adv-x="1445" d="M1311 0h-292v605h-593v-605h-292v1456h292v-626h593v626h292v-1456z" />
<glyph unicode="I" horiz-adv-x="601" d="M446 0h-292v1456h292v-1456z" />
<glyph unicode="J" horiz-adv-x="1137" d="M714 1456h291v-1005q0 -216 -132.5 -344t-340.5 -128q-231 0 -366 114t-130 331l2 6h284q0 -116 57 -171.5t153 -55.5q80 0 131 66.5t51 181.5v1005z" />
<glyph unicode="K" horiz-adv-x="1305" d="M533 608h-107v-608h-292v1456h292v-595h82l399 595h361l-504 -677l543 -779h-372z" />
<glyph unicode="L" horiz-adv-x="1138" d="M426 224h652v-224h-944v1456h292v-1232z" />
<glyph unicode="M" horiz-adv-x="1782" d="M887 383h6l374 1073h381v-1456h-292v994l-6 1l-360 -995h-198l-360 997l-6 -1v-996h-292v1456h383z" />
<glyph unicode="N" horiz-adv-x="1445" d="M1311 0h-292l-587 982l-6 -1v-981h-292v1456h292l587 -981l6 1v980h292v-1456z" />
<glyph unicode="O" horiz-adv-x="1409" d="M1312 597q0 -269 -169 -443.5t-440 -174.5q-270 0 -438 175t-168 443v262q0 267 167.5 442.5t436.5 175.5q271 0 441 -175.5t170 -442.5v-262zM1021 861q0 170 -85 279t-235 109q-148 0 -230.5 -109t-82.5 -279v-264q0 -173 83 -282t232 -109q150 0 234 109t84 282v264z " />
<glyph unicode="P" horiz-adv-x="1305" d="M426 528v-528h-292v1456h557q251 0 395 -128t144 -337t-144 -336t-395 -127h-265zM426 753h265q122 0 185 66.5t63 169.5q0 105 -62.5 173.5t-185.5 68.5h-265v-478z" />
<glyph unicode="Q" horiz-adv-x="1441" d="M1312 597q0 -110 -30.5 -207t-86.5 -175l217 -217l-191 -156l-213 210q-67 -36 -143.5 -54.5t-161.5 -18.5q-270 0 -438 175t-168 443v262q0 267 167.5 442.5t436.5 175.5q271 0 441 -175.5t170 -442.5v-262zM1021 861q0 170 -85 279t-235 109q-148 0 -230.5 -109 t-82.5 -279v-264q0 -173 83 -282t232 -109q150 0 234 109t84 282v264z" />
<glyph unicode="R" horiz-adv-x="1305" d="M426 582v-582h-292v1456h504q249 0 389.5 -113.5t140.5 -316.5q0 -112 -59.5 -193.5t-173.5 -131.5q129 -38 185.5 -127t56.5 -220v-107q0 -61 16.5 -127.5t56.5 -98.5v-21h-301q-40 32 -51.5 106t-11.5 143v103q0 109 -59.5 169.5t-168.5 60.5h-232zM426 807h207 q123 0 183 52t60 154q0 100 -60.5 159t-177.5 59h-212v-424z" />
<glyph unicode="S" horiz-adv-x="1266" d="M893 380q0 84 -58.5 135t-205.5 96q-252 76 -382.5 179t-130.5 281q0 179 147 292.5t375 113.5q242 0 389.5 -122t142.5 -320l-2 -6h-283q0 109 -66 167.5t-185 58.5q-108 0 -167 -52t-59 -133q0 -74 64 -121.5t221 -100.5q240 -68 366 -177.5t126 -288.5 q0 -187 -146 -295t-386 -108q-235 0 -403.5 117t-163.5 349l2 6h283q0 -129 76 -190t206 -61q117 0 178.5 49t61.5 131z" />
<glyph unicode="T" horiz-adv-x="1175" d="M1149 1231h-416v-1231h-292v1231h-410v225h1118v-225z" />
<glyph unicode="U" horiz-adv-x="1407" d="M1288 1456v-953q0 -246 -163 -385t-423 -139q-259 0 -420.5 139t-161.5 385v953h293v-953q0 -146 78 -223t211 -77q135 0 214 77t79 223v953h293z" />
<glyph unicode="V" horiz-adv-x="1303" d="M630 395l18 -80h6l17 77l317 1064h308l-495 -1456h-300l-494 1456h308z" />
<glyph unicode="W" horiz-adv-x="1804" d="M1283 468h6l193 988h301l-340 -1456h-271l-268 959h-6l-267 -959h-271l-340 1456h301l194 -987h6l262 987h236z" />
<glyph unicode="X" horiz-adv-x="1303" d="M649 940l273 516h340l-432 -722l457 -734h-353l-281 525l-281 -525h-341l443 734l-432 722h338z" />
<glyph unicode="Y" horiz-adv-x="1303" d="M648 785h6l318 671h320l-499 -944v-512h-292v527l-491 929h320z" />
<glyph unicode="Z" horiz-adv-x="1163" d="M421 224h668v-224h-1012v152l648 1079h-647v225h994v-146z" />
<glyph unicode="[" horiz-adv-x="570" d="M553 1475h-141v-1595h141v-216h-434v2027h434v-216z" />
<glyph unicode="\" horiz-adv-x="863" d="M2 1456h289l608 -1581h-289z" />
<glyph unicode="]" horiz-adv-x="570" d="M13 1691h434v-2027h-434v216h142v1595h-142v216z" />
<glyph unicode="^" horiz-adv-x="896" d="M275 729h-231l299 727h212l299 -727h-231l-165 413l-8 34h-6l-7 -34z" />
<glyph unicode="_" horiz-adv-x="914" d="M911 -219h-910v219h910v-219z" />
<glyph unicode="`" horiz-adv-x="678" d="M577 1252h-251l-272 260l2 6h325z" />
<glyph unicode="a" horiz-adv-x="1100" d="M750 0q-16 37 -27.5 78t-16.5 84q-45 -79 -119 -131t-176 -52q-170 0 -262 87.5t-92 238.5q0 159 122.5 246.5t357.5 87.5h164v86q0 78 -41 121t-122 43q-71 0 -109.5 -34.5t-38.5 -94.5h-281l-2 6q-7 137 119.5 236.5t330.5 99.5q195 0 315.5 -98t120.5 -281v-447 q0 -76 11.5 -143t36.5 -133h-291zM483 195q76 0 136 38t82 88v153h-164q-93 0 -140.5 -46t-47.5 -113q0 -55 35.5 -87.5t98.5 -32.5z" />
<glyph unicode="b" d="M1088 511q0 -242 -108 -387t-312 -145q-95 0 -165.5 40t-119.5 117l-24 -136h-247v1560h291v-593q47 65 112.5 100t150.5 35q206 0 314 -155.5t108 -414.5v-21zM797 532q0 158 -46.5 250.5t-158.5 92.5q-68 0 -115 -28.5t-74 -81.5v-458q27 -49 74.5 -75t116.5 -26 q113 0 158 79.5t45 225.5v21z" />
<glyph unicode="c" horiz-adv-x="1056" d="M564 203q76 0 121 45.5t45 121.5h266l2 -6q4 -164 -122 -274.5t-312 -110.5q-240 0 -371 153.5t-131 392.5v30q0 238 130.5 392.5t369.5 154.5q198 0 319 -114t117 -300l-2 -6h-266q0 84 -44.5 139.5t-123.5 55.5q-113 0 -160.5 -90.5t-47.5 -231.5v-30q0 -144 47.5 -233 t162.5 -89z" />
<glyph unicode="d" d="M67 532q0 256 110.5 413t311.5 157q81 0 146 -35t114 -100v593h293v-1560h-249l-25 133q-51 -75 -121 -114.5t-160 -39.5q-199 0 -309.5 146t-110.5 386v21zM358 511q0 -142 48 -223.5t156 -81.5q63 0 110 25.5t77 74.5v461q-30 51 -76.5 79.5t-108.5 28.5 q-107 0 -156.5 -95t-49.5 -248v-21z" />
<glyph unicode="e" horiz-adv-x="1071" d="M581 -21q-242 0 -378 148.5t-136 382.5v40q0 243 132 398t363 154q218 0 334.5 -133.5t116.5 -359.5v-151h-645l-3 -6q7 -111 67.5 -180t179.5 -69q98 0 166.5 20t141.5 61l79 -180q-65 -53 -176 -89t-242 -36zM562 877q-88 0 -135.5 -60.5t-57.5 -160.5l2 -5h356v22 q0 95 -39 149.5t-126 54.5z" />
<glyph unicode="f" horiz-adv-x="714" d="M188 0v877h-161v205h161v120q0 182 105 280.5t295 98.5q37 0 75.5 -5.5t84.5 -15.5l-25 -217q-24 4 -46.5 7t-52.5 3q-71 0 -107.5 -39t-36.5 -112v-120h208v-205h-208v-877h-292z" />
<glyph unicode="g" d="M69 532q0 256 111 413t312 157q91 0 160 -41t118 -117l23 138h251v-1077q0 -211 -138 -326.5t-385 -115.5q-82 0 -174 22.5t-170 61.5l49 218q67 -32 138.5 -48.5t154.5 -16.5q120 0 176.5 50t56.5 156v98q-48 -61 -113 -93t-149 -32q-199 0 -310 146t-111 386v21z M361 511q0 -142 47.5 -223.5t155.5 -81.5q67 0 113.5 24.5t74.5 71.5v469q-28 50 -74.5 77t-111.5 27q-107 0 -156 -95t-49 -248v-21z" />
<glyph unicode="h" d="M397 945q51 74 125 115.5t164 41.5q169 0 265.5 -112.5t96.5 -347.5v-642h-292v644q0 126 -40.5 178.5t-121.5 52.5q-67 0 -116.5 -21.5t-80.5 -61.5v-792h-292v1560h292v-615z" />
<glyph unicode="i" horiz-adv-x="547" d="M419 0h-292v1082h292v-1082zM419 1341h-292v219h292v-219z" />
<glyph unicode="j" horiz-adv-x="543" d="M427 1082v-1122q0 -190 -101 -293.5t-281 -103.5q-40 0 -73 4t-70 13l14 223q23 -6 46 -9t49 -3q59 0 91 41.5t32 127.5v1122h293zM421 1343h-293v217h293v-217z" />
<glyph unicode="k" horiz-adv-x="1097" d="M478 453h-74v-453h-292v1560h292v-885h65l259 407h338l-352 -493l400 -589h-336z" />
<glyph unicode="l" horiz-adv-x="547" d="M419 0h-292v1560h292v-1560z" />
<glyph unicode="m" horiz-adv-x="1772" d="M383 1082l12 -143q52 78 130.5 120.5t181.5 42.5q104 0 178 -46t112 -139q50 87 130 136t188 49q160 0 252.5 -113.5t92.5 -346.5v-642h-292v643q0 130 -40 181t-119 51q-62 0 -107.5 -27.5t-72.5 -76.5q0 -19 1 -32.5t1 -27.5v-711h-291v643q0 127 -40 179.5t-120 52.5 q-59 0 -103.5 -22.5t-73.5 -63.5v-789h-291v1082h271z" />
<glyph unicode="n" d="M379 1082l13 -155q54 83 133 129t177 46q164 0 256 -105.5t92 -333.5v-663h-293v662q0 116 -40.5 164.5t-121.5 48.5q-65 0 -114.5 -24.5t-81.5 -67.5v-783h-292v1082h272z" />
<glyph unicode="o" d="M67 551q0 242 135 396.5t374 154.5q240 0 376 -154t136 -397v-21q0 -244 -135.5 -397.5t-374.5 -153.5q-240 0 -375.5 153.5t-135.5 397.5v21zM358 530q0 -148 52 -237.5t168 -89.5q113 0 165.5 90t52.5 237v21q0 144 -53 235t-167 91q-113 0 -165.5 -91.5t-52.5 -234.5 v-21z" />
<glyph unicode="p" d="M1088 511q0 -240 -111 -386t-310 -146q-85 0 -151 31.5t-113 92.5v-519h-291v1498h263l17 -128q48 71 115.5 109.5t157.5 38.5q201 0 312 -157t111 -413v-21zM796 532q0 153 -51 248t-156 95q-66 0 -112.5 -27t-73.5 -77v-474q27 -46 73.5 -70t114.5 -24q106 0 155.5 83 t49.5 225v21z" />
<glyph unicode="q" d="M67 532q0 256 110.5 413t311.5 157q90 0 158 -39.5t117 -113.5l27 133h248v-1498h-292v517q-48 -60 -112.5 -91t-147.5 -31q-199 0 -309.5 146t-110.5 386v21zM358 511q0 -142 48 -225t156 -83q64 0 110 24t75 70v480q-29 48 -74.5 74t-108.5 26q-107 0 -156.5 -96 t-49.5 -249v-21z" />
<glyph unicode="r" horiz-adv-x="721" d="M681 831l-107 3q-65 0 -107 -27t-64 -76v-731h-291v1082h271l13 -160q38 85 98.5 132.5t139.5 47.5q22 0 40.5 -3.5t37.5 -8.5z" />
<glyph unicode="s" horiz-adv-x="1056" d="M697 300q0 48 -46.5 82.5t-172.5 60.5q-190 38 -288.5 115t-98.5 209q0 139 118 237t314 98q205 0 328.5 -98t118.5 -244l-2 -6h-282q0 65 -42 106t-121 41q-70 0 -111 -35t-41 -86q0 -50 42.5 -81.5t172.5 -56.5q199 -40 296.5 -117.5t97.5 -213.5q0 -146 -125 -239 t-330 -93q-216 0 -341.5 109.5t-119.5 249.5l2 6h267q3 -87 57 -126t141 -39q81 0 123.5 32.5t42.5 88.5z" />
<glyph unicode="t" horiz-adv-x="713" d="M462 1347v-265h183v-205h-183v-551q0 -63 26.5 -90t69.5 -27q23 0 40 2.5t39 8.5l24 -211q-44 -15 -85.5 -22.5t-90.5 -7.5q-151 0 -232.5 83t-81.5 263v552h-158v205h158v265h291z" />
<glyph unicode="u" d="M775 160q-50 -87 -127 -134t-179 -47q-171 0 -267.5 116t-96.5 360v627h291v-629q0 -142 38.5 -194.5t119.5 -52.5q70 0 120 22.5t82 66.5v787h292v-1082h-242z" />
<glyph unicode="v" horiz-adv-x="1046" d="M503 403l19 -100h6l20 100l178 679h305l-368 -1082h-279l-368 1082h305z" />
<glyph unicode="w" horiz-adv-x="1507" d="M1053 402h6l131 680h284l-275 -1082h-244l-201 624h-6l-201 -624h-243l-275 1082h284l133 -677h6l202 677h195z" />
<glyph unicode="x" horiz-adv-x="1046" d="M519 738h6l166 344h330l-326 -535l337 -547h-329l-177 359l-177 -359h-330l337 547l-327 535h328z" />
<glyph unicode="y" horiz-adv-x="1046" d="M502 454l12 -60h6l207 688h314l-439 -1244q-46 -116 -125 -195.5t-237 -79.5q-37 0 -68.5 6t-76.5 17l34 213q13 -2 28 -4t27 -2q72 0 111 35.5t60 88.5l34 84l-384 1081h314z" />
<glyph unicode="z" horiz-adv-x="1046" d="M438 224h536v-224h-899v172l515 684h-499v226h866v-167z" />
<glyph unicode="{" horiz-adv-x="676" d="M585 -360q-195 55 -277.5 175t-82.5 291v203q0 99 -43.5 154t-133.5 55v201q90 0 133.5 54.5t43.5 155.5v203q0 171 82.5 290.5t277.5 174.5l56 -157q-85 -31 -120 -110.5t-35 -197.5v-203q0 -104 -44.5 -184.5t-134.5 -125.5q90 -47 134.5 -127.5t44.5 -182.5v-203 q0 -118 35 -197.5t120 -110.5z" />
<glyph unicode="|" horiz-adv-x="519" d="M374 -270h-231v1726h231v-1726z" />
<glyph unicode="}" horiz-adv-x="676" d="M34 -202q85 31 120 110.5t35 197.5v203q0 104 46 184t140 125q-94 45 -140 125.5t-46 185.5v203q0 118 -35 197.5t-120 110.5l56 157q194 -55 277 -174.5t83 -290.5v-203q0 -101 43 -155.5t135 -54.5v-201q-92 0 -135 -55t-43 -154v-203q0 -171 -83 -291t-277 -175z" />
<glyph unicode="~" horiz-adv-x="1327" d="M1220 758q0 -161 -88.5 -270.5t-223.5 -109.5q-85 0 -157 31.5t-150 101.5q-52 44 -89.5 64t-81.5 20q-52 0 -87.5 -51t-35.5 -122l-202 26q0 162 86.5 269.5t223.5 107.5q83 0 158.5 -33.5t151.5 -99.5q49 -45 86.5 -64.5t81.5 -19.5q50 0 87 52t37 125z" />
<glyph unicode="&#xa1;" horiz-adv-x="580" d="M434 -374h-292v953h292v-953zM434 825h-292v257h292v-257z" />
<glyph unicode="&#xa2;" horiz-adv-x="1181" d="M564 203q76 0 121 45.5t45 121.5h267l3 -5q2 -131 -81 -231.5t-219 -136.5v-242h-200v228q-211 21 -324.5 170.5t-113.5 371.5v30q0 221 113.5 371.5t324.5 172.5v219h200v-233q140 -36 222 -142.5t82 -260.5h-274q0 84 -44.5 139.5t-123.5 55.5q-113 0 -160.5 -90.5 t-47.5 -231.5v-30q0 -144 47.5 -233t162.5 -89z" />
<glyph unicode="&#xa3;" horiz-adv-x="1216" d="M551 588l4 -85q0 -78 -30 -150t-86 -129h713v-224h-996v224h10q47 12 70.5 95t23.5 171l-4 98h-164v225h155l-8 214q0 210 120.5 330t322.5 120q215 0 333.5 -111.5t114.5 -294.5l-2 -6h-284q0 96 -46 141.5t-117 45.5q-70 0 -110 -58.5t-40 -166.5l10 -214h355v-225 h-345z" />
<glyph unicode="&#xa4;" horiz-adv-x="1417" d="M1072 107q-77 -62 -169 -94.5t-192 -32.5q-101 0 -193.5 32.5t-167.5 93.5l-129 -132l-141 144l135 137q-49 76 -74.5 165.5t-25.5 187.5q0 101 28 194t81 171l-144 147l141 144l142 -145q74 55 162.5 85t185.5 30q96 0 185 -30.5t164 -86.5l144 148l142 -145l-148 -151 q51 -78 79 -169.5t28 -191.5q0 -97 -25.5 -185.5t-72.5 -163.5l139 -141l-142 -145zM301 608q0 -185 119 -312t291 -127q170 0 289.5 127.5t119.5 311.5q0 183 -119.5 310t-289.5 127q-172 0 -291 -127t-119 -310z" />
<glyph unicode="&#xa5;" horiz-adv-x="1253" d="M623 848h6l281 608h320l-382 -714h244v-165h-324v-125h324v-164h-324v-288h-292v288h-339v164h339v125h-339v165h267l-382 714h321z" />
<glyph unicode="&#xa6;" horiz-adv-x="517" d="M127 -270v795h262v-795h-262zM389 698h-262v758h262v-758z" />
<glyph unicode="&#xa7;" horiz-adv-x="1287" d="M1180 475q0 -91 -42 -159t-121 -111q68 -51 102.5 -121t34.5 -168q0 -177 -140 -277t-377 -100q-232 0 -387.5 99.5t-150.5 317.5l2 6l283 1q0 -106 72.5 -152t180.5 -46q107 0 166.5 41.5t59.5 108.5t-61 107.5t-230 90.5q-244 64 -361 157.5t-117 265.5q0 89 42 158 t121 113q-69 50 -103 120.5t-34 168.5q0 172 141.5 276.5t378.5 104.5q243 0 380.5 -111t132.5 -311l-2 -6h-283q0 88 -60 145.5t-168 57.5q-114 0 -171 -43.5t-57 -110.5q0 -75 55.5 -113.5t232.5 -86.5q247 -64 363.5 -157.5t116.5 -265.5zM599 663q-40 10 -74 21t-65 22 q-38 -22 -56.5 -59t-18.5 -85q0 -80 55.5 -121.5t232.5 -93.5q34 -10 68.5 -20t69.5 -21q39 22 60.5 59t21.5 85q0 71 -62 116t-232 97z" />
<glyph unicode="&#xa8;" horiz-adv-x="1090" d="M922 1252h-266v204h266v-204zM422 1252h-266v204h266v-204z" />
<glyph unicode="&#xa9;" horiz-adv-x="1606" d="M1109 596l2 -6q4 -151 -84 -229.5t-245 -78.5q-160 0 -254.5 106t-94.5 281v119q0 173 94.5 280t254.5 107q157 0 245.5 -79.5t84.5 -228.5l-2 -6h-148q0 94 -45 136.5t-135 42.5q-94 0 -144 -69t-50 -182v-120q0 -115 50 -183.5t144 -68.5q90 0 134.5 41.5t44.5 137.5 h148zM208 729q0 -264 171.5 -444.5t416.5 -180.5q244 0 415.5 180.5t171.5 444.5q0 263 -171.5 442.5t-415.5 179.5q-246 0 -417 -179.5t-171 -442.5zM86 729q0 315 207 531t503 216q295 0 502.5 -216t207.5 -531q0 -316 -208 -533t-502 -217q-296 0 -503 217t-207 533z" />
<glyph unicode="&#xaa;" horiz-adv-x="909" d="M604 706q-8 21 -13 44.5t-8 49.5q-33 -47 -88.5 -77.5t-133.5 -30.5q-119 0 -184 61t-65 167q0 111 84.5 171t246.5 60h137v51q0 62 -29.5 94.5t-86.5 32.5q-66 0 -102 -26t-36 -73l-165 13l-1 6q-6 98 79 163t225 65q134 0 212.5 -71t78.5 -205v-314q0 -51 6 -95t20 -86 h-177zM404 836q51 0 105 30t71 65v103h-136q-74 0 -115.5 -32t-41.5 -78q0 -43 29 -65.5t88 -22.5z" />
<glyph unicode="&#xab;" horiz-adv-x="1025" d="M324 515l240 -399h-187l-280 390v19l280 390h187zM659 515l240 -399h-187l-280 390v19l280 390h187z" />
<glyph unicode="&#xac;" horiz-adv-x="1129" d="M961 374h-200v260h-635v171h835v-431z" />
<glyph unicode="&#xad;" horiz-adv-x="892" d="M735 510h-589v225h589v-225z" />
<glyph unicode="&#xae;" horiz-adv-x="1606" d="M86 729q0 315 207 531t503 216q295 0 502.5 -216t207.5 -531q0 -316 -208 -533t-502 -217q-296 0 -503 217t-207 533zM208 729q0 -264 171.5 -444.5t416.5 -180.5q244 0 415.5 180.5t171.5 444.5q0 263 -171.5 442.5t-415.5 179.5q-246 0 -417 -179.5t-171 -442.5z M652 653v-337h-151v850h281q151 0 238 -68t87 -194q0 -58 -29 -101.5t-85 -74.5q58 -30 84.5 -84.5t26.5 -128.5v-56q0 -41 3.5 -73.5t13.5 -53.5v-16h-155q-9 21 -11 61.5t-2 82.5v54q0 71 -33.5 105t-109.5 34h-158zM652 787h135q71 0 120.5 30t49.5 86q0 72 -39 101 t-136 29h-130v-246z" />
<glyph unicode="&#xaf;" horiz-adv-x="1028" d="M879 1292h-731v165h731v-165z" />
<glyph unicode="&#xb0;" horiz-adv-x="796" d="M126 1203q0 112 80.5 193t192.5 81q110 0 189 -81t79 -193q0 -113 -79 -192t-189 -79q-113 0 -193 79t-80 192zM273 1203q0 -53 37 -88.5t89 -35.5q51 0 86 35t35 89t-35 91t-86 37q-52 0 -89 -37t-37 -91z" />
<glyph unicode="&#xb1;" horiz-adv-x="1101" d="M679 947h327v-232h-327v-383h-256v383h-333v232h333v363h256v-363zM948 -43h-834v228h834v-228z" />
<glyph unicode="&#xb2;" horiz-adv-x="860" d="M736 667h-622v155l309 252q60 50 77.5 83.5t17.5 74.5q0 39 -23.5 65.5t-72.5 26.5q-55 0 -83 -30t-28 -77h-201l-2 6q-6 106 82.5 181t236.5 75q144 0 223 -65t79 -183q0 -82 -53.5 -144.5t-178.5 -165.5l-109 -93l2 -6h346v-155z" />
<glyph unicode="&#xb3;" horiz-adv-x="856" d="M408 1139q62 0 92 24.5t30 70.5q0 38 -28.5 63.5t-83.5 25.5q-51 0 -79.5 -22t-28.5 -53h-200l-2 6q-6 101 82 162.5t222 61.5q152 0 240.5 -59.5t88.5 -169.5q0 -55 -35.5 -100.5t-96.5 -70.5q70 -24 107.5 -71.5t37.5 -115.5q0 -112 -89.5 -174t-241.5 -62 q-146 0 -240 62.5t-88 175.5l2 6h201q0 -42 31.5 -65.5t91.5 -23.5q56 0 90 24t34 68q0 50 -35 77t-102 27h-111v133h111z" />
<glyph unicode="&#xb4;" horiz-adv-x="727" d="M314 1518h325l2 -6l-277 -260h-249z" />
<glyph unicode="&#xb5;" horiz-adv-x="1264" d="M430 1082v-620q0 -149 45 -202.5t135 -53.5q75 0 125 27.5t78 79.5v769h292v-1082h-272l-6 67q-44 -43 -100.5 -65.5t-123.5 -22.5q-51 0 -94.5 10.5t-78.5 33.5v-439h-291v1498h291z" />
<glyph unicode="&#xb6;" horiz-adv-x="1078" d="M636 0v520h-83q-233 0 -362.5 129.5t-129.5 338.5q0 207 129.5 337.5t362.5 130.5h375v-1456h-292z" />
<glyph unicode="&#xb7;" horiz-adv-x="619" d="M451 568h-292v260h292v-260z" />
<glyph unicode="&#xb8;" horiz-adv-x="549" d="M347 6l-11 -57q64 -11 107 -52t43 -121q0 -107 -91.5 -171t-259.5 -64l-7 161q51 0 81 20.5t30 62.5q0 41 -32 57.5t-110 21.5l31 142h219z" />
<glyph unicode="&#xb9;" horiz-adv-x="573" d="M416 665h-211v630h-127v159l338 23v-812z" />
<glyph unicode="&#xba;" horiz-adv-x="937" d="M118 1142q0 148 94 241.5t252 93.5t252.5 -93.5t94.5 -241.5v-117q0 -149 -94 -241.5t-251 -92.5q-159 0 -253.5 92.5t-94.5 241.5v117zM293 1025q0 -85 44 -136.5t129 -51.5q82 0 126 51.5t44 136.5v117q0 83 -44.5 135t-127.5 52q-84 0 -127.5 -52t-43.5 -135v-117z " />
<glyph unicode="&#xbb;" horiz-adv-x="1025" d="M341 550l-239 400h188l280 -390v-19l-280 -390h-188zM687 550l-239 400h188l280 -390v-19l-280 -390h-188z" />
<glyph unicode="&#xbc;" horiz-adv-x="1493" d="M505 664h-211v630h-127v159l338 23v-812zM451 117l-142 75l711 1138l142 -75zM1397 296h101v-157h-101v-139h-211v139h-410l-14 126l424 536h211v-505zM978 296h208v257l-6 2l-13 -20z" />
<glyph unicode="&#xbd;" horiz-adv-x="1553" d="M464 117l-142 75l711 1138l142 -75zM505 664h-211v630h-127v159l338 23v-812zM1547 0h-622v155l309 252q60 50 77.5 83.5t17.5 74.5q0 39 -23.5 65.5t-72.5 26.5q-55 0 -83 -30t-28 -77h-201l-2 6q-6 106 82.5 181t236.5 75q144 0 223 -65t79 -183q0 -82 -53.5 -144.5 t-178.5 -165.5l-109 -93l2 -6h346v-155z" />
<glyph unicode="&#xbe;" horiz-adv-x="1717" d="M634 117l-142 75l711 1138l142 -75zM1586 296h101v-157h-101v-139h-211v139h-410l-14 126l424 536h211v-505zM1167 296h208v257l-6 2l-13 -20zM424 1140q62 0 92 24.5t30 70.5q0 38 -28.5 63.5t-83.5 25.5q-51 0 -79.5 -22t-28.5 -53h-200l-2 6q-6 101 82 162.5t222 61.5 q152 0 240.5 -59.5t88.5 -169.5q0 -55 -35.5 -100.5t-96.5 -70.5q70 -24 107.5 -71.5t37.5 -115.5q0 -112 -89.5 -174t-241.5 -62q-146 0 -240 62.5t-88 175.5l2 6h201q0 -42 31.5 -65.5t91.5 -23.5q56 0 90 24t34 68q0 50 -35 77t-102 27h-111v133h111z" />
<glyph unicode="&#xbf;" horiz-adv-x="1037" d="M726 668q-2 -141 -42.5 -206.5t-159.5 -157.5q-72 -58 -114.5 -125.5t-42.5 -149.5q0 -90 48.5 -142t139.5 -52q73 0 124 43t54 128h283l2 -6q2 -191 -127.5 -292.5t-335.5 -101.5q-226 0 -353 113t-127 308q0 125 74 233t187 183q60 45 79.5 92.5t19.5 132.5h291z M433 1082h294v-251h-294v251z" />
<glyph unicode="&#xc0;" horiz-adv-x="1303" d="M893 314h-472l-98 -314h-305l491 1456h299l489 -1456h-305zM493 543h329l-161 513h-6zM793 1600h-251l-272 260l2 6h325z" />
<glyph unicode="&#xc1;" horiz-adv-x="1303" d="M893 314h-472l-98 -314h-305l491 1456h299l489 -1456h-305zM493 543h329l-161 513h-6zM711 1866h325l2 -6l-277 -260h-249z" />
<glyph unicode="&#xc2;" horiz-adv-x="1303" d="M893 314h-472l-98 -314h-305l491 1456h299l489 -1456h-305zM493 543h329l-161 513h-6zM1025 1615v-23h-232l-140 133l-139 -133h-227v26l282 240h169z" />
<glyph unicode="&#xc3;" horiz-adv-x="1303" d="M893 314h-472l-98 -314h-305l491 1456h299l489 -1456h-305zM493 543h329l-161 513h-6zM1027 1856q0 -96 -59.5 -163.5t-150.5 -67.5q-70 0 -158.5 43.5t-140.5 43.5q-36 0 -60 -32.5t-24 -77.5l-156 42q0 94 59.5 163.5t149.5 69.5q56 0 152 -43.5t148 -43.5q34 0 60 32 t26 79z" />
<glyph unicode="&#xc4;" horiz-adv-x="1303" d="M893 314h-472l-98 -314h-305l491 1456h299l489 -1456h-305zM493 543h329l-161 513h-6zM1036 1601h-266v204h266v-204zM536 1601h-266v204h266v-204z" />
<glyph unicode="&#xc5;" horiz-adv-x="1303" d="M893 314h-472l-98 -314h-305l491 1456h299l489 -1456h-305zM493 543h329l-161 513h-6zM466 1746q0 73 54 122.5t134 49.5q78 0 131.5 -49.5t53.5 -122.5q0 -74 -53.5 -121.5t-131.5 -47.5q-80 0 -134 47.5t-54 121.5zM582 1746q0 -31 20.5 -51.5t51.5 -20.5q30 0 49.5 20 t19.5 52t-19.5 52.5t-49.5 20.5q-31 0 -51.5 -20.5t-20.5 -52.5z" />
<glyph unicode="&#xc6;" horiz-adv-x="1945" d="M1874 0h-898l-14 335h-440l-168 -335h-342l784 1456h1016v-228h-596l16 -366h499v-227h-490l17 -408h616v-227zM642 575h310l-23 559l-6 1z" />
<glyph unicode="&#xc7;" horiz-adv-x="1303" d="M1226 482l2 -6q4 -233 -142 -365t-403 -132q-262 0 -423 168.5t-161 435.5v289q0 266 157 435.5t412 169.5q266 0 416 -130t146 -366l-2 -6h-284q0 140 -67.5 208.5t-208.5 68.5q-131 0 -204.5 -105.5t-73.5 -272.5v-291q0 -168 77.5 -274t215.5 -106q131 0 195.5 68.5 t64.5 210.5h283zM780 4l-11 -57q64 -11 107 -52t43 -121q0 -107 -91.5 -171t-259.5 -64l-7 161q51 0 81 20.5t30 62.5q0 41 -32 57.5t-110 21.5l31 142h219z" />
<glyph unicode="&#xc8;" horiz-adv-x="1139" d="M966 640h-540v-416h642v-224h-934v1456h932v-225h-640v-366h540v-225zM741 1600h-251l-272 260l2 6h325z" />
<glyph unicode="&#xc9;" horiz-adv-x="1139" d="M966 640h-540v-416h642v-224h-934v1456h932v-225h-640v-366h540v-225zM659 1866h325l2 -6l-277 -260h-249z" />
<glyph unicode="&#xca;" horiz-adv-x="1139" d="M966 640h-540v-416h642v-224h-934v1456h932v-225h-640v-366h540v-225zM973 1615v-23h-232l-140 133l-139 -133h-227v26l282 240h169z" />
<glyph unicode="&#xcb;" horiz-adv-x="1139" d="M966 640h-540v-416h642v-224h-934v1456h932v-225h-640v-366h540v-225zM984 1601h-266v204h266v-204zM484 1601h-266v204h266v-204z" />
<glyph unicode="&#xcc;" horiz-adv-x="601" d="M446 0h-292v1456h292v-1456zM441 1600h-251l-272 260l2 6h325z" />
<glyph unicode="&#xcd;" horiz-adv-x="601" d="M446 0h-292v1456h292v-1456zM358 1866h325l2 -6l-277 -260h-249z" />
<glyph unicode="&#xce;" horiz-adv-x="601" d="M446 0h-292v1456h292v-1456zM673 1615v-23h-232l-140 133l-139 -133h-227v26l282 240h169z" />
<glyph unicode="&#xcf;" horiz-adv-x="601" d="M446 0h-292v1456h292v-1456zM684 1601h-266v204h266v-204zM184 1601h-266v204h266v-204z" />
<glyph unicode="&#xd0;" horiz-adv-x="1355" d="M134 0v652h-136v181h136v623h508q267 0 440 -170.5t173 -437.5v-241q0 -268 -173 -437.5t-440 -169.5h-508zM669 652h-243v-428h216q144 0 232 107.5t88 275.5v243q0 167 -88 274t-232 107h-216v-398h243v-181z" />
<glyph unicode="&#xd1;" horiz-adv-x="1445" d="M1311 0h-292l-587 982l-6 -1v-981h-292v1456h292l587 -981l6 1v980h292v-1456zM1096 1856q0 -96 -59.5 -163.5t-150.5 -67.5q-70 0 -158.5 43.5t-140.5 43.5q-36 0 -60 -32.5t-24 -77.5l-156 42q0 94 59.5 163.5t149.5 69.5q56 0 152 -43.5t148 -43.5q34 0 60 32t26 79z " />
<glyph unicode="&#xd2;" horiz-adv-x="1409" d="M1312 597q0 -269 -169 -443.5t-440 -174.5q-270 0 -438 175t-168 443v262q0 267 167.5 442.5t436.5 175.5q271 0 441 -175.5t170 -442.5v-262zM1021 861q0 170 -85 279t-235 109q-148 0 -230.5 -109t-82.5 -279v-264q0 -173 83 -282t232 -109q150 0 234 109t84 282v264z M845 1621h-251l-272 260l2 6h325z" />
<glyph unicode="&#xd3;" horiz-adv-x="1409" d="M1312 597q0 -269 -169 -443.5t-440 -174.5q-270 0 -438 175t-168 443v262q0 267 167.5 442.5t436.5 175.5q271 0 441 -175.5t170 -442.5v-262zM1021 861q0 170 -85 279t-235 109q-148 0 -230.5 -109t-82.5 -279v-264q0 -173 83 -282t232 -109q150 0 234 109t84 282v264z M763 1887h325l2 -6l-277 -260h-249z" />
<glyph unicode="&#xd4;" horiz-adv-x="1409" d="M1312 597q0 -269 -169 -443.5t-440 -174.5q-270 0 -438 175t-168 443v262q0 267 167.5 442.5t436.5 175.5q271 0 441 -175.5t170 -442.5v-262zM1021 861q0 170 -85 279t-235 109q-148 0 -230.5 -109t-82.5 -279v-264q0 -173 83 -282t232 -109q150 0 234 109t84 282v264z M1077 1636v-23h-232l-140 133l-139 -133h-227v26l282 240h169z" />
<glyph unicode="&#xd5;" horiz-adv-x="1409" d="M1312 597q0 -269 -169 -443.5t-440 -174.5q-270 0 -438 175t-168 443v262q0 267 167.5 442.5t436.5 175.5q271 0 441 -175.5t170 -442.5v-262zM1021 861q0 170 -85 279t-235 109q-148 0 -230.5 -109t-82.5 -279v-264q0 -173 83 -282t232 -109q150 0 234 109t84 282v264z M1079 1877q0 -96 -59.5 -163.5t-150.5 -67.5q-70 0 -158.5 43.5t-140.5 43.5q-36 0 -60 -32.5t-24 -77.5l-156 42q0 94 59.5 163.5t149.5 69.5q56 0 152 -43.5t148 -43.5q34 0 60 32t26 79z" />
<glyph unicode="&#xd6;" horiz-adv-x="1409" d="M1312 597q0 -269 -169 -443.5t-440 -174.5q-270 0 -438 175t-168 443v262q0 267 167.5 442.5t436.5 175.5q271 0 441 -175.5t170 -442.5v-262zM1021 861q0 170 -85 279t-235 109q-148 0 -230.5 -109t-82.5 -279v-264q0 -173 83 -282t232 -109q150 0 234 109t84 282v264z M1088 1622h-266v204h266v-204zM588 1622h-266v204h266v-204z" />
<glyph unicode="&#xd7;" horiz-adv-x="1088" d="M64 371l309 315l-309 315l172 164l303 -310l304 310l172 -164l-309 -315l309 -315l-172 -164l-304 309l-303 -309z" />
<glyph unicode="&#xd8;" horiz-adv-x="1410" d="M1312 597q0 -269 -169 -443.5t-440 -174.5q-80 0 -152.5 16.5t-136.5 49.5l-81 -140h-143l121 207q-103 83 -158.5 209t-55.5 276v262q0 267 167.5 442.5t436.5 175.5q98 0 186 -25.5t162 -73.5l81 140h143l-128 -220q80 -84 123.5 -196.5t43.5 -242.5v-262zM388 597 q0 -73 15 -135t44 -106l6 -1l467 803q-41 43 -96.5 67t-122.5 24q-148 0 -230.5 -109t-82.5 -279v-264zM1021 861q0 47 -7.5 90t-20.5 77l-5 1l-452 -775q34 -24 76 -36t91 -12q150 0 234 109t84 282v264z" />
<glyph unicode="&#xd9;" horiz-adv-x="1407" d="M1288 1456v-953q0 -246 -163 -385t-423 -139q-259 0 -420.5 139t-161.5 385v953h293v-953q0 -146 78 -223t211 -77q135 0 214 77t79 223v953h293zM844 1600h-251l-272 260l2 6h325z" />
<glyph unicode="&#xda;" horiz-adv-x="1407" d="M1288 1456v-953q0 -246 -163 -385t-423 -139q-259 0 -420.5 139t-161.5 385v953h293v-953q0 -146 78 -223t211 -77q135 0 214 77t79 223v953h293zM762 1866h325l2 -6l-277 -260h-249z" />
<glyph unicode="&#xdb;" horiz-adv-x="1407" d="M1288 1456v-953q0 -246 -163 -385t-423 -139q-259 0 -420.5 139t-161.5 385v953h293v-953q0 -146 78 -223t211 -77q135 0 214 77t79 223v953h293zM1076 1615v-23h-232l-140 133l-139 -133h-227v26l282 240h169z" />
<glyph unicode="&#xdc;" horiz-adv-x="1407" d="M1288 1456v-953q0 -246 -163 -385t-423 -139q-259 0 -420.5 139t-161.5 385v953h293v-953q0 -146 78 -223t211 -77q135 0 214 77t79 223v953h293zM1087 1601h-266v204h266v-204zM587 1601h-266v204h266v-204z" />
<glyph unicode="&#xdd;" horiz-adv-x="1303" d="M648 785h6l318 671h320l-499 -944v-512h-292v527l-491 929h320zM715 1866h325l2 -6l-277 -260h-249z" />
<glyph unicode="&#xde;" horiz-adv-x="1247" d="M424 1456v-270h221q254 0 396 -124t142 -324q0 -201 -142 -325t-396 -124h-221v-289h-292v1456h292zM424 961v-447h221q123 0 184.5 63.5t61.5 158.5t-61.5 160t-184.5 65h-221z" />
<glyph unicode="&#xdf;" horiz-adv-x="1294" d="M426 0h-291v1101q0 226 129 349t352 123q180 0 299 -95.5t119 -271.5q0 -108 -53.5 -205.5t-53.5 -165.5q0 -56 150 -197.5t150 -281.5q0 -189 -115 -283t-332 -94q-81 0 -160.5 15t-118.5 41l55 223q39 -22 96 -38.5t122 -16.5q76 0 119 38t43 103q0 71 -150 205.5 t-150 276.5q0 90 54.5 190t54.5 175q0 68 -45 113t-103 45q-76 0 -123.5 -67.5t-47.5 -184.5v-1097z" />
<glyph unicode="&#xe0;" horiz-adv-x="1100" d="M750 0q-16 37 -27.5 78t-16.5 84q-45 -79 -119 -131t-176 -52q-170 0 -262 87.5t-92 238.5q0 159 122.5 246.5t357.5 87.5h164v86q0 78 -41 121t-122 43q-71 0 -109.5 -34.5t-38.5 -94.5h-281l-2 6q-7 137 119.5 236.5t330.5 99.5q195 0 315.5 -98t120.5 -281v-447 q0 -76 11.5 -143t36.5 -133h-291zM483 195q76 0 136 38t82 88v153h-164q-93 0 -140.5 -46t-47.5 -113q0 -55 35.5 -87.5t98.5 -32.5zM686 1278h-251l-272 260l2 6h325z" />
<glyph unicode="&#xe1;" horiz-adv-x="1100" d="M750 0q-16 37 -27.5 78t-16.5 84q-45 -79 -119 -131t-176 -52q-170 0 -262 87.5t-92 238.5q0 159 122.5 246.5t357.5 87.5h164v86q0 78 -41 121t-122 43q-71 0 -109.5 -34.5t-38.5 -94.5h-281l-2 6q-7 137 119.5 236.5t330.5 99.5q195 0 315.5 -98t120.5 -281v-447 q0 -76 11.5 -143t36.5 -133h-291zM483 195q76 0 136 38t82 88v153h-164q-93 0 -140.5 -46t-47.5 -113q0 -55 35.5 -87.5t98.5 -32.5zM604 1544h325l2 -6l-277 -260h-249z" />
<glyph unicode="&#xe2;" horiz-adv-x="1100" d="M750 0q-16 37 -27.5 78t-16.5 84q-45 -79 -119 -131t-176 -52q-170 0 -262 87.5t-92 238.5q0 159 122.5 246.5t357.5 87.5h164v86q0 78 -41 121t-122 43q-71 0 -109.5 -34.5t-38.5 -94.5h-281l-2 6q-7 137 119.5 236.5t330.5 99.5q195 0 315.5 -98t120.5 -281v-447 q0 -76 11.5 -143t36.5 -133h-291zM483 195q76 0 136 38t82 88v153h-164q-93 0 -140.5 -46t-47.5 -113q0 -55 35.5 -87.5t98.5 -32.5zM918 1293v-23h-232l-140 133l-139 -133h-227v26l282 240h169z" />
<glyph unicode="&#xe3;" horiz-adv-x="1100" d="M750 0q-16 37 -27.5 78t-16.5 84q-45 -79 -119 -131t-176 -52q-170 0 -262 87.5t-92 238.5q0 159 122.5 246.5t357.5 87.5h164v86q0 78 -41 121t-122 43q-71 0 -109.5 -34.5t-38.5 -94.5h-281l-2 6q-7 137 119.5 236.5t330.5 99.5q195 0 315.5 -98t120.5 -281v-447 q0 -76 11.5 -143t36.5 -133h-291zM483 195q76 0 136 38t82 88v153h-164q-93 0 -140.5 -46t-47.5 -113q0 -55 35.5 -87.5t98.5 -32.5zM920 1534q0 -96 -59.5 -163.5t-150.5 -67.5q-70 0 -158.5 43.5t-140.5 43.5q-36 0 -60 -32.5t-24 -77.5l-156 42q0 94 59.5 163.5 t149.5 69.5q56 0 152 -43.5t148 -43.5q34 0 60 32t26 79z" />
<glyph unicode="&#xe4;" horiz-adv-x="1100" d="M750 0q-16 37 -27.5 78t-16.5 84q-45 -79 -119 -131t-176 -52q-170 0 -262 87.5t-92 238.5q0 159 122.5 246.5t357.5 87.5h164v86q0 78 -41 121t-122 43q-71 0 -109.5 -34.5t-38.5 -94.5h-281l-2 6q-7 137 119.5 236.5t330.5 99.5q195 0 315.5 -98t120.5 -281v-447 q0 -76 11.5 -143t36.5 -133h-291zM483 195q76 0 136 38t82 88v153h-164q-93 0 -140.5 -46t-47.5 -113q0 -55 35.5 -87.5t98.5 -32.5zM929 1279h-266v204h266v-204zM429 1279h-266v204h266v-204z" />
<glyph unicode="&#xe5;" horiz-adv-x="1100" d="M750 0q-16 37 -27.5 78t-16.5 84q-45 -79 -119 -131t-176 -52q-170 0 -262 87.5t-92 238.5q0 159 122.5 246.5t357.5 87.5h164v86q0 78 -41 121t-122 43q-71 0 -109.5 -34.5t-38.5 -94.5h-281l-2 6q-7 137 119.5 236.5t330.5 99.5q195 0 315.5 -98t120.5 -281v-447 q0 -76 11.5 -143t36.5 -133h-291zM483 195q76 0 136 38t82 88v153h-164q-93 0 -140.5 -46t-47.5 -113q0 -55 35.5 -87.5t98.5 -32.5zM359 1424q0 73 54 122.5t134 49.5q78 0 131.5 -49.5t53.5 -122.5q0 -74 -53.5 -121.5t-131.5 -47.5q-80 0 -134 47.5t-54 121.5zM475 1424 q0 -31 20.5 -51.5t51.5 -20.5q30 0 49.5 20t19.5 52t-19.5 52.5t-49.5 20.5q-31 0 -51.5 -20.5t-20.5 -52.5z" />
<glyph unicode="&#xe6;" horiz-adv-x="1771" d="M1280 -21q-129 0 -229 40.5t-167 117.5q-60 -69 -161.5 -113.5t-240.5 -44.5q-192 0 -296.5 90.5t-104.5 247.5q0 159 126.5 245t369.5 86h181v59q0 79 -40.5 124.5t-114.5 45.5q-81 0 -127.5 -37.5t-46.5 -93.5l-282 18l-2 6q-6 144 121.5 238t339.5 94q102 0 186 -27.5 t143 -79.5q61 52 142 79.5t180 27.5q212 0 333.5 -132t121.5 -358v-158h-651l-2 -6q4 -111 66 -178t186 -67q92 0 153.5 20t141.5 61l77 -184q-62 -48 -169.5 -84.5t-233.5 -36.5zM537 185q58 0 121 30.5t100 72.5v176h-179q-97 0 -152 -44.5t-55 -106.5q0 -59 41.5 -93.5 t123.5 -34.5zM1257 877q-95 0 -142 -61.5t-54 -166.5l2 -5h362v28q0 94 -42.5 149.5t-125.5 55.5z" />
<glyph unicode="&#xe7;" horiz-adv-x="1056" d="M564 203q76 0 121 45.5t45 121.5h266l2 -6q4 -164 -122 -274.5t-312 -110.5q-240 0 -371 153.5t-131 392.5v30q0 238 130.5 392.5t369.5 154.5q198 0 319 -114t117 -300l-2 -6h-266q0 84 -44.5 139.5t-123.5 55.5q-113 0 -160.5 -90.5t-47.5 -231.5v-30q0 -144 47.5 -233 t162.5 -89zM667 4l-11 -57q64 -11 107 -52t43 -121q0 -107 -91.5 -171t-259.5 -64l-7 161q51 0 81 20.5t30 62.5q0 41 -32 57.5t-110 21.5l31 142h219z" />
<glyph unicode="&#xe8;" horiz-adv-x="1071" d="M581 -21q-242 0 -378 148.5t-136 382.5v40q0 243 132 398t363 154q218 0 334.5 -133.5t116.5 -359.5v-151h-645l-3 -6q7 -111 67.5 -180t179.5 -69q98 0 166.5 20t141.5 61l79 -180q-65 -53 -176 -89t-242 -36zM562 877q-88 0 -135.5 -60.5t-57.5 -160.5l2 -5h356v22 q0 95 -39 149.5t-126 54.5zM679 1279h-251l-272 260l2 6h325z" />
<glyph unicode="&#xe9;" horiz-adv-x="1071" d="M581 -21q-242 0 -378 148.5t-136 382.5v40q0 243 132 398t363 154q218 0 334.5 -133.5t116.5 -359.5v-151h-645l-3 -6q7 -111 67.5 -180t179.5 -69q98 0 166.5 20t141.5 61l79 -180q-65 -53 -176 -89t-242 -36zM562 877q-88 0 -135.5 -60.5t-57.5 -160.5l2 -5h356v22 q0 95 -39 149.5t-126 54.5zM597 1545h325l2 -6l-277 -260h-249z" />
<glyph unicode="&#xea;" horiz-adv-x="1071" d="M581 -21q-242 0 -378 148.5t-136 382.5v40q0 243 132 398t363 154q218 0 334.5 -133.5t116.5 -359.5v-151h-645l-3 -6q7 -111 67.5 -180t179.5 -69q98 0 166.5 20t141.5 61l79 -180q-65 -53 -176 -89t-242 -36zM562 877q-88 0 -135.5 -60.5t-57.5 -160.5l2 -5h356v22 q0 95 -39 149.5t-126 54.5zM911 1294v-23h-232l-140 133l-139 -133h-227v26l282 240h169z" />
<glyph unicode="&#xeb;" horiz-adv-x="1071" d="M581 -21q-242 0 -378 148.5t-136 382.5v40q0 243 132 398t363 154q218 0 334.5 -133.5t116.5 -359.5v-151h-645l-3 -6q7 -111 67.5 -180t179.5 -69q98 0 166.5 20t141.5 61l79 -180q-65 -53 -176 -89t-242 -36zM562 877q-88 0 -135.5 -60.5t-57.5 -160.5l2 -5h356v22 q0 95 -39 149.5t-126 54.5zM922 1280h-266v204h266v-204zM422 1280h-266v204h266v-204z" />
<glyph unicode="&#xec;" horiz-adv-x="562" d="M425 0h-292v1082h292v-1082zM421 1257h-251l-272 260l2 6h325z" />
<glyph unicode="&#xed;" horiz-adv-x="562" d="M425 0h-292v1082h292v-1082zM338 1523h325l2 -6l-277 -260h-249z" />
<glyph unicode="&#xee;" horiz-adv-x="562" d="M425 0h-292v1082h292v-1082zM653 1273v-23h-232l-140 133l-139 -133h-227v26l282 240h169z" />
<glyph unicode="&#xef;" horiz-adv-x="562" d="M425 0h-292v1082h292v-1082zM664 1258h-266v204h266v-204zM164 1258h-266v204h266v-204z" />
<glyph unicode="&#xf0;" horiz-adv-x="1218" d="M921 1290q102 -106 158.5 -245t56.5 -303v-196q0 -250 -157 -408.5t-392 -158.5q-238 0 -388.5 140.5t-150.5 348.5q0 226 134.5 362.5t365.5 136.5q81 0 153 -25.5t124 -70.5l4 4q-14 83 -54 153.5t-100 125.5l-245 -136l-78 113l192 106l-1 6q-31 16 -68 30t-77 26 l92 218q88 -19 168.5 -52.5t149.5 -80.5l198 109l77 -113zM591 203q116 0 184.5 96.5t68.5 246.5v118q-35 39 -99 65t-151 26q-122 0 -188 -79t-66 -208q0 -112 68 -188.5t183 -76.5z" />
<glyph unicode="&#xf1;" d="M379 1082l13 -155q54 83 133 129t177 46q164 0 256 -105.5t92 -333.5v-663h-293v662q0 116 -40.5 164.5t-121.5 48.5q-65 0 -114.5 -24.5t-81.5 -67.5v-783h-292v1082h272zM951 1534q0 -96 -59.5 -163.5t-150.5 -67.5q-70 0 -158.5 43.5t-140.5 43.5q-36 0 -60 -32.5 t-24 -77.5l-156 42q0 94 59.5 163.5t149.5 69.5q56 0 152 -43.5t148 -43.5q34 0 60 32t26 79z" />
<glyph unicode="&#xf2;" d="M67 551q0 242 135 396.5t374 154.5q240 0 376 -154t136 -397v-21q0 -244 -135.5 -397.5t-374.5 -153.5q-240 0 -375.5 153.5t-135.5 397.5v21zM358 530q0 -148 52 -237.5t168 -89.5q113 0 165.5 90t52.5 237v21q0 144 -53 235t-167 91q-113 0 -165.5 -91.5t-52.5 -234.5 v-21zM717 1278h-251l-272 260l2 6h325z" />
<glyph unicode="&#xf3;" d="M67 551q0 242 135 396.5t374 154.5q240 0 376 -154t136 -397v-21q0 -244 -135.5 -397.5t-374.5 -153.5q-240 0 -375.5 153.5t-135.5 397.5v21zM358 530q0 -148 52 -237.5t168 -89.5q113 0 165.5 90t52.5 237v21q0 144 -53 235t-167 91q-113 0 -165.5 -91.5t-52.5 -234.5 v-21zM635 1544h325l2 -6l-277 -260h-249z" />
<glyph unicode="&#xf4;" d="M67 551q0 242 135 396.5t374 154.5q240 0 376 -154t136 -397v-21q0 -244 -135.5 -397.5t-374.5 -153.5q-240 0 -375.5 153.5t-135.5 397.5v21zM358 530q0 -148 52 -237.5t168 -89.5q113 0 165.5 90t52.5 237v21q0 144 -53 235t-167 91q-113 0 -165.5 -91.5t-52.5 -234.5 v-21zM949 1293v-23h-232l-140 133l-139 -133h-227v26l282 240h169z" />
<glyph unicode="&#xf5;" d="M67 551q0 242 135 396.5t374 154.5q240 0 376 -154t136 -397v-21q0 -244 -135.5 -397.5t-374.5 -153.5q-240 0 -375.5 153.5t-135.5 397.5v21zM358 530q0 -148 52 -237.5t168 -89.5q113 0 165.5 90t52.5 237v21q0 144 -53 235t-167 91q-113 0 -165.5 -91.5t-52.5 -234.5 v-21zM951 1534q0 -96 -59.5 -163.5t-150.5 -67.5q-70 0 -158.5 43.5t-140.5 43.5q-36 0 -60 -32.5t-24 -77.5l-156 42q0 94 59.5 163.5t149.5 69.5q56 0 152 -43.5t148 -43.5q34 0 60 32t26 79z" />
<glyph unicode="&#xf6;" d="M67 551q0 242 135 396.5t374 154.5q240 0 376 -154t136 -397v-21q0 -244 -135.5 -397.5t-374.5 -153.5q-240 0 -375.5 153.5t-135.5 397.5v21zM358 530q0 -148 52 -237.5t168 -89.5q113 0 165.5 90t52.5 237v21q0 144 -53 235t-167 91q-113 0 -165.5 -91.5t-52.5 -234.5 v-21zM960 1279h-266v204h266v-204zM460 1279h-266v204h266v-204z" />
<glyph unicode="&#xf7;" horiz-adv-x="1168" d="M1092 573h-1029v227h1029v-227zM725 973h-293v233h293v-233zM725 164h-293v233h293v-233z" />
<glyph unicode="&#xf8;" d="M67 551q0 242 135 396.5t374 154.5q50 0 96.5 -8t90.5 -22l70 143h161l-103 -211q95 -74 146 -191.5t51 -261.5v-21q0 -244 -135.5 -397.5t-374.5 -153.5q-48 0 -92 7t-84 19l-71 -146h-161l103 211q-101 71 -153.5 190.5t-52.5 269.5v21zM358 530q0 -62 8.5 -114 t26.5 -86l6 -1l260 531q-19 8 -39.5 12.5t-43.5 4.5q-113 0 -165.5 -91.5t-52.5 -234.5v-21zM796 551q0 54 -8 102t-22 82l-6 1l-255 -521q15 -7 33.5 -9.5t39.5 -2.5q113 0 165.5 90t52.5 237v21z" />
<glyph unicode="&#xf9;" d="M775 160q-50 -87 -127 -134t-179 -47q-171 0 -267.5 116t-96.5 360v627h291v-629q0 -142 38.5 -194.5t119.5 -52.5q70 0 120 22.5t82 66.5v787h292v-1082h-242zM716 1257h-251l-272 260l2 6h325z" />
<glyph unicode="&#xfa;" d="M775 160q-50 -87 -127 -134t-179 -47q-171 0 -267.5 116t-96.5 360v627h291v-629q0 -142 38.5 -194.5t119.5 -52.5q70 0 120 22.5t82 66.5v787h292v-1082h-242zM634 1523h325l2 -6l-277 -260h-249z" />
<glyph unicode="&#xfb;" d="M775 160q-50 -87 -127 -134t-179 -47q-171 0 -267.5 116t-96.5 360v627h291v-629q0 -142 38.5 -194.5t119.5 -52.5q70 0 120 22.5t82 66.5v787h292v-1082h-242zM948 1273v-23h-232l-140 133l-139 -133h-227v26l282 240h169z" />
<glyph unicode="&#xfc;" d="M775 160q-50 -87 -127 -134t-179 -47q-171 0 -267.5 116t-96.5 360v627h291v-629q0 -142 38.5 -194.5t119.5 -52.5q70 0 120 22.5t82 66.5v787h292v-1082h-242zM959 1258h-266v204h266v-204zM459 1258h-266v204h266v-204z" />
<glyph unicode="&#xfd;" horiz-adv-x="1046" d="M502 454l12 -60h6l207 688h314l-439 -1244q-46 -116 -125 -195.5t-237 -79.5q-37 0 -68.5 6t-76.5 17l34 213q13 -2 28 -4t27 -2q72 0 111 35.5t60 88.5l34 84l-384 1081h314zM581 1523h325l2 -6l-277 -260h-249z" />
<glyph unicode="&#xfe;" horiz-adv-x="1162" d="M1098 511q0 -240 -111 -386t-310 -146q-85 0 -151 31.5t-113 92.5v-519h-291v416h-1v1560h292v-591q47 64 112 98.5t150 34.5q201 0 312 -157t111 -413v-21zM806 532q0 153 -51 248t-156 95q-66 0 -112.5 -27t-73.5 -77v-474q27 -46 73.5 -70t114.5 -24q106 0 155.5 83 t49.5 225v21z" />
<glyph unicode="&#xff;" horiz-adv-x="1046" d="M502 454l12 -60h6l207 688h314l-439 -1244q-46 -116 -125 -195.5t-237 -79.5q-37 0 -68.5 6t-76.5 17l34 213q13 -2 28 -4t27 -2q72 0 111 35.5t60 88.5l34 84l-384 1081h314zM907 1258h-266v204h266v-204zM407 1258h-266v204h266v-204z" />
<glyph unicode="&#x100;" horiz-adv-x="1303" d="M893 314h-472l-98 -314h-305l491 1456h299l489 -1456h-305zM493 543h329l-161 513h-6zM1020 1613h-731v165h731v-165z" />
<glyph unicode="&#x101;" horiz-adv-x="1100" d="M750 0q-16 37 -27.5 78t-16.5 84q-45 -79 -119 -131t-176 -52q-170 0 -262 87.5t-92 238.5q0 159 122.5 246.5t357.5 87.5h164v86q0 78 -41 121t-122 43q-71 0 -109.5 -34.5t-38.5 -94.5h-281l-2 6q-7 137 119.5 236.5t330.5 99.5q195 0 315.5 -98t120.5 -281v-447 q0 -76 11.5 -143t36.5 -133h-291zM483 195q76 0 136 38t82 88v153h-164q-93 0 -140.5 -46t-47.5 -113q0 -55 35.5 -87.5t98.5 -32.5zM913 1292h-731v165h731v-165z" />
<glyph unicode="&#x102;" horiz-adv-x="1303" d="M893 314h-472l-98 -314h-305l491 1456h299l489 -1456h-305zM493 543h329l-161 513h-6zM992 1896l2 -6q5 -127 -88.5 -207.5t-251.5 -80.5q-159 0 -253 80.5t-88 207.5l2 6h213q0 -53 30.5 -87t95.5 -34q63 0 93.5 34t30.5 87h214z" />
<glyph unicode="&#x103;" horiz-adv-x="1100" d="M750 0q-16 37 -27.5 78t-16.5 84q-45 -79 -119 -131t-176 -52q-170 0 -262 87.5t-92 238.5q0 159 122.5 246.5t357.5 87.5h164v86q0 78 -41 121t-122 43q-71 0 -109.5 -34.5t-38.5 -94.5h-281l-2 6q-7 137 119.5 236.5t330.5 99.5q195 0 315.5 -98t120.5 -281v-447 q0 -76 11.5 -143t36.5 -133h-291zM483 195q76 0 136 38t82 88v153h-164q-93 0 -140.5 -46t-47.5 -113q0 -55 35.5 -87.5t98.5 -32.5zM885 1574l2 -6q5 -127 -88.5 -207.5t-251.5 -80.5q-159 0 -253 80.5t-88 207.5l2 6h213q0 -53 30.5 -87t95.5 -34q63 0 93.5 34t30.5 87 h214z" />
<glyph unicode="&#x104;" horiz-adv-x="1303" d="M893 314h-472l-98 -314h-305l491 1456h299l489 -1456h-305zM493 543h329l-161 513h-6zM1213 0q-54 -53 -79 -90t-25 -86q0 -27 17 -48.5t69 -21.5q28 0 49.5 6t44.5 14l35 -154q-36 -19 -80.5 -31.5t-105.5 -12.5q-108 0 -177.5 56.5t-69.5 157.5q0 77 46 146.5 t144 123.5z" />
<glyph unicode="&#x105;" horiz-adv-x="1100" d="M750 0q-16 37 -27.5 78t-16.5 84q-45 -79 -119 -131t-176 -52q-170 0 -262 87.5t-92 238.5q0 159 122.5 246.5t357.5 87.5h164v86q0 78 -41 121t-122 43q-71 0 -109.5 -34.5t-38.5 -94.5h-281l-2 6q-7 137 119.5 236.5t330.5 99.5q195 0 315.5 -98t120.5 -281v-447 q0 -76 11.5 -143t36.5 -133h-291zM483 195q76 0 136 38t82 88v153h-164q-93 0 -140.5 -46t-47.5 -113q0 -55 35.5 -87.5t98.5 -32.5zM956 0q-54 -53 -79 -90t-25 -86q0 -27 17 -48.5t69 -21.5q28 0 49.5 6t44.5 14l35 -154q-36 -19 -80.5 -31.5t-105.5 -12.5 q-108 0 -177.5 56.5t-69.5 157.5q0 77 46 146.5t144 123.5z" />
<glyph unicode="&#x106;" horiz-adv-x="1303" d="M1226 482l2 -6q4 -233 -142 -365t-403 -132q-262 0 -423 168.5t-161 435.5v289q0 266 157 435.5t412 169.5q266 0 416 -130t146 -366l-2 -6h-284q0 140 -67.5 208.5t-208.5 68.5q-131 0 -204.5 -105.5t-73.5 -272.5v-291q0 -168 77.5 -274t215.5 -106q131 0 195.5 68.5 t64.5 210.5h283zM737 1887h325l2 -6l-277 -260h-249z" />
<glyph unicode="&#x107;" horiz-adv-x="1056" d="M564 203q76 0 121 45.5t45 121.5h266l2 -6q4 -164 -122 -274.5t-312 -110.5q-240 0 -371 153.5t-131 392.5v30q0 238 130.5 392.5t369.5 154.5q198 0 319 -114t117 -300l-2 -6h-266q0 84 -44.5 139.5t-123.5 55.5q-113 0 -160.5 -90.5t-47.5 -231.5v-30q0 -144 47.5 -233 t162.5 -89zM592 1544h325l2 -6l-277 -260h-249z" />
<glyph unicode="&#x108;" horiz-adv-x="1303" d="M1226 482l2 -6q4 -233 -142 -365t-403 -132q-262 0 -423 168.5t-161 435.5v289q0 266 157 435.5t412 169.5q266 0 416 -130t146 -366l-2 -6h-284q0 140 -67.5 208.5t-208.5 68.5q-131 0 -204.5 -105.5t-73.5 -272.5v-291q0 -168 77.5 -274t215.5 -106q131 0 195.5 68.5 t64.5 210.5h283zM1051 1636v-23h-232l-140 133l-139 -133h-227v26l282 240h169z" />
<glyph unicode="&#x109;" horiz-adv-x="1056" d="M564 203q76 0 121 45.5t45 121.5h266l2 -6q4 -164 -122 -274.5t-312 -110.5q-240 0 -371 153.5t-131 392.5v30q0 238 130.5 392.5t369.5 154.5q198 0 319 -114t117 -300l-2 -6h-266q0 84 -44.5 139.5t-123.5 55.5q-113 0 -160.5 -90.5t-47.5 -231.5v-30q0 -144 47.5 -233 t162.5 -89zM906 1293v-23h-232l-140 133l-139 -133h-227v26l282 240h169z" />
<glyph unicode="&#x10a;" horiz-adv-x="1303" d="M1226 482l2 -6q4 -233 -142 -365t-403 -132q-262 0 -423 168.5t-161 435.5v289q0 266 157 435.5t412 169.5q266 0 416 -130t146 -366l-2 -6h-284q0 140 -67.5 208.5t-208.5 68.5q-131 0 -204.5 -105.5t-73.5 -272.5v-291q0 -168 77.5 -274t215.5 -106q131 0 195.5 68.5 t64.5 210.5h283zM843 1622h-327v241h327v-241z" />
<glyph unicode="&#x10b;" horiz-adv-x="1056" d="M564 203q76 0 121 45.5t45 121.5h266l2 -6q4 -164 -122 -274.5t-312 -110.5q-240 0 -371 153.5t-131 392.5v30q0 238 130.5 392.5t369.5 154.5q198 0 319 -114t117 -300l-2 -6h-266q0 84 -44.5 139.5t-123.5 55.5q-113 0 -160.5 -90.5t-47.5 -231.5v-30q0 -144 47.5 -233 t162.5 -89zM698 1279h-327v241h327v-241z" />
<glyph unicode="&#x10c;" horiz-adv-x="1303" d="M1226 482l2 -6q4 -233 -142 -365t-403 -132q-262 0 -423 168.5t-161 435.5v289q0 266 157 435.5t412 169.5q266 0 416 -130t146 -366l-2 -6h-284q0 140 -67.5 208.5t-208.5 68.5q-131 0 -204.5 -105.5t-73.5 -272.5v-291q0 -168 77.5 -274t215.5 -106q131 0 195.5 68.5 t64.5 210.5h283zM678 1767l117 127h264v-17l-281 -255h-199l-281 256v16h264z" />
<glyph unicode="&#x10d;" horiz-adv-x="1056" d="M564 203q76 0 121 45.5t45 121.5h266l2 -6q4 -164 -122 -274.5t-312 -110.5q-240 0 -371 153.5t-131 392.5v30q0 238 130.5 392.5t369.5 154.5q198 0 319 -114t117 -300l-2 -6h-266q0 84 -44.5 139.5t-123.5 55.5q-113 0 -160.5 -90.5t-47.5 -231.5v-30q0 -144 47.5 -233 t162.5 -89zM533 1424l117 127h264v-17l-281 -255h-199l-281 256v16h264z" />
<glyph unicode="&#x10e;" horiz-adv-x="1355" d="M134 0v1456h508q267 0 440 -170.5t173 -437.5v-241q0 -268 -173 -437.5t-440 -169.5h-508zM426 1231v-1007h216q144 0 232 107.5t88 275.5v243q0 167 -88 274t-232 107h-216zM589 1746l117 127h264v-17l-281 -255h-199l-281 256v16h264z" />
<glyph unicode="&#x10f;" d="M67 532q0 256 110.5 413t311.5 157q81 0 146 -35t114 -100v593h293v-1560h-249l-25 133q-51 -75 -121 -114.5t-160 -39.5q-199 0 -309.5 146t-110.5 386v21zM358 511q0 -142 48 -223.5t156 -81.5q63 0 110 25.5t77 74.5v461q-30 51 -76.5 79.5t-108.5 28.5 q-107 0 -156.5 -95t-49.5 -248v-21zM1368 1398l-129 -235h-122l61 245v151h190v-161z" />
<glyph unicode="&#x110;" horiz-adv-x="1355" d="M134 0v652h-136v181h136v623h508q267 0 440 -170.5t173 -437.5v-241q0 -268 -173 -437.5t-440 -169.5h-508zM669 652h-243v-428h216q144 0 232 107.5t88 275.5v243q0 167 -88 274t-232 107h-216v-398h243v-181z" />
<glyph unicode="&#x111;" d="M1186 1220h-144v-1220h-249l-25 133q-51 -75 -121 -114.5t-160 -39.5q-199 0 -309.5 146t-110.5 386v21q0 256 110.5 413t311.5 157q81 0 146 -35t114 -100v253h-234v181h234v159h293v-159h144v-181zM358 511q0 -142 48 -223.5t156 -81.5q63 0 110 25.5t77 74.5v461 q-30 51 -76.5 79.5t-108.5 28.5q-107 0 -156.5 -95t-49.5 -248v-21z" />
<glyph unicode="&#x112;" horiz-adv-x="1139" d="M966 640h-540v-416h642v-224h-934v1456h932v-225h-640v-366h540v-225zM968 1613h-731v165h731v-165z" />
<glyph unicode="&#x113;" horiz-adv-x="1071" d="M581 -21q-242 0 -378 148.5t-136 382.5v40q0 243 132 398t363 154q218 0 334.5 -133.5t116.5 -359.5v-151h-645l-3 -6q7 -111 67.5 -180t179.5 -69q98 0 166.5 20t141.5 61l79 -180q-65 -53 -176 -89t-242 -36zM562 877q-88 0 -135.5 -60.5t-57.5 -160.5l2 -5h356v22 q0 95 -39 149.5t-126 54.5zM906 1292h-731v165h731v-165z" />
<glyph unicode="&#x114;" horiz-adv-x="1139" d="M966 640h-540v-416h642v-224h-934v1456h932v-225h-640v-366h540v-225zM940 1896l2 -6q5 -127 -88.5 -207.5t-251.5 -80.5q-159 0 -253 80.5t-88 207.5l2 6h213q0 -53 30.5 -87t95.5 -34q63 0 93.5 34t30.5 87h214z" />
<glyph unicode="&#x115;" horiz-adv-x="1071" d="M581 -21q-242 0 -378 148.5t-136 382.5v40q0 243 132 398t363 154q218 0 334.5 -133.5t116.5 -359.5v-151h-645l-3 -6q7 -111 67.5 -180t179.5 -69q98 0 166.5 20t141.5 61l79 -180q-65 -53 -176 -89t-242 -36zM562 877q-88 0 -135.5 -60.5t-57.5 -160.5l2 -5h356v22 q0 95 -39 149.5t-126 54.5zM878 1575l2 -6q5 -127 -88.5 -207.5t-251.5 -80.5q-159 0 -253 80.5t-88 207.5l2 6h213q0 -53 30.5 -87t95.5 -34q63 0 93.5 34t30.5 87h214z" />
<glyph unicode="&#x116;" horiz-adv-x="1139" d="M966 640h-540v-416h642v-224h-934v1456h932v-225h-640v-366h540v-225zM765 1601h-327v241h327v-241z" />
<glyph unicode="&#x117;" horiz-adv-x="1071" d="M581 -21q-242 0 -378 148.5t-136 382.5v40q0 243 132 398t363 154q218 0 334.5 -133.5t116.5 -359.5v-151h-645l-3 -6q7 -111 67.5 -180t179.5 -69q98 0 166.5 20t141.5 61l79 -180q-65 -53 -176 -89t-242 -36zM562 877q-88 0 -135.5 -60.5t-57.5 -160.5l2 -5h356v22 q0 95 -39 149.5t-126 54.5zM703 1280h-327v241h327v-241z" />
<glyph unicode="&#x118;" horiz-adv-x="1139" d="M966 640h-540v-416h642v-224h-934v1456h932v-225h-640v-366h540v-225zM675 0q-54 -53 -79 -90t-25 -86q0 -27 17 -48.5t69 -21.5q28 0 49.5 6t44.5 14l35 -154q-36 -19 -80.5 -31.5t-105.5 -12.5q-108 0 -177.5 56.5t-69.5 157.5q0 77 46 146.5t144 123.5z" />
<glyph unicode="&#x119;" horiz-adv-x="1071" d="M581 -21q-242 0 -378 148.5t-136 382.5v40q0 243 132 398t363 154q218 0 334.5 -133.5t116.5 -359.5v-151h-645l-3 -6q7 -111 67.5 -180t179.5 -69q98 0 166.5 20t141.5 61l79 -180q-65 -53 -176 -89t-242 -36zM562 877q-88 0 -135.5 -60.5t-57.5 -160.5l2 -5h356v22 q0 95 -39 149.5t-126 54.5zM876 42q-54 -53 -79 -90t-25 -86q0 -27 17 -48.5t69 -21.5q28 0 49.5 6t44.5 14l35 -154q-36 -19 -80.5 -31.5t-105.5 -12.5q-108 0 -177.5 56.5t-69.5 157.5q0 77 46 146.5t144 123.5z" />
<glyph unicode="&#x11a;" horiz-adv-x="1139" d="M966 640h-540v-416h642v-224h-934v1456h932v-225h-640v-366h540v-225zM600 1746l117 127h264v-17l-281 -255h-199l-281 256v16h264z" />
<glyph unicode="&#x11b;" horiz-adv-x="1071" d="M581 -21q-242 0 -378 148.5t-136 382.5v40q0 243 132 398t363 154q218 0 334.5 -133.5t116.5 -359.5v-151h-645l-3 -6q7 -111 67.5 -180t179.5 -69q98 0 166.5 20t141.5 61l79 -180q-65 -53 -176 -89t-242 -36zM562 877q-88 0 -135.5 -60.5t-57.5 -160.5l2 -5h356v22 q0 95 -39 149.5t-126 54.5zM538 1425l117 127h264v-17l-281 -255h-199l-281 256v16h264z" />
<glyph unicode="&#x11c;" horiz-adv-x="1364" d="M1250 199q-68 -89 -203 -154.5t-348 -65.5q-264 0 -432 166t-168 431v304q0 264 163 430.5t419 166.5q267 0 409 -126.5t137 -337.5l-2 -6h-275q0 116 -67 180.5t-195 64.5q-134 0 -216 -103.5t-82 -266.5v-306q0 -165 84 -269t225 -104q104 0 164.5 21t93.5 53v282h-280 v202h573v-562zM1046 1636v-23h-232l-140 133l-139 -133h-227v26l282 240h169z" />
<glyph unicode="&#x11d;" d="M69 532q0 256 111 413t312 157q91 0 160 -41t118 -117l23 138h251v-1077q0 -211 -138 -326.5t-385 -115.5q-82 0 -174 22.5t-170 61.5l49 218q67 -32 138.5 -48.5t154.5 -16.5q120 0 176.5 50t56.5 156v98q-48 -61 -113 -93t-149 -32q-199 0 -310 146t-111 386v21z M361 511q0 -142 47.5 -223.5t155.5 -81.5q67 0 113.5 24.5t74.5 71.5v469q-28 50 -74.5 77t-111.5 27q-107 0 -156 -95t-49 -248v-21zM929 1293v-23h-232l-140 133l-139 -133h-227v26l282 240h169z" />
<glyph unicode="&#x11e;" horiz-adv-x="1364" d="M1250 199q-68 -89 -203 -154.5t-348 -65.5q-264 0 -432 166t-168 431v304q0 264 163 430.5t419 166.5q267 0 409 -126.5t137 -337.5l-2 -6h-275q0 116 -67 180.5t-195 64.5q-134 0 -216 -103.5t-82 -266.5v-306q0 -165 84 -269t225 -104q104 0 164.5 21t93.5 53v282h-280 v202h573v-562zM1013 1917l2 -6q5 -127 -88.5 -207.5t-251.5 -80.5q-159 0 -253 80.5t-88 207.5l2 6h213q0 -53 30.5 -87t95.5 -34q63 0 93.5 34t30.5 87h214z" />
<glyph unicode="&#x11f;" d="M69 532q0 256 111 413t312 157q91 0 160 -41t118 -117l23 138h251v-1077q0 -211 -138 -326.5t-385 -115.5q-82 0 -174 22.5t-170 61.5l49 218q67 -32 138.5 -48.5t154.5 -16.5q120 0 176.5 50t56.5 156v98q-48 -61 -113 -93t-149 -32q-199 0 -310 146t-111 386v21z M361 511q0 -142 47.5 -223.5t155.5 -81.5q67 0 113.5 24.5t74.5 71.5v469q-28 50 -74.5 77t-111.5 27q-107 0 -156 -95t-49 -248v-21zM896 1574l2 -6q5 -127 -88.5 -207.5t-251.5 -80.5q-159 0 -253 80.5t-88 207.5l2 6h213q0 -53 30.5 -87t95.5 -34q63 0 93.5 34t30.5 87 h214z" />
<glyph unicode="&#x120;" horiz-adv-x="1364" d="M1250 199q-68 -89 -203 -154.5t-348 -65.5q-264 0 -432 166t-168 431v304q0 264 163 430.5t419 166.5q267 0 409 -126.5t137 -337.5l-2 -6h-275q0 116 -67 180.5t-195 64.5q-134 0 -216 -103.5t-82 -266.5v-306q0 -165 84 -269t225 -104q104 0 164.5 21t93.5 53v282h-280 v202h573v-562zM838 1622h-327v241h327v-241z" />
<glyph unicode="&#x121;" d="M69 532q0 256 111 413t312 157q91 0 160 -41t118 -117l23 138h251v-1077q0 -211 -138 -326.5t-385 -115.5q-82 0 -174 22.5t-170 61.5l49 218q67 -32 138.5 -48.5t154.5 -16.5q120 0 176.5 50t56.5 156v98q-48 -61 -113 -93t-149 -32q-199 0 -310 146t-111 386v21z M361 511q0 -142 47.5 -223.5t155.5 -81.5q67 0 113.5 24.5t74.5 71.5v469q-28 50 -74.5 77t-111.5 27q-107 0 -156 -95t-49 -248v-21zM721 1279h-327v241h327v-241z" />
<glyph unicode="&#x122;" horiz-adv-x="1364" d="M1250 199q-68 -89 -203 -154.5t-348 -65.5q-264 0 -432 166t-168 431v304q0 264 163 430.5t419 166.5q267 0 409 -126.5t137 -337.5l-2 -6h-275q0 116 -67 180.5t-195 64.5q-134 0 -216 -103.5t-82 -266.5v-306q0 -165 84 -269t225 -104q104 0 164.5 21t93.5 53v282h-280 v202h573v-562zM778 -267l-129 -235h-122l61 245v151h190v-161z" />
<glyph unicode="&#x123;" d="M69 532q0 256 111 413t312 157q91 0 160 -41t118 -117l23 138h251v-1077q0 -211 -138 -326.5t-385 -115.5q-82 0 -174 22.5t-170 61.5l49 218q67 -32 138.5 -48.5t154.5 -16.5q120 0 176.5 50t56.5 156v98q-48 -61 -113 -93t-149 -32q-199 0 -310 146t-111 386v21z M361 511q0 -142 47.5 -223.5t155.5 -81.5q67 0 113.5 24.5t74.5 71.5v469q-28 50 -74.5 77t-111.5 27q-107 0 -156 -95t-49 -248v-21zM432 1433l115 260h159l-35 -270v-165h-239v175z" />
<glyph unicode="&#x124;" horiz-adv-x="1445" d="M1311 0h-292v605h-593v-605h-292v1456h292v-626h593v626h292v-1456zM1092 1615v-23h-232l-140 133l-139 -133h-227v26l282 240h169z" />
<glyph unicode="&#x125;" d="M397 945q51 74 125 115.5t164 41.5q169 0 265.5 -112.5t96.5 -347.5v-642h-292v644q0 126 -40.5 178.5t-121.5 52.5q-67 0 -116.5 -21.5t-80.5 -61.5v-792h-292v1560h292v-615zM890 1616v-23h-232l-140 133l-139 -133h-227v26l282 240h169z" />
<glyph unicode="&#x126;" horiz-adv-x="1445" d="M1319 1199h119v-171h-119v-1028h-292v605h-593v-605h-292v1028h-126v171h126v257h292v-257h593v257h292v-257zM434 830h593v198h-593v-198z" />
<glyph unicode="&#x127;" d="M658 1217h-261v-272q51 74 125 115.5t164 41.5q169 0 265.5 -112.5t96.5 -347.5v-642h-292v644q0 126 -40.5 178.5t-121.5 52.5q-67 0 -116.5 -21.5t-80.5 -61.5v-792h-292v1217h-118v181h118v162h292v-162h261v-181z" />
<glyph unicode="&#x128;" horiz-adv-x="601" d="M446 0h-292v1456h292v-1456zM675 1856q0 -96 -59.5 -163.5t-150.5 -67.5q-70 0 -158.5 43.5t-140.5 43.5q-36 0 -60 -32.5t-24 -77.5l-156 42q0 94 59.5 163.5t149.5 69.5q56 0 152 -43.5t148 -43.5q34 0 60 32t26 79z" />
<glyph unicode="&#x129;" horiz-adv-x="562" d="M425 0h-292v1082h292v-1082zM655 1513q0 -96 -59.5 -163.5t-150.5 -67.5q-70 0 -158.5 43.5t-140.5 43.5q-36 0 -60 -32.5t-24 -77.5l-156 42q0 94 59.5 163.5t149.5 69.5q56 0 152 -43.5t148 -43.5q34 0 60 32t26 79z" />
<glyph unicode="&#x12a;" horiz-adv-x="601" d="M446 0h-292v1456h292v-1456zM668 1613h-731v165h731v-165z" />
<glyph unicode="&#x12b;" horiz-adv-x="562" d="M425 0h-292v1082h292v-1082zM648 1271h-731v165h731v-165z" />
<glyph unicode="&#x12c;" horiz-adv-x="601" d="M446 0h-292v1456h292v-1456zM640 1896l2 -6q5 -127 -88.5 -207.5t-251.5 -80.5q-159 0 -253 80.5t-88 207.5l2 6h213q0 -53 30.5 -87t95.5 -34q63 0 93.5 34t30.5 87h214z" />
<glyph unicode="&#x12d;" horiz-adv-x="562" d="M425 0h-292v1082h292v-1082zM620 1553l2 -6q5 -127 -88.5 -207.5t-251.5 -80.5q-159 0 -253 80.5t-88 207.5l2 6h213q0 -53 30.5 -87t95.5 -34q63 0 93.5 34t30.5 87h214z" />
<glyph unicode="&#x12e;" horiz-adv-x="601" d="M446 0h-292v1456h292v-1456zM362 0q-54 -53 -79 -90t-25 -86q0 -27 17 -48.5t69 -21.5q28 0 49.5 6t44.5 14l35 -154q-36 -19 -80.5 -31.5t-105.5 -12.5q-108 0 -177.5 56.5t-69.5 157.5q0 77 46 146.5t144 123.5z" />
<glyph unicode="&#x12f;" horiz-adv-x="547" d="M419 0h-292v1082h292v-1082zM419 1341h-292v219h292v-219zM335 0q-54 -53 -79 -90t-25 -86q0 -27 17 -48.5t69 -21.5q28 0 49.5 6t44.5 14l35 -154q-36 -19 -80.5 -31.5t-105.5 -12.5q-108 0 -177.5 56.5t-69.5 157.5q0 77 46 146.5t144 123.5z" />
<glyph unicode="&#x130;" horiz-adv-x="601" d="M446 0h-292v1456h292v-1456zM465 1601h-327v241h327v-241z" />
<glyph unicode="&#x131;" horiz-adv-x="562" d="M425 0h-292v1082h292v-1082z" />
<glyph unicode="&#x132;" horiz-adv-x="1738" d="M446 0h-292v1456h292v-1456zM1315 1456h291v-1005q0 -216 -132.5 -344t-340.5 -128q-231 0 -366 114t-130 331l2 6h284q0 -116 57 -171.5t153 -55.5q80 0 131 66.5t51 181.5v1005z" />
<glyph unicode="&#x133;" horiz-adv-x="1090" d="M419 0h-292v1082h292v-1082zM419 1341h-292v219h292v-219zM974 1082v-1122q0 -190 -101 -293.5t-281 -103.5q-40 0 -73 4t-70 13l14 223q23 -6 46 -9t49 -3q59 0 91 41.5t32 127.5v1122h293zM968 1343h-293v217h293v-217z" />
<glyph unicode="&#x134;" horiz-adv-x="1137" d="M714 1456h291v-1005q0 -216 -132.5 -344t-340.5 -128q-231 0 -366 114t-130 331l2 6h284q0 -116 57 -171.5t153 -55.5q80 0 131 66.5t51 181.5v1005zM1214 1611v-23h-232l-140 133l-139 -133h-227v26l282 240h169z" />
<glyph unicode="&#x135;" horiz-adv-x="578" d="M441 1082v-1122q0 -190 -101 -293.5t-280 -103.5q-41 0 -73.5 4t-70.5 13l15 221q23 -6 47.5 -9.5t50.5 -3.5q57 0 89 45t32 127v1122h291zM647 1265v-23h-232l-140 133l-139 -133h-227v26l282 240h169z" />
<glyph unicode="&#x136;" horiz-adv-x="1305" d="M533 608h-107v-608h-292v1456h292v-595h82l399 595h361l-504 -677l543 -779h-372zM732 -255l-129 -235h-122l61 245v151h190v-161z" />
<glyph unicode="&#x137;" horiz-adv-x="1097" d="M478 453h-74v-453h-292v1560h292v-885h65l259 407h338l-352 -493l400 -589h-336zM654 -254l-129 -235h-122l61 245v151h190v-161z" />
<glyph unicode="&#x138;" horiz-adv-x="1210" d="M537 405h-116v-405h-292v1082h292v-412h87l279 412h368l-384 -507l401 -575h-374z" />
<glyph unicode="&#x139;" horiz-adv-x="1138" d="M426 224h652v-224h-944v1456h292v-1232zM340 1843h325l2 -6l-277 -260h-249z" />
<glyph unicode="&#x13a;" horiz-adv-x="547" d="M419 0h-292v1560h292v-1560zM331 1894h325l2 -6l-277 -260h-249z" />
<glyph unicode="&#x13b;" horiz-adv-x="1138" d="M426 224h652v-224h-944v1456h292v-1232zM693 -254l-129 -235h-122l61 245v151h190v-161z" />
<glyph unicode="&#x13c;" horiz-adv-x="547" d="M419 0h-292v1560h292v-1560zM361 -254l-129 -235h-122l61 245v151h190v-161z" />
<glyph unicode="&#x13d;" horiz-adv-x="1138" d="M426 224h652v-224h-944v1456h292v-1232zM864 1297l-129 -235h-122l61 245v151h190v-161z" />
<glyph unicode="&#x13e;" horiz-adv-x="547" d="M419 0h-292v1560h292v-1560zM762 1398l-129 -235h-122l61 245v151h190v-161z" />
<glyph unicode="&#x13f;" horiz-adv-x="1138" d="M426 224h652v-224h-944v1456h292v-1232zM925 680h-327v241h327v-241z" />
<glyph unicode="&#x140;" horiz-adv-x="547" d="M419 0h-292v1560h292v-1560zM720 628h-327v241h327v-241z" />
<glyph unicode="&#x141;" horiz-adv-x="1040" d="M419 884l243 70v-195l-243 -70v-465h652v-224h-944v605l-115 -33v195l115 33v656h292v-572z" />
<glyph unicode="&#x142;" horiz-adv-x="594" d="M439 907l141 47v-195l-141 -47v-712h-292v615l-132 -43v195l132 43v750h292v-653z" />
<glyph unicode="&#x143;" horiz-adv-x="1445" d="M1311 0h-292l-587 982l-6 -1v-981h-292v1456h292l587 -981l6 1v980h292v-1456zM780 1866h325l2 -6l-277 -260h-249z" />
<glyph unicode="&#x144;" d="M379 1082l13 -155q54 83 133 129t177 46q164 0 256 -105.5t92 -333.5v-663h-293v662q0 116 -40.5 164.5t-121.5 48.5q-65 0 -114.5 -24.5t-81.5 -67.5v-783h-292v1082h272zM635 1544h325l2 -6l-277 -260h-249z" />
<glyph unicode="&#x145;" horiz-adv-x="1445" d="M1311 0h-292l-587 982l-6 -1v-981h-292v1456h292l587 -981l6 1v980h292v-1456zM810 -254l-129 -235h-122l61 245v151h190v-161z" />
<glyph unicode="&#x146;" d="M379 1082l13 -155q54 83 133 129t177 46q164 0 256 -105.5t92 -333.5v-663h-293v662q0 116 -40.5 164.5t-121.5 48.5q-65 0 -114.5 -24.5t-81.5 -67.5v-783h-292v1082h272zM665 -254l-129 -235h-122l61 245v151h190v-161z" />
<glyph unicode="&#x147;" horiz-adv-x="1445" d="M1311 0h-292l-587 982l-6 -1v-981h-292v1456h292l587 -981l6 1v980h292v-1456zM721 1746l117 127h264v-17l-281 -255h-199l-281 256v16h264z" />
<glyph unicode="&#x148;" d="M379 1082l13 -155q54 83 133 129t177 46q164 0 256 -105.5t92 -333.5v-663h-293v662q0 116 -40.5 164.5t-121.5 48.5q-65 0 -114.5 -24.5t-81.5 -67.5v-783h-292v1082h272zM576 1424l117 127h264v-17l-281 -255h-199l-281 256v16h264z" />
<glyph unicode="&#x149;" d="M379 1082l13 -155q54 83 133 129t177 46q164 0 256 -105.5t92 -333.5v-663h-293v662q0 116 -40.5 164.5t-121.5 48.5q-65 0 -114.5 -24.5t-81.5 -67.5v-783h-292v1082h272zM224 1398l-129 -235h-122l61 245v151h190v-161z" />
<glyph unicode="&#x14a;" horiz-adv-x="1438" d="M1308 1456v-1496q0 -190 -101 -293.5t-280 -103.5q-41 0 -75 4t-70 13l14 221q23 -6 48 -9.5t52 -3.5q57 0 89 45t32 127v40l-587 982l-6 -1v-981h-293v1456h293l587 -981l6 1v980h291z" />
<glyph unicode="&#x14b;" d="M379 1082l13 -152q53 81 132 126.5t176 45.5q164 0 256 -105.5t92 -333.5v-703q0 -190 -101 -293.5t-281 -103.5q-40 0 -74 4t-70 13l14 224q22 -6 47 -9t52 -3q58 0 89 43t31 125v702q0 116 -40.5 164.5t-121.5 48.5q-64 0 -113 -23.5t-81 -65.5v-786h-292v1082h272z " />
<glyph unicode="&#x14c;" horiz-adv-x="1409" d="M1312 597q0 -269 -169 -443.5t-440 -174.5q-270 0 -438 175t-168 443v262q0 267 167.5 442.5t436.5 175.5q271 0 441 -175.5t170 -442.5v-262zM1021 861q0 170 -85 279t-235 109q-148 0 -230.5 -109t-82.5 -279v-264q0 -173 83 -282t232 -109q150 0 234 109t84 282v264z M1072 1634h-731v165h731v-165z" />
<glyph unicode="&#x14d;" d="M67 551q0 242 135 396.5t374 154.5q240 0 376 -154t136 -397v-21q0 -244 -135.5 -397.5t-374.5 -153.5q-240 0 -375.5 153.5t-135.5 397.5v21zM358 530q0 -148 52 -237.5t168 -89.5q113 0 165.5 90t52.5 237v21q0 144 -53 235t-167 91q-113 0 -165.5 -91.5t-52.5 -234.5 v-21zM944 1292h-731v165h731v-165z" />
<glyph unicode="&#x14e;" horiz-adv-x="1409" d="M1312 597q0 -269 -169 -443.5t-440 -174.5q-270 0 -438 175t-168 443v262q0 267 167.5 442.5t436.5 175.5q271 0 441 -175.5t170 -442.5v-262zM1021 861q0 170 -85 279t-235 109q-148 0 -230.5 -109t-82.5 -279v-264q0 -173 83 -282t232 -109q150 0 234 109t84 282v264z M1044 1917l2 -6q5 -127 -88.5 -207.5t-251.5 -80.5q-159 0 -253 80.5t-88 207.5l2 6h213q0 -53 30.5 -87t95.5 -34q63 0 93.5 34t30.5 87h214z" />
<glyph unicode="&#x14f;" d="M67 551q0 242 135 396.5t374 154.5q240 0 376 -154t136 -397v-21q0 -244 -135.5 -397.5t-374.5 -153.5q-240 0 -375.5 153.5t-135.5 397.5v21zM358 530q0 -148 52 -237.5t168 -89.5q113 0 165.5 90t52.5 237v21q0 144 -53 235t-167 91q-113 0 -165.5 -91.5t-52.5 -234.5 v-21zM916 1574l2 -6q5 -127 -88.5 -207.5t-251.5 -80.5q-159 0 -253 80.5t-88 207.5l2 6h213q0 -53 30.5 -87t95.5 -34q63 0 93.5 34t30.5 87h214z" />
<glyph unicode="&#x150;" horiz-adv-x="1409" d="M1312 597q0 -269 -169 -443.5t-440 -174.5q-270 0 -438 175t-168 443v262q0 267 167.5 442.5t436.5 175.5q271 0 441 -175.5t170 -442.5v-262zM1021 861q0 170 -85 279t-235 109q-148 0 -230.5 -109t-82.5 -279v-264q0 -173 83 -282t232 -109q150 0 234 109t84 282v264z M982 1888h279l2 -6l-285 -260h-234l-2 5zM594 1888h275l2 -5l-240 -261h-235z" />
<glyph unicode="&#x151;" d="M67 551q0 242 135 396.5t374 154.5q240 0 376 -154t136 -397v-21q0 -244 -135.5 -397.5t-374.5 -153.5q-240 0 -375.5 153.5t-135.5 397.5v21zM358 530q0 -148 52 -237.5t168 -89.5q113 0 165.5 90t52.5 237v21q0 144 -53 235t-167 91q-113 0 -165.5 -91.5t-52.5 -234.5 v-21zM854 1545h279l2 -6l-285 -260h-234l-2 5zM466 1545h275l2 -5l-240 -261h-235z" />
<glyph unicode="&#x152;" horiz-adv-x="1984" d="M1803 0h-812q-92 -10 -156.5 -15.5t-131.5 -5.5q-270 0 -438 165.5t-168 431.5v304q0 265 167 431t437 166q69 0 140 -6t150 -15h810v-225h-640v-366h540v-225h-540v-416h642v-224zM703 204q42 0 84 2t82 7v1029q-44 4 -85.5 7t-82.5 3q-148 0 -230.5 -94.5t-82.5 -275.5 v-306q0 -182 83.5 -277t231.5 -95z" />
<glyph unicode="&#x153;" horiz-adv-x="1848" d="M1361 -21q-129 0 -229.5 44t-166.5 125q-67 -81 -165 -125t-222 -44q-240 0 -375.5 153.5t-135.5 397.5v21q0 242 135 396.5t374 154.5q125 0 224 -44.5t166 -125.5q64 82 159.5 126t216.5 44q218 0 334.5 -133.5t116.5 -359.5v-151h-645l-3 -6q7 -111 67.5 -180 t179.5 -69q98 0 166.5 20t141.5 61l79 -180q-65 -53 -176 -89t-242 -36zM358 530q0 -148 52 -237.5t168 -89.5q113 0 165.5 90t52.5 237v21q0 144 -53 235t-167 91q-113 0 -165.5 -91.5t-52.5 -234.5v-21zM1342 877q-88 0 -135.5 -60.5t-57.5 -160.5l2 -5h356v22 q0 95 -39 149.5t-126 54.5z" />
<glyph unicode="&#x154;" horiz-adv-x="1305" d="M426 582v-582h-292v1456h504q249 0 389.5 -113.5t140.5 -316.5q0 -112 -59.5 -193.5t-173.5 -131.5q129 -38 185.5 -127t56.5 -220v-107q0 -61 16.5 -127.5t56.5 -98.5v-21h-301q-40 32 -51.5 106t-11.5 143v103q0 109 -59.5 169.5t-168.5 60.5h-232zM426 807h207 q123 0 183 52t60 154q0 100 -60.5 159t-177.5 59h-212v-424zM686 1866h325l2 -6l-277 -260h-249z" />
<glyph unicode="&#x155;" horiz-adv-x="721" d="M681 831l-107 3q-65 0 -107 -27t-64 -76v-731h-291v1082h271l13 -160q38 85 98.5 132.5t139.5 47.5q22 0 40.5 -3.5t37.5 -8.5zM470 1544h325l2 -6l-277 -260h-249z" />
<glyph unicode="&#x156;" horiz-adv-x="1305" d="M426 582v-582h-292v1456h504q249 0 389.5 -113.5t140.5 -316.5q0 -112 -59.5 -193.5t-173.5 -131.5q129 -38 185.5 -127t56.5 -220v-107q0 -61 16.5 -127.5t56.5 -98.5v-21h-301q-40 32 -51.5 106t-11.5 143v103q0 109 -59.5 169.5t-168.5 60.5h-232zM426 807h207 q123 0 183 52t60 154q0 100 -60.5 159t-177.5 59h-212v-424zM716 -254l-129 -235h-122l61 245v151h190v-161z" />
<glyph unicode="&#x157;" horiz-adv-x="721" d="M681 831l-107 3q-65 0 -107 -27t-64 -76v-731h-291v1082h271l13 -160q38 85 98.5 132.5t139.5 47.5q22 0 40.5 -3.5t37.5 -8.5zM359 -254l-129 -235h-122l61 245v151h190v-161z" />
<glyph unicode="&#x158;" horiz-adv-x="1305" d="M426 582v-582h-292v1456h504q249 0 389.5 -113.5t140.5 -316.5q0 -112 -59.5 -193.5t-173.5 -131.5q129 -38 185.5 -127t56.5 -220v-107q0 -61 16.5 -127.5t56.5 -98.5v-21h-301q-40 32 -51.5 106t-11.5 143v103q0 109 -59.5 169.5t-168.5 60.5h-232zM426 807h207 q123 0 183 52t60 154q0 100 -60.5 159t-177.5 59h-212v-424zM627 1746l117 127h264v-17l-281 -255h-199l-281 256v16h264z" />
<glyph unicode="&#x159;" horiz-adv-x="721" d="M681 831l-107 3q-65 0 -107 -27t-64 -76v-731h-291v1082h271l13 -160q38 85 98.5 132.5t139.5 47.5q22 0 40.5 -3.5t37.5 -8.5zM412 1424l117 127h264v-17l-281 -255h-199l-281 256v16h264z" />
<glyph unicode="&#x15a;" horiz-adv-x="1266" d="M893 380q0 84 -58.5 135t-205.5 96q-252 76 -382.5 179t-130.5 281q0 179 147 292.5t375 113.5q242 0 389.5 -122t142.5 -320l-2 -6h-283q0 109 -66 167.5t-185 58.5q-108 0 -167 -52t-59 -133q0 -74 64 -121.5t221 -100.5q240 -68 366 -177.5t126 -288.5 q0 -187 -146 -295t-386 -108q-235 0 -403.5 117t-163.5 349l2 6h283q0 -129 76 -190t206 -61q117 0 178.5 49t61.5 131zM690 1887h325l2 -6l-277 -260h-249z" />
<glyph unicode="&#x15b;" horiz-adv-x="1056" d="M697 300q0 48 -46.5 82.5t-172.5 60.5q-190 38 -288.5 115t-98.5 209q0 139 118 237t314 98q205 0 328.5 -98t118.5 -244l-2 -6h-282q0 65 -42 106t-121 41q-70 0 -111 -35t-41 -86q0 -50 42.5 -81.5t172.5 -56.5q199 -40 296.5 -117.5t97.5 -213.5q0 -146 -125 -239 t-330 -93q-216 0 -341.5 109.5t-119.5 249.5l2 6h267q3 -87 57 -126t141 -39q81 0 123.5 32.5t42.5 88.5zM578 1544h325l2 -6l-277 -260h-249z" />
<glyph unicode="&#x15c;" horiz-adv-x="1266" d="M893 380q0 84 -58.5 135t-205.5 96q-252 76 -382.5 179t-130.5 281q0 179 147 292.5t375 113.5q242 0 389.5 -122t142.5 -320l-2 -6h-283q0 109 -66 167.5t-185 58.5q-108 0 -167 -52t-59 -133q0 -74 64 -121.5t221 -100.5q240 -68 366 -177.5t126 -288.5 q0 -187 -146 -295t-386 -108q-235 0 -403.5 117t-163.5 349l2 6h283q0 -129 76 -190t206 -61q117 0 178.5 49t61.5 131zM1004 1636v-23h-232l-140 133l-139 -133h-227v26l282 240h169z" />
<glyph unicode="&#x15d;" horiz-adv-x="1056" d="M697 300q0 48 -46.5 82.5t-172.5 60.5q-190 38 -288.5 115t-98.5 209q0 139 118 237t314 98q205 0 328.5 -98t118.5 -244l-2 -6h-282q0 65 -42 106t-121 41q-70 0 -111 -35t-41 -86q0 -50 42.5 -81.5t172.5 -56.5q199 -40 296.5 -117.5t97.5 -213.5q0 -146 -125 -239 t-330 -93q-216 0 -341.5 109.5t-119.5 249.5l2 6h267q3 -87 57 -126t141 -39q81 0 123.5 32.5t42.5 88.5zM892 1293v-23h-232l-140 133l-139 -133h-227v26l282 240h169z" />
<glyph unicode="&#x15e;" horiz-adv-x="1266" d="M893 380q0 84 -58.5 135t-205.5 96q-252 76 -382.5 179t-130.5 281q0 179 147 292.5t375 113.5q242 0 389.5 -122t142.5 -320l-2 -6h-283q0 109 -66 167.5t-185 58.5q-108 0 -167 -52t-59 -133q0 -74 64 -121.5t221 -100.5q240 -68 366 -177.5t126 -288.5 q0 -187 -146 -295t-386 -108q-235 0 -403.5 117t-163.5 349l2 6h283q0 -129 76 -190t206 -61q117 0 178.5 49t61.5 131zM745 -3l-11 -57q64 -11 107 -52t43 -121q0 -107 -91.5 -171t-259.5 -64l-7 161q51 0 81 20.5t30 62.5q0 41 -32 57.5t-110 21.5l31 142h219z" />
<glyph unicode="&#x15f;" horiz-adv-x="1056" d="M697 300q0 48 -46.5 82.5t-172.5 60.5q-190 38 -288.5 115t-98.5 209q0 139 118 237t314 98q205 0 328.5 -98t118.5 -244l-2 -6h-282q0 65 -42 106t-121 41q-70 0 -111 -35t-41 -86q0 -50 42.5 -81.5t172.5 -56.5q199 -40 296.5 -117.5t97.5 -213.5q0 -146 -125 -239 t-330 -93q-216 0 -341.5 109.5t-119.5 249.5l2 6h267q3 -87 57 -126t141 -39q81 0 123.5 32.5t42.5 88.5zM633 -3l-11 -57q64 -11 107 -52t43 -121q0 -107 -91.5 -171t-259.5 -64l-7 161q51 0 81 20.5t30 62.5q0 41 -32 57.5t-110 21.5l31 142h219z" />
<glyph unicode="&#x160;" horiz-adv-x="1266" d="M893 380q0 84 -58.5 135t-205.5 96q-252 76 -382.5 179t-130.5 281q0 179 147 292.5t375 113.5q242 0 389.5 -122t142.5 -320l-2 -6h-283q0 109 -66 167.5t-185 58.5q-108 0 -167 -52t-59 -133q0 -74 64 -121.5t221 -100.5q240 -68 366 -177.5t126 -288.5 q0 -187 -146 -295t-386 -108q-235 0 -403.5 117t-163.5 349l2 6h283q0 -129 76 -190t206 -61q117 0 178.5 49t61.5 131zM631 1767l117 127h264v-17l-281 -255h-199l-281 256v16h264z" />
<glyph unicode="&#x161;" horiz-adv-x="1056" d="M697 300q0 48 -46.5 82.5t-172.5 60.5q-190 38 -288.5 115t-98.5 209q0 139 118 237t314 98q205 0 328.5 -98t118.5 -244l-2 -6h-282q0 65 -42 106t-121 41q-70 0 -111 -35t-41 -86q0 -50 42.5 -81.5t172.5 -56.5q199 -40 296.5 -117.5t97.5 -213.5q0 -146 -125 -239 t-330 -93q-216 0 -341.5 109.5t-119.5 249.5l2 6h267q3 -87 57 -126t141 -39q81 0 123.5 32.5t42.5 88.5zM519 1424l117 127h264v-17l-281 -255h-199l-281 256v16h264z" />
<glyph unicode="&#x162;" horiz-adv-x="1175" d="M1149 1231h-416v-1231h-292v1231h-410v225h1118v-225zM677 -254l-129 -235h-122l61 245v151h190v-161z" />
<glyph unicode="&#x163;" horiz-adv-x="713" d="M462 1347v-265h183v-205h-183v-551q0 -63 26.5 -90t69.5 -27q23 0 40 2.5t39 8.5l24 -211q-44 -15 -85.5 -22.5t-90.5 -7.5q-151 0 -232.5 83t-81.5 263v552h-158v205h158v265h291zM523 -264l-129 -235h-122l61 245v151h190v-161z" />
<glyph unicode="&#x164;" horiz-adv-x="1175" d="M1149 1231h-416v-1231h-292v1231h-410v225h1118v-225zM588 1746l117 127h264v-17l-281 -255h-199l-281 256v16h264z" />
<glyph unicode="&#x165;" horiz-adv-x="713" d="M462 1347v-265h183v-205h-183v-551q0 -63 26.5 -90t69.5 -27q23 0 40 2.5t39 8.5l24 -211q-44 -15 -85.5 -22.5t-90.5 -7.5q-151 0 -232.5 83t-81.5 263v552h-158v205h158v265h291zM838 1428l-129 -235h-122l61 245v151h190v-161z" />
<glyph unicode="&#x166;" horiz-adv-x="1175" d="M930 757h-197v-757h-292v757h-182v181h182v293h-410v225h1118v-225h-416v-293h197v-181z" />
<glyph unicode="&#x167;" horiz-adv-x="713" d="M462 1347v-265h183v-205h-183v-157h199v-181h-199v-213q0 -63 26.5 -90t69.5 -27q23 0 40 2.5t39 8.5l24 -211q-44 -15 -85.5 -22.5t-90.5 -7.5q-151 0 -232.5 83t-81.5 263v214h-181v181h181v157h-158v205h158v265h291z" />
<glyph unicode="&#x168;" horiz-adv-x="1407" d="M1288 1456v-953q0 -246 -163 -385t-423 -139q-259 0 -420.5 139t-161.5 385v953h293v-953q0 -146 78 -223t211 -77q135 0 214 77t79 223v953h293zM1078 1856q0 -96 -59.5 -163.5t-150.5 -67.5q-70 0 -158.5 43.5t-140.5 43.5q-36 0 -60 -32.5t-24 -77.5l-156 42 q0 94 59.5 163.5t149.5 69.5q56 0 152 -43.5t148 -43.5q34 0 60 32t26 79z" />
<glyph unicode="&#x169;" d="M775 160q-50 -87 -127 -134t-179 -47q-171 0 -267.5 116t-96.5 360v627h291v-629q0 -142 38.5 -194.5t119.5 -52.5q70 0 120 22.5t82 66.5v787h292v-1082h-242zM950 1513q0 -96 -59.5 -163.5t-150.5 -67.5q-70 0 -158.5 43.5t-140.5 43.5q-36 0 -60 -32.5t-24 -77.5 l-156 42q0 94 59.5 163.5t149.5 69.5q56 0 152 -43.5t148 -43.5q34 0 60 32t26 79z" />
<glyph unicode="&#x16a;" horiz-adv-x="1407" d="M1288 1456v-953q0 -246 -163 -385t-423 -139q-259 0 -420.5 139t-161.5 385v953h293v-953q0 -146 78 -223t211 -77q135 0 214 77t79 223v953h293zM1071 1613h-731v165h731v-165z" />
<glyph unicode="&#x16b;" d="M775 160q-50 -87 -127 -134t-179 -47q-171 0 -267.5 116t-96.5 360v627h291v-629q0 -142 38.5 -194.5t119.5 -52.5q70 0 120 22.5t82 66.5v787h292v-1082h-242zM943 1271h-731v165h731v-165z" />
<glyph unicode="&#x16c;" horiz-adv-x="1407" d="M1288 1456v-953q0 -246 -163 -385t-423 -139q-259 0 -420.5 139t-161.5 385v953h293v-953q0 -146 78 -223t211 -77q135 0 214 77t79 223v953h293zM1043 1896l2 -6q5 -127 -88.5 -207.5t-251.5 -80.5q-159 0 -253 80.5t-88 207.5l2 6h213q0 -53 30.5 -87t95.5 -34 q63 0 93.5 34t30.5 87h214z" />
<glyph unicode="&#x16d;" d="M775 160q-50 -87 -127 -134t-179 -47q-171 0 -267.5 116t-96.5 360v627h291v-629q0 -142 38.5 -194.5t119.5 -52.5q70 0 120 22.5t82 66.5v787h292v-1082h-242zM915 1553l2 -6q5 -127 -88.5 -207.5t-251.5 -80.5q-159 0 -253 80.5t-88 207.5l2 6h213q0 -53 30.5 -87 t95.5 -34q63 0 93.5 34t30.5 87h214z" />
<glyph unicode="&#x16e;" horiz-adv-x="1407" d="M1288 1456v-953q0 -246 -163 -385t-423 -139q-259 0 -420.5 139t-161.5 385v953h293v-953q0 -146 78 -223t211 -77q135 0 214 77t79 223v953h293zM517 1746q0 73 54 122.5t134 49.5q78 0 131.5 -49.5t53.5 -122.5q0 -74 -53.5 -121.5t-131.5 -47.5q-80 0 -134 47.5 t-54 121.5zM633 1746q0 -31 20.5 -51.5t51.5 -20.5q30 0 49.5 20t19.5 52t-19.5 52.5t-49.5 20.5q-31 0 -51.5 -20.5t-20.5 -52.5z" />
<glyph unicode="&#x16f;" d="M775 160q-50 -87 -127 -134t-179 -47q-171 0 -267.5 116t-96.5 360v627h291v-629q0 -142 38.5 -194.5t119.5 -52.5q70 0 120 22.5t82 66.5v787h292v-1082h-242zM389 1403q0 73 54 122.5t134 49.5q78 0 131.5 -49.5t53.5 -122.5q0 -74 -53.5 -121.5t-131.5 -47.5 q-80 0 -134 47.5t-54 121.5zM505 1403q0 -31 20.5 -51.5t51.5 -20.5q30 0 49.5 20t19.5 52t-19.5 52.5t-49.5 20.5q-31 0 -51.5 -20.5t-20.5 -52.5z" />
<glyph unicode="&#x170;" horiz-adv-x="1407" d="M1288 1456v-953q0 -246 -163 -385t-423 -139q-259 0 -420.5 139t-161.5 385v953h293v-953q0 -146 78 -223t211 -77q135 0 214 77t79 223v953h293zM981 1867h279l2 -6l-285 -260h-234l-2 5zM593 1867h275l2 -5l-240 -261h-235z" />
<glyph unicode="&#x171;" d="M775 160q-50 -87 -127 -134t-179 -47q-171 0 -267.5 116t-96.5 360v627h291v-629q0 -142 38.5 -194.5t119.5 -52.5q70 0 120 22.5t82 66.5v787h292v-1082h-242zM853 1524h279l2 -6l-285 -260h-234l-2 5zM465 1524h275l2 -5l-240 -261h-235z" />
<glyph unicode="&#x172;" horiz-adv-x="1407" d="M1288 1456v-953q0 -246 -163 -385t-423 -139q-259 0 -420.5 139t-161.5 385v953h293v-953q0 -146 78 -223t211 -77q135 0 214 77t79 223v953h293zM809 0q-54 -53 -79 -90t-25 -86q0 -27 17 -48.5t69 -21.5q28 0 49.5 6t44.5 14l35 -154q-36 -19 -80.5 -31.5t-105.5 -12.5 q-108 0 -177.5 56.5t-69.5 157.5q0 77 46 146.5t144 123.5z" />
<glyph unicode="&#x173;" d="M775 160q-50 -87 -127 -134t-179 -47q-171 0 -267.5 116t-96.5 360v627h291v-629q0 -142 38.5 -194.5t119.5 -52.5q70 0 120 22.5t82 66.5v787h292v-1082h-242zM962 0q-54 -53 -79 -90t-25 -86q0 -27 17 -48.5t69 -21.5q28 0 49.5 6t44.5 14l35 -154q-36 -19 -80.5 -31.5 t-105.5 -12.5q-108 0 -177.5 56.5t-69.5 157.5q0 77 46 146.5t144 123.5z" />
<glyph unicode="&#x174;" horiz-adv-x="1804" d="M1283 468h6l193 988h301l-340 -1456h-271l-268 959h-6l-267 -959h-271l-340 1456h301l194 -987h6l262 987h236zM1274 1615v-23h-232l-140 133l-139 -133h-227v26l282 240h169z" />
<glyph unicode="&#x175;" horiz-adv-x="1507" d="M1053 402h6l131 680h284l-275 -1082h-244l-201 624h-6l-201 -624h-243l-275 1082h284l133 -677h6l202 677h195zM1124 1273v-23h-232l-140 133l-139 -133h-227v26l282 240h169z" />
<glyph unicode="&#x176;" horiz-adv-x="1303" d="M648 785h6l318 671h320l-499 -944v-512h-292v527l-491 929h320zM1029 1615v-23h-232l-140 133l-139 -133h-227v26l282 240h169z" />
<glyph unicode="&#x177;" horiz-adv-x="1046" d="M502 454l12 -60h6l207 688h314l-439 -1244q-46 -116 -125 -195.5t-237 -79.5q-37 0 -68.5 6t-76.5 17l34 213q13 -2 28 -4t27 -2q72 0 111 35.5t60 88.5l34 84l-384 1081h314zM895 1273v-23h-232l-140 133l-139 -133h-227v26l282 240h169z" />
<glyph unicode="&#x178;" horiz-adv-x="1303" d="M648 785h6l318 671h320l-499 -944v-512h-292v527l-491 929h320zM1040 1601h-266v204h266v-204zM540 1601h-266v204h266v-204z" />
<glyph unicode="&#x179;" horiz-adv-x="1163" d="M421 224h668v-224h-1012v152l648 1079h-647v225h994v-146zM659 1867h325l2 -6l-277 -260h-249z" />
<glyph unicode="&#x17a;" horiz-adv-x="1046" d="M438 224h536v-224h-899v172l515 684h-499v226h866v-167zM582 1523h325l2 -6l-277 -260h-249z" />
<glyph unicode="&#x17b;" horiz-adv-x="1163" d="M421 224h668v-224h-1012v152l648 1079h-647v225h994v-146zM765 1602h-327v241h327v-241z" />
<glyph unicode="&#x17c;" horiz-adv-x="1046" d="M438 224h536v-224h-899v172l515 684h-499v226h866v-167zM688 1258h-327v241h327v-241z" />
<glyph unicode="&#x17d;" horiz-adv-x="1163" d="M421 224h668v-224h-1012v152l648 1079h-647v225h994v-146zM600 1747l117 127h264v-17l-281 -255h-199l-281 256v16h264z" />
<glyph unicode="&#x17e;" horiz-adv-x="1046" d="M438 224h536v-224h-899v172l515 684h-499v226h866v-167zM523 1403l117 127h264v-17l-281 -255h-199l-281 256v16h264z" />
<glyph unicode="&#x17f;" horiz-adv-x="532" d="M116 0v1202q0 182 105 280.5t295 98.5q37 0 74.5 -5.5t85.5 -15.5l-25 -215q-26 5 -47 8t-50 3q-71 0 -109 -40.5t-38 -113.5v-1202h-291z" />
<glyph unicode="&#x192;" horiz-adv-x="740" d="M683 877h-207l-1 -917q0 -190 -101 -293.5t-281 -103.5q-40 0 -73 4t-70 13l15 221q23 -6 47 -9.5t51 -3.5q57 0 88.5 45t31.5 127v917h-160v205h160v120q0 182 105 280.5t296 98.5q37 0 74.5 -5.5t85.5 -15.5l-25 -217q-23 4 -46.5 7t-52.5 3q-71 0 -107.5 -39 t-36.5 -112v-120h207v-205z" />
<glyph unicode="&#x1a0;" horiz-adv-x="1435" d="M1307 597q0 -269 -169 -443.5t-440 -174.5q-270 0 -438 175t-168 443v262q0 267 167.5 442.5t436.5 175.5q133 0 246.5 -46.5t195.5 -130.5q102 28 155 109.5t53 207.5h216q0 -191 -79 -317.5t-227 -178.5q25 -60 38 -126t13 -136v-262zM1016 861q0 170 -85 279t-235 109 q-148 0 -230.5 -109t-82.5 -279v-264q0 -173 83 -282t232 -109q150 0 234 109t84 282v264z" />
<glyph unicode="&#x1a1;" horiz-adv-x="1191" d="M67 551q0 242 135 396.5t374 154.5q112 0 203 -36.5t158 -102.5q56 35 85 103.5t29 164.5h211q0 -146 -60 -247.5t-174 -150.5q29 -62 44.5 -133.5t15.5 -148.5v-21q0 -244 -135.5 -397.5t-374.5 -153.5q-240 0 -375.5 153.5t-135.5 397.5v21zM358 530q0 -148 52 -237.5 t168 -89.5q113 0 165.5 90t52.5 237v21q0 144 -53 235t-167 91q-113 0 -165.5 -91.5t-52.5 -234.5v-21z" />
<glyph unicode="&#x1af;" horiz-adv-x="1460" d="M1288 1456v-181l6 -1q83 20 119 104t36 229h215q0 -231 -91.5 -364t-284.5 -161v-579q0 -246 -163 -385t-423 -139q-259 0 -420.5 139t-161.5 385v953h293v-953q0 -146 78 -223t211 -77q135 0 214 77t79 223v953h293z" />
<glyph unicode="&#x1b0;" horiz-adv-x="1166" d="M1394 1196l2 -5q3 -176 -81.5 -274.5t-266.5 -120.5v-796h-242l-31 160q-50 -87 -127 -134t-179 -47q-171 0 -267.5 116t-96.5 360v627h291v-629q0 -142 38.5 -194.5t119.5 -52.5q70 0 120 22.5t82 66.5v787h292v-124l6 -2q82 13 117.5 71.5t35.5 168.5h187z" />
<glyph unicode="&#x1f0;" horiz-adv-x="578" d="M441 1082v-1122q0 -190 -101 -293.5t-280 -103.5q-41 0 -73.5 4t-70.5 13l15 221q23 -6 47.5 -9.5t50.5 -3.5q57 0 89 45t32 127v1122h291zM274 1396l117 127h264v-17l-281 -255h-199l-281 256v16h264z" />
<glyph unicode="&#x1fa;" horiz-adv-x="1303" d="M893 314h-472l-98 -314h-305l491 1456h299l489 -1456h-305zM493 543h329l-161 513h-6zM755 2140h256l2 -6l-263 -205h-177l-2 5zM451 1696q0 78 58.5 131t144.5 53q84 0 141.5 -53t57.5 -131q0 -80 -57.5 -131t-141.5 -51q-86 0 -144.5 51.5t-58.5 130.5zM564 1696 q0 -39 25.5 -63.5t64.5 -24.5q37 0 61.5 24.5t24.5 63.5t-24.5 64.5t-61.5 25.5q-39 0 -64.5 -25.5t-25.5 -64.5z" />
<glyph unicode="&#x1fb;" horiz-adv-x="1100" d="M750 0q-16 37 -27.5 78t-16.5 84q-45 -79 -119 -131t-176 -52q-170 0 -262 87.5t-92 238.5q0 159 122.5 246.5t357.5 87.5h164v86q0 78 -41 121t-122 43q-71 0 -109.5 -34.5t-38.5 -94.5h-281l-2 6q-7 137 119.5 236.5t330.5 99.5q195 0 315.5 -98t120.5 -281v-447 q0 -76 11.5 -143t36.5 -133h-291zM483 195q76 0 136 38t82 88v153h-164q-93 0 -140.5 -46t-47.5 -113q0 -55 35.5 -87.5t98.5 -32.5zM648 1818h256l2 -6l-263 -205h-177l-2 5zM344 1374q0 78 58.5 131t144.5 53q84 0 141.5 -53t57.5 -131q0 -80 -57.5 -131t-141.5 -51 q-86 0 -144.5 51.5t-58.5 130.5zM457 1374q0 -39 25.5 -63.5t64.5 -24.5q37 0 61.5 24.5t24.5 63.5t-24.5 64.5t-61.5 25.5q-39 0 -64.5 -25.5t-25.5 -64.5z" />
<glyph unicode="&#x1fc;" horiz-adv-x="1945" d="M1874 0h-898l-14 335h-440l-168 -335h-342l784 1456h1016v-228h-596l16 -366h499v-227h-490l17 -408h616v-227zM642 575h310l-23 559l-6 1zM1001 1866h325l2 -6l-277 -260h-249z" />
<glyph unicode="&#x1fd;" horiz-adv-x="1771" d="M1280 -21q-129 0 -229 40.5t-167 117.5q-60 -69 -161.5 -113.5t-240.5 -44.5q-192 0 -296.5 90.5t-104.5 247.5q0 159 126.5 245t369.5 86h181v59q0 79 -40.5 124.5t-114.5 45.5q-81 0 -127.5 -37.5t-46.5 -93.5l-282 18l-2 6q-6 144 121.5 238t339.5 94q102 0 186 -27.5 t143 -79.5q61 52 142 79.5t180 27.5q212 0 333.5 -132t121.5 -358v-158h-651l-2 -6q4 -111 66 -178t186 -67q92 0 153.5 20t141.5 61l77 -184q-62 -48 -169.5 -84.5t-233.5 -36.5zM537 185q58 0 121 30.5t100 72.5v176h-179q-97 0 -152 -44.5t-55 -106.5q0 -59 41.5 -93.5 t123.5 -34.5zM1257 877q-95 0 -142 -61.5t-54 -166.5l2 -5h362v28q0 94 -42.5 149.5t-125.5 55.5zM954 1545h325l2 -6l-277 -260h-249z" />
<glyph unicode="&#x1fe;" horiz-adv-x="1410" d="M1312 597q0 -269 -169 -443.5t-440 -174.5q-80 0 -152.5 16.5t-136.5 49.5l-81 -140h-143l121 207q-103 83 -158.5 209t-55.5 276v262q0 267 167.5 442.5t436.5 175.5q98 0 186 -25.5t162 -73.5l81 140h143l-128 -220q80 -84 123.5 -196.5t43.5 -242.5v-262zM388 597 q0 -73 15 -135t44 -106l6 -1l467 803q-41 43 -96.5 67t-122.5 24q-148 0 -230.5 -109t-82.5 -279v-264zM1021 861q0 47 -7.5 90t-20.5 77l-5 1l-452 -775q34 -24 76 -36t91 -12q150 0 234 109t84 282v264zM771 1928h325l2 -6l-277 -260h-249z" />
<glyph unicode="&#x1ff;" d="M67 551q0 242 135 396.5t374 154.5q50 0 96.5 -8t90.5 -22l70 143h161l-103 -211q95 -74 146 -191.5t51 -261.5v-21q0 -244 -135.5 -397.5t-374.5 -153.5q-48 0 -92 7t-84 19l-71 -146h-161l103 211q-101 71 -153.5 190.5t-52.5 269.5v21zM358 530q0 -62 8.5 -114 t26.5 -86l6 -1l260 531q-19 8 -39.5 12.5t-43.5 4.5q-113 0 -165.5 -91.5t-52.5 -234.5v-21zM796 551q0 54 -8 102t-22 82l-6 1l-255 -521q15 -7 33.5 -9.5t39.5 -2.5q113 0 165.5 90t52.5 237v21zM597 1540h325l2 -6l-277 -260h-249z" />
<glyph unicode="&#x218;" horiz-adv-x="1266" d="M893 380q0 84 -58.5 135t-205.5 96q-252 76 -382.5 179t-130.5 281q0 179 147 292.5t375 113.5q242 0 389.5 -122t142.5 -320l-2 -6h-283q0 109 -66 167.5t-185 58.5q-108 0 -167 -52t-59 -133q0 -74 64 -121.5t221 -100.5q240 -68 366 -177.5t126 -288.5 q0 -187 -146 -295t-386 -108q-235 0 -403.5 117t-163.5 349l2 6h283q0 -129 76 -190t206 -61q117 0 178.5 49t61.5 131zM720 -274l-129 -235h-122l61 245v151h190v-161z" />
<glyph unicode="&#x219;" horiz-adv-x="1056" d="M697 300q0 48 -46.5 82.5t-172.5 60.5q-190 38 -288.5 115t-98.5 209q0 139 118 237t314 98q205 0 328.5 -98t118.5 -244l-2 -6h-282q0 65 -42 106t-121 41q-70 0 -111 -35t-41 -86q0 -50 42.5 -81.5t172.5 -56.5q199 -40 296.5 -117.5t97.5 -213.5q0 -146 -125 -239 t-330 -93q-216 0 -341.5 109.5t-119.5 249.5l2 6h267q3 -87 57 -126t141 -39q81 0 123.5 32.5t42.5 88.5zM608 -274l-129 -235h-122l61 245v151h190v-161z" />
<glyph unicode="&#x237;" horiz-adv-x="578" d="M441 1082v-1122q0 -190 -101 -293.5t-280 -103.5q-41 0 -73.5 4t-70.5 13l15 221q23 -6 47.5 -9.5t50.5 -3.5q57 0 89 45t32 127v1122h291z" />
<glyph unicode="&#x2bc;" horiz-adv-x="557" d="M405 1197l-102 -285h-144v544h246v-259z" />
<glyph unicode="&#x2c6;" horiz-adv-x="1016" d="M875 1275v-23h-232l-140 133l-139 -133h-227v26l282 240h169z" />
<glyph unicode="&#x2c7;" horiz-adv-x="965" d="M479 1397l117 127h264v-17l-281 -255h-199l-281 256v16h264z" />
<glyph unicode="&#x2d8;" horiz-adv-x="910" d="M791 1456l2 -6q5 -127 -88.5 -207.5t-251.5 -80.5q-159 0 -253 80.5t-88 207.5l2 6h213q0 -53 30.5 -87t95.5 -34q63 0 93.5 34t30.5 87h214z" />
<glyph unicode="&#x2d9;" horiz-adv-x="629" d="M465 1227h-327v241h327v-241z" />
<glyph unicode="&#x2da;" horiz-adv-x="682" d="M154 1305q0 73 54 122.5t134 49.5q78 0 131.5 -49.5t53.5 -122.5q0 -74 -53.5 -121.5t-131.5 -47.5q-80 0 -134 47.5t-54 121.5zM270 1305q0 -31 20.5 -51.5t51.5 -20.5q30 0 49.5 20t19.5 52t-19.5 52.5t-49.5 20.5q-31 0 -51.5 -20.5t-20.5 -52.5z" />
<glyph unicode="&#x2db;" horiz-adv-x="618" d="M405 0q-54 -53 -79 -90t-25 -86q0 -27 17 -48.5t69 -21.5q28 0 49.5 6t44.5 14l35 -154q-36 -19 -80.5 -31.5t-105.5 -12.5q-108 0 -177.5 56.5t-69.5 157.5q0 77 46 146.5t144 123.5z" />
<glyph unicode="&#x2dc;" horiz-adv-x="986" d="M868 1484q0 -96 -59.5 -163.5t-150.5 -67.5q-70 0 -158.5 43.5t-140.5 43.5q-36 0 -60 -32.5t-24 -77.5l-156 42q0 94 59.5 163.5t149.5 69.5q56 0 152 -43.5t148 -43.5q34 0 60 32t26 79z" />
<glyph unicode="&#x2dd;" horiz-adv-x="876" d="M727 1518h279l2 -6l-285 -260h-234l-2 5zM339 1518h275l2 -5l-240 -261h-235z" />
<glyph unicode="&#x2f3;" horiz-adv-x="664" d="M158 -228q0 71 53 118t131 47q76 0 128 -47t52 -118q0 -70 -52 -116t-128 -46q-79 0 -131.5 46t-52.5 116zM272 -228q0 -29 19.5 -48.5t50.5 -19.5q29 0 47.5 19t18.5 49q0 32 -18.5 51.5t-47.5 19.5q-31 0 -50.5 -19.5t-19.5 -51.5z" />
<glyph unicode="&#x300;" horiz-adv-x="0" d="M-190.818 1139.03h-174.953l-189.59 343.281l1.39453 7.92188h226.532z" />
<glyph unicode="&#x301;" horiz-adv-x="0" d="M-282.639 1488.16h221.87l1.36523 -7.94531l-189.102 -344.297h-169.987z" />
<glyph unicode="&#x303;" horiz-adv-x="0" d="M-151 1484q0 -96 -59.5 -163.5t-150.5 -67.5q-70 0 -158.5 43.5t-140.5 43.5q-36 0 -60 -32.5t-24 -77.5l-156 42q0 94 59.5 163.5t149.5 69.5q56 0 152 -43.5t148 -43.5q34 0 60 32t26 79z" />
<glyph unicode="&#x309;" horiz-adv-x="0" d="M-719 1264l-16 137q74 3 105.5 18t26.5 45v6q5 35 -32 50.5t-104 15.5l7 133q185 0 283 -52t98 -143q0 -64 -43 -100t-107 -45v-65h-218z" />
<glyph unicode="&#x30f;" horiz-adv-x="0" d="M-515 1257l-2 -5h-233l-285 260l2 6h278zM-168 1252h-236l-240 261l2 5h275z" />
<glyph unicode="&#x323;" horiz-adv-x="0" d="M-435 -354h-327v241h327v-241z" />
<glyph unicode="&#x384;" horiz-adv-x="695" d="M302 1553h278l-197 -283h-142z" />
<glyph unicode="&#x385;" horiz-adv-x="1125" d="M955 1252h-254v204h254v-204zM406 1252h-253v204h253v-204zM520 1757h282l-176 -279h-148z" />
<glyph unicode="&#x386;" horiz-adv-x="1303" d="M893 314h-472l-98 -314h-305l491 1456h299l489 -1456h-305zM493 543h329l-161 513h-6zM153 1553h278l-197 -283h-142z" />
<glyph unicode="&#x387;" horiz-adv-x="619" d="M451 568h-292v260h292v-260z" />
<glyph unicode="&#x388;" horiz-adv-x="1139" d="M966 640h-540v-416h642v-224h-934v1456h932v-225h-640v-366h540v-225zM-178 1555h278l-197 -283h-142z" />
<glyph unicode="&#x389;" horiz-adv-x="1445" d="M1311 0h-292v605h-593v-605h-292v1456h292v-626h593v626h292v-1456zM-136 1552h278l-197 -283h-142z" />
<glyph unicode="&#x38a;" horiz-adv-x="601" d="M446 0h-292v1456h292v-1456zM-125 1555h278l-197 -283h-142z" />
<glyph unicode="&#x38c;" horiz-adv-x="1409" d="M1312 597q0 -269 -169 -443.5t-440 -174.5q-270 0 -438 175t-168 443v262q0 267 167.5 442.5t436.5 175.5q271 0 441 -175.5t170 -442.5v-262zM1021 861q0 170 -85 279t-235 109q-148 0 -230.5 -109t-82.5 -279v-264q0 -173 83 -282t232 -109q150 0 234 109t84 282v264z M33 1553h278l-197 -283h-142z" />
<glyph unicode="&#x38e;" horiz-adv-x="1303" d="M648 785h6l318 671h320l-499 -944v-512h-292v527l-491 929h320zM-226 1553h278l-197 -283h-142z" />
<glyph unicode="&#x38f;" horiz-adv-x="1376" d="M735 231q92 33 145 164.5t53 368.5v94q0 191 -67.5 291t-187.5 100q-119 0 -185.5 -100.5t-66.5 -290.5v-94q0 -239 53.5 -369.5t150.5 -163.5v-231h-504v227h251q-123 90 -198 232.5t-75 304.5v92q0 273 159.5 447t414.5 174t416 -174t161 -447v-92q0 -162 -75.5 -304.5 t-196.5 -232.5h257v-227h-505v231zM17 1553h278l-197 -283h-142z" />
<glyph unicode="&#x390;" horiz-adv-x="681" d="M429 1081v-760q0 -64 22 -89.5t69 -25.5q29 0 46 3.5t52 14.5l30 -210q-47 -20 -89.5 -27.5t-97.5 -7.5q-157 0 -240.5 85.5t-83.5 260.5v756h292zM688 1188h-254v204h254v-204zM139 1188h-253v204h253v-204zM253 1693h282l-176 -279h-148z" />
<glyph unicode="&#x391;" horiz-adv-x="1303" d="M893 314h-472l-98 -314h-305l491 1456h299l489 -1456h-305zM493 543h329l-161 513h-6z" />
<glyph unicode="&#x392;" horiz-adv-x="1305" d="M134 0v1456h477q257 0 401 -100.5t144 -298.5q0 -100 -52 -179t-152 -119q136 -25 205 -118t69 -217q0 -209 -138 -316.5t-391 -107.5h-563zM426 644v-420h271q116 0 177 50.5t61 149.5q0 106 -60 163t-181 57h-268zM426 846h195q117 0 180 48t63 140q0 101 -63.5 149 t-189.5 48h-185v-385z" />
<glyph unicode="&#x393;" horiz-adv-x="1137" d="M1081 1231h-657v-1231h-292v1456h949v-225z" />
<glyph unicode="&#x394;" horiz-adv-x="1494" d="M605 1456h300l572 -1456h-1455zM412 224h676l-331 885h-6z" />
<glyph unicode="&#x395;" horiz-adv-x="1139" d="M966 640h-540v-416h642v-224h-934v1456h932v-225h-640v-366h540v-225z" />
<glyph unicode="&#x396;" horiz-adv-x="1163" d="M421 224h668v-224h-1012v152l648 1079h-647v225h994v-146z" />
<glyph unicode="&#x397;" horiz-adv-x="1445" d="M1311 0h-292v605h-593v-605h-292v1456h292v-626h593v626h292v-1456z" />
<glyph unicode="&#x398;" horiz-adv-x="1410" d="M900 613h-380v224h380v-224zM1312 597q0 -269 -169 -443.5t-440 -174.5q-270 0 -438 175t-168 443v262q0 267 167.5 442.5t436.5 175.5q271 0 441 -175.5t170 -442.5v-262zM1021 861q0 170 -85 279t-235 109q-148 0 -230.5 -109t-82.5 -279v-264q0 -173 83 -282t232 -109 q150 0 234 109t84 282v264z" />
<glyph unicode="&#x399;" horiz-adv-x="601" d="M446 0h-292v1456h292v-1456z" />
<glyph unicode="&#x39a;" horiz-adv-x="1305" d="M533 608h-107v-608h-292v1456h292v-595h82l399 595h361l-504 -677l543 -779h-372z" />
<glyph unicode="&#x39b;" horiz-adv-x="1328" d="M666 1136h-6l-335 -1136h-306l494 1456h299l494 -1456h-305z" />
<glyph unicode="&#x39c;" horiz-adv-x="1782" d="M887 383h6l374 1073h381v-1456h-292v994l-6 1l-360 -995h-198l-360 997l-6 -1v-996h-292v1456h383z" />
<glyph unicode="&#x39d;" horiz-adv-x="1445" d="M1311 0h-292l-587 982l-6 -1v-981h-292v1456h292l587 -981l6 1v980h292v-1456z" />
<glyph unicode="&#x39e;" horiz-adv-x="1163" d="M98 224h981v-224h-981v224zM210 849h756v-217h-756v217zM120 1456h918v-225h-918v225z" />
<glyph unicode="&#x39f;" horiz-adv-x="1409" d="M1312 597q0 -269 -169 -443.5t-440 -174.5q-270 0 -438 175t-168 443v262q0 267 167.5 442.5t436.5 175.5q271 0 441 -175.5t170 -442.5v-262zM1021 861q0 170 -85 279t-235 109q-148 0 -230.5 -109t-82.5 -279v-264q0 -173 83 -282t232 -109q150 0 234 109t84 282v264z " />
<glyph unicode="&#x3a0;" horiz-adv-x="1444" d="M1311 0h-292v1231h-594v-1231h-292v1456h1178v-1456z" />
<glyph unicode="&#x3a1;" horiz-adv-x="1305" d="M426 528v-528h-292v1456h557q251 0 395 -128t144 -337t-144 -336t-395 -127h-265zM426 753h265q122 0 185 66.5t63 169.5q0 105 -62.5 173.5t-185.5 68.5h-265v-478z" />
<glyph unicode="&#x3a3;" horiz-adv-x="1163" d="M824 724l-364 -499h645v-225h-1033v152l443 581l-443 572v151h1006v-225h-616l362 -490v-17z" />
<glyph unicode="&#x3a4;" horiz-adv-x="1175" d="M1149 1231h-416v-1231h-292v1231h-410v225h1118v-225z" />
<glyph unicode="&#x3a5;" horiz-adv-x="1303" d="M648 785h6l318 671h320l-499 -944v-512h-292v527l-491 929h320z" />
<glyph unicode="&#x3a6;" horiz-adv-x="1507" d="M909 1255q248 -16 401.5 -161t153.5 -374q0 -225 -154 -367.5t-401 -157.5v-195h-292v195q-250 13 -404 155t-154 368q0 231 154 377t404 160v201h292v-201zM345 718q0 -125 71.5 -198t194.5 -79l6 2v564l-6 2q-123 -8 -194.5 -84t-71.5 -207zM1177 720 q0 129 -70.5 204.5t-191.5 84.5l-6 -2v-564l6 -2q121 8 191.5 81t70.5 198z" />
<glyph unicode="&#x3a7;" horiz-adv-x="1303" d="M649 940l273 516h340l-432 -722l457 -734h-353l-281 525l-281 -525h-341l443 734l-432 722h338z" />
<glyph unicode="&#x3a8;" horiz-adv-x="1483" d="M888 581l6 -1q115 15 175 106t60 253v517h293v-517q0 -260 -144 -415t-390 -181v-343h-291v342q-251 21 -396 176.5t-145 420.5v517h291v-517q0 -158 64 -249.5t180 -109.5l6 2v874h291v-875z" />
<glyph unicode="&#x3a9;" horiz-adv-x="1376" d="M735 231q92 33 145 164.5t53 368.5v94q0 191 -67.5 291t-187.5 100q-119 0 -185.5 -100.5t-66.5 -290.5v-94q0 -239 53.5 -369.5t150.5 -163.5v-231h-504v227h251q-123 90 -198 232.5t-75 304.5v92q0 273 159.5 447t414.5 174t416 -174t161 -447v-92q0 -162 -75.5 -304.5 t-196.5 -232.5h257v-227h-505v231z" />
<glyph unicode="&#x3aa;" horiz-adv-x="601" d="M446 0h-292v1456h292v-1456zM684 1601h-266v204h266v-204zM184 1601h-266v204h266v-204z" />
<glyph unicode="&#x3ab;" horiz-adv-x="1303" d="M648 785h6l318 671h320l-499 -944v-512h-292v527l-491 929h320zM1040 1601h-266v204h266v-204zM540 1601h-266v204h266v-204z" />
<glyph unicode="&#x3ac;" horiz-adv-x="1154" d="M1029 1081v-756q0 -64 17.5 -89.5t53.5 -25.5q13 0 22 1.5t19 5.5l25 -210q-35 -16 -67 -22t-74 -6q-93 0 -157.5 38t-97.5 116q-49 -75 -117 -114.5t-159 -39.5q-200 0 -310.5 146t-110.5 386v21q0 256 111 413t312 157q87 0 153.5 -40t115.5 -114l46 133h218zM365 511 q0 -143 47.5 -225.5t155.5 -82.5q59 0 101 22.5t69 66.5q-1 7 -1 14.5v18.5v458q-28 45 -69 69.5t-98 24.5q-107 0 -156 -95.5t-49 -249.5v-21zM570 1506h278l-197 -283h-142z" />
<glyph unicode="&#x3ad;" horiz-adv-x="1140" d="M584 458q-96 0 -147 -32t-51 -101q0 -55 51.5 -94.5t144.5 -39.5q94 0 147 37t53 92h281l2 -6q5 -162 -134.5 -248t-332.5 -86q-220 0 -361.5 87.5t-141.5 238.5q0 90 52.5 154t151.5 97q-87 36 -136 96.5t-49 132.5q0 150 132 232.5t352 82.5q193 0 324 -89.5 t126 -234.5l-2 -6h-282q0 54 -51 86t-130 32q-89 0 -133.5 -37t-44.5 -87q0 -55 46 -86.5t133 -31.5h187v-189h-187zM536 1505h278l-197 -283h-142z" />
<glyph unicode="&#x3ae;" d="M379 1082l13 -152q53 81 132 126.5t176 45.5q165 0 256.5 -104t91.5 -335v-1078h-293v1077q0 116 -40.5 165.5t-121.5 49.5q-64 0 -113 -23.5t-81 -66.5v-787h-292v1082h272zM528 1506h278l-197 -283h-142z" />
<glyph unicode="&#x3af;" horiz-adv-x="681" d="M429 1081v-760q0 -64 22 -89.5t69 -25.5q29 0 46 3.5t52 14.5l30 -210q-47 -20 -89.5 -27.5t-97.5 -7.5q-157 0 -240.5 85.5t-83.5 260.5v756h292zM249 1484h278l-197 -283h-142z" />
<glyph unicode="&#x3b0;" d="M404 1082v-612q0 -142 50.5 -204.5t134.5 -62.5q105 0 153 105.5t48 257.5q-3 126 -29 255t-72 261h278q50 -105 82 -234.5t32 -281.5q0 -268 -113.5 -427.5t-368.5 -159.5q-229 0 -357.5 122t-128.5 371v610h291zM987 1189h-254v204h254v-204zM438 1189h-253v204h253 v-204zM552 1694h282l-176 -279h-148z" />
<glyph unicode="&#x3b1;" horiz-adv-x="1154" d="M1029 1081v-756q0 -64 17.5 -89.5t53.5 -25.5q13 0 22 1.5t19 5.5l25 -210q-35 -16 -67 -22t-74 -6q-93 0 -157.5 38t-97.5 116q-49 -75 -117 -114.5t-159 -39.5q-200 0 -310.5 146t-110.5 386v21q0 256 111 413t312 157q87 0 153.5 -40t115.5 -114l46 133h218zM365 511 q0 -143 47.5 -225.5t155.5 -82.5q59 0 101 22.5t69 66.5q-1 7 -1 14.5v18.5v458q-28 45 -69 69.5t-98 24.5q-107 0 -156 -95.5t-49 -249.5v-21z" />
<glyph unicode="&#x3b2;" horiz-adv-x="1233" d="M627 1477q215 0 342.5 -105t127.5 -290q0 -98 -51 -179.5t-140 -129.5q121 -43 187.5 -136t66.5 -222q0 -207 -119.5 -321.5t-326.5 -114.5q-74 0 -147 19t-134 57v-458h-291v1440q0 193 140.5 316.5t344.5 123.5zM623 859q94 0 138 52.5t44 151.5q0 79 -46.5 134 t-131.5 55q-86 0 -140 -59t-54 -156v-773q39 -30 93.5 -45.5t121.5 -15.5q101 0 160.5 60.5t59.5 154.5q0 108 -56 171.5t-158 63.5h-96v206h65z" />
<glyph unicode="&#x3b3;" horiz-adv-x="1046" d="M726 1082h305l-362 -1065v-434h-292v437l-361 1062h305l182 -679l19 -100h6l20 100z" />
<glyph unicode="&#x3b4;" d="M979 1456v-224h-404l-2 -6l244 -188q118 -87 194.5 -209.5t76.5 -277.5v-21q0 -244 -135.5 -397.5t-374.5 -153.5q-240 0 -375.5 146t-135.5 379v21q0 200 108 340t277 170l8 1l1 6l-291 237v177h809zM576 877q-113 0 -165.5 -91.5t-52.5 -234.5v-21q0 -148 52 -237.5 t168 -89.5q113 0 165.5 90t52.5 237v21q0 144 -53 235t-167 91z" />
<glyph unicode="&#x3b5;" horiz-adv-x="1140" d="M584 458q-96 0 -147 -32t-51 -101q0 -55 51.5 -94.5t144.5 -39.5q94 0 147 37t53 92h281l2 -6q5 -162 -134.5 -248t-332.5 -86q-220 0 -361.5 87.5t-141.5 238.5q0 90 52.5 154t151.5 97q-87 36 -136 96.5t-49 132.5q0 150 132 232.5t352 82.5q193 0 324 -89.5 t126 -234.5l-2 -6h-282q0 54 -51 86t-130 32q-89 0 -133.5 -37t-44.5 -87q0 -55 46 -86.5t133 -31.5h187v-189h-187z" />
<glyph unicode="&#x3b6;" horiz-adv-x="1034" d="M968 1456v-156l-360 -432q-109 -129 -155 -224.5t-46 -221.5q0 -102 48.5 -151.5t150.5 -49.5h54q147 0 232 -73t85 -207q-2 -125 -91 -225.5t-238 -142.5l-97 193q65 28 104.5 63t39.5 88q0 40 -31 61.5t-104 21.5h-49q-193 0 -293.5 110t-100.5 272q0 153 66 293 t205 310l205 242l-2 5h-516v224h893z" />
<glyph unicode="&#x3b7;" d="M379 1082l13 -152q53 81 132 126.5t176 45.5q165 0 256.5 -104t91.5 -335v-1078h-293v1077q0 116 -40.5 165.5t-121.5 49.5q-64 0 -113 -23.5t-81 -66.5v-787h-292v1082h272z" />
<glyph unicode="&#x3b8;" horiz-adv-x="1209" d="M1086 527q0 -256 -134.5 -402t-356.5 -146q-224 0 -359 146t-135 402v401q0 255 134.5 402t357.5 147q222 0 357.5 -147t135.5 -402v-401zM795 623h-403v-124q0 -143 53 -219.5t150 -76.5q95 0 147.5 76.5t52.5 219.5v124zM392 840h403v118q0 140 -53.5 217t-148.5 77 q-96 0 -148.5 -77t-52.5 -217v-118z" />
<glyph unicode="&#x3b9;" horiz-adv-x="681" d="M429 1081v-760q0 -64 22 -89.5t69 -25.5q29 0 46 3.5t52 14.5l30 -210q-47 -20 -89.5 -27.5t-97.5 -7.5q-157 0 -240.5 85.5t-83.5 260.5v756h292z" />
<glyph unicode="&#x3ba;" horiz-adv-x="1210" d="M537 405h-116v-405h-292v1082h292v-412h87l279 412h368l-384 -507l401 -575h-374z" />
<glyph unicode="&#x3bb;" horiz-adv-x="1102" d="M327 0h-315l376 1059l-54 108q-24 55 -64 90t-93 35q-13 0 -34 -2t-32 -4l-6 209q41 11 73.5 17t69.5 6q158 0 237.5 -79t124.5 -195l363 -899q18 -53 47.5 -87t70.5 -41q12 -2 24.5 -2t27.5 1l-19 -219q-32 -6 -65.5 -8.5t-66.5 -0.5q-127 9 -201.5 100.5t-118.5 222.5 l-142 392h-6l-15 -80z" />
<glyph unicode="&#x3bc;" horiz-adv-x="1264" d="M430 1082v-620q0 -149 45 -202.5t135 -53.5q75 0 125 27.5t78 79.5v769h292v-1082h-272l-6 67q-44 -43 -100.5 -65.5t-123.5 -22.5q-51 0 -94.5 10.5t-78.5 33.5v-439h-291v1498h291z" />
<glyph unicode="&#x3bd;" horiz-adv-x="1046" d="M503 403l19 -100h6l20 100l178 679h305l-368 -1082h-279l-368 1082h305z" />
<glyph unicode="&#x3be;" horiz-adv-x="1097" d="M981 1456v-232h-280q-109 -3 -162.5 -46t-53.5 -115q0 -75 53.5 -118.5t167.5 -43.5h151v-232h-143q-157 0 -238.5 -64.5t-81.5 -188.5q0 -92 63 -148.5t173 -56.5h121q153 0 240 -70t87 -207q-2 -141 -86.5 -237t-241.5 -145l-82 172q59 26 101.5 62.5t42.5 96.5 q0 45 -31.5 70.5t-96.5 25.5h-70q-234 0 -372.5 116.5t-138.5 324.5q0 133 75 225t220 139q-99 34 -152 93.5t-53 141.5q0 69 36.5 120.5t105.5 84.5h-213v232h859z" />
<glyph unicode="&#x3bf;" d="M67 551q0 242 135 396.5t374 154.5q240 0 376 -154t136 -397v-21q0 -244 -135.5 -397.5t-374.5 -153.5q-240 0 -375.5 153.5t-135.5 397.5v21zM358 530q0 -148 52 -237.5t168 -89.5q113 0 165.5 90t52.5 237v21q0 144 -53 235t-167 91q-113 0 -165.5 -91.5t-52.5 -234.5 v-21z" />
<glyph unicode="&#x3c0;" horiz-adv-x="1356" d="M1223 868h-193v-547q0 -64 22 -89.5t69 -25.5q29 0 46 3.5t52 14.5l30 -210q-47 -20 -89.5 -27.5t-97.5 -7.5q-157 0 -240.5 85.5t-83.5 260.5v543h-209v-868h-292v868h-159v214h1145v-214z" />
<glyph unicode="&#x3c1;" d="M1086 511q0 -240 -110 -386t-309 -146q-85 0 -150.5 30.5t-113.5 89.5v-515h-291v993q0 235 133.5 380t361.5 145q229 0 354 -156.5t125 -413.5v-21zM795 532q0 154 -49 249.5t-154 95.5q-95 0 -142 -92t-47 -231l-1 -1h1v-256q27 -46 73.5 -70t114.5 -24q106 0 155 83 t49 225v21z" />
<glyph unicode="&#x3c2;" horiz-adv-x="1052" d="M562 1102q200 0 321 -111.5t117 -302.5l-2 -6h-266q0 85 -43.5 140t-126.5 55q-112 0 -160 -91t-48 -231v-30q0 -136 65 -210t210 -95q189 -30 275.5 -94t86.5 -198q-2 -126 -91 -226t-237 -142l-97 193q65 29 104 63t39 88q0 40 -37.5 62.5t-116.5 36.5 q-249 36 -371 168t-122 354v30q0 237 131.5 392t368.5 155z" />
<glyph unicode="&#x3c3;" horiz-adv-x="1172" d="M1149 856h-258q80 -66 130 -156.5t50 -189.5v-21q0 -221 -132 -365.5t-362 -144.5q-241 0 -376.5 153.5t-135.5 397.5v21q0 234 135.5 382.5t374.5 148.5h574v-226zM357 530q0 -148 52 -237.5t168 -89.5q105 0 154 90t49 237v21q0 135 -49.5 220t-155.5 85 q-113 0 -165.5 -85.5t-52.5 -219.5v-21z" />
<glyph unicode="&#x3c4;" horiz-adv-x="1076" d="M1031 859h-347v-859h-292v859h-341v223h980v-223z" />
<glyph unicode="&#x3c5;" d="M404 1082v-612q0 -142 50.5 -204.5t134.5 -62.5q105 0 153 105.5t48 257.5q-3 126 -29 255t-72 261h278q50 -105 82 -234.5t32 -281.5q0 -268 -113.5 -427.5t-368.5 -159.5q-229 0 -357.5 122t-128.5 371v610h291z" />
<glyph unicode="&#x3c6;" horiz-adv-x="1529" d="M901 1082q266 0 414 -164.5t148 -380.5q0 -219 -135 -370.5t-427 -180.5v-464h-291v466q-291 35 -424 200.5t-133 403.5q0 144 35.5 267t93.5 223h271q-50 -131 -78.5 -252t-29.5 -238q0 -145 60.5 -241.5t198.5 -123.5l6 2v853h291zM1171 537q-2 138 -71 227.5 t-193 84.5l-6 -2v-624l6 -2q139 22 201.5 106t62.5 210z" />
<glyph unicode="&#x3c7;" horiz-adv-x="1102" d="M166 1098q158 0 238 -79.5t124 -193.5l62 -145l6 -1l196 403h296l-358 -729l184 -426q20 -52 49 -86t69 -42q11 -2 24 -2h28l-19 -220q-30 -7 -64 -9t-68 1q-111 10 -178.5 100t-117.5 224l-59 136l-6 1l-219 -446h-289l374 770l-170 394q-23 58 -69 91.5t-104 33.5 q-13 0 -34 -2t-32 -4l-6 209q39 10 72 16t71 6z" />
<glyph unicode="&#x3c8;" horiz-adv-x="1526" d="M899 1082v-854l6 -2q137 27 200.5 124.5t63.5 241.5q-3 118 -31.5 239t-77.5 251h271q57 -99 93 -222t36 -268q0 -241 -134 -407t-427 -198v-465h-292v467q-257 31 -398 179.5t-141 421.5v492h292v-495q0 -161 64.5 -248.5t176.5 -109.5l6 1v852h292z" />
<glyph unicode="&#x3c9;" horiz-adv-x="1760" d="M512 1082q-64 -130 -100.5 -259.5t-40.5 -256.5q0 -158 41 -260.5t135 -102.5q80 0 129.5 68.5t49.5 218.5v346h308v-346q0 -150 48.5 -218.5t129.5 -68.5q93 0 134.5 102t41.5 261q-4 128 -40.5 257t-100.5 259h278q69 -103 111.5 -233t42.5 -283q0 -268 -107 -427.5 t-349 -159.5q-118 0 -205.5 55t-137.5 161q-51 -106 -139 -161t-204 -55q-243 0 -350 159.5t-107 427.5q0 153 42 282.5t112 233.5h278z" />
<glyph unicode="&#x3ca;" horiz-adv-x="681" d="M429 1081v-760q0 -64 22 -89.5t69 -25.5q29 0 46 3.5t52 14.5l30 -210q-47 -20 -89.5 -27.5t-97.5 -7.5q-157 0 -240.5 85.5t-83.5 260.5v756h292zM681 1257h-266v204h266v-204zM181 1257h-266v204h266v-204z" />
<glyph unicode="&#x3cb;" d="M404 1082v-612q0 -142 50.5 -204.5t134.5 -62.5q105 0 153 105.5t48 257.5q-3 126 -29 255t-72 261h278q50 -105 82 -234.5t32 -281.5q0 -268 -113.5 -427.5t-368.5 -159.5q-229 0 -357.5 122t-128.5 371v610h291zM980 1258h-266v204h266v-204zM480 1258h-266v204h266 v-204z" />
<glyph unicode="&#x3cc;" d="M67 551q0 242 135 396.5t374 154.5q240 0 376 -154t136 -397v-21q0 -244 -135.5 -397.5t-374.5 -153.5q-240 0 -375.5 153.5t-135.5 397.5v21zM358 530q0 -148 52 -237.5t168 -89.5q113 0 165.5 90t52.5 237v21q0 144 -53 235t-167 91q-113 0 -165.5 -91.5t-52.5 -234.5 v-21zM528 1506h278l-197 -283h-142z" />
<glyph unicode="&#x3cd;" d="M404 1082v-612q0 -142 50.5 -204.5t134.5 -62.5q105 0 153 105.5t48 257.5q-3 126 -29 255t-72 261h278q50 -105 82 -234.5t32 -281.5q0 -268 -113.5 -427.5t-368.5 -159.5q-229 0 -357.5 122t-128.5 371v610h291zM548 1485h278l-197 -283h-142z" />
<glyph unicode="&#x3ce;" horiz-adv-x="1760" d="M512 1082q-64 -130 -100.5 -259.5t-40.5 -256.5q0 -158 41 -260.5t135 -102.5q80 0 129.5 68.5t49.5 218.5v346h308v-346q0 -150 48.5 -218.5t129.5 -68.5q93 0 134.5 102t41.5 261q-4 128 -40.5 257t-100.5 259h278q69 -103 111.5 -233t42.5 -283q0 -268 -107 -427.5 t-349 -159.5q-118 0 -205.5 55t-137.5 161q-51 -106 -139 -161t-204 -55q-243 0 -350 159.5t-107 427.5q0 153 42 282.5t112 233.5h278zM830 1485h278l-197 -283h-142z" />
<glyph unicode="&#x3d1;" horiz-adv-x="1396" d="M546 968v103q0 185 107.5 295.5t279.5 110.5q171 0 271 -108.5t100 -297.5v-515q0 -261 -161 -419t-424 -158q-266 0 -431.5 164t-165.5 413v696l308 2v-698q0 -152 77.5 -247.5t211.5 -95.5q127 0 200.5 88t77.5 244q-194 14 -322.5 132t-128.5 291v0zM997 1098 q0 65 -20.5 98t-59.5 33q-43 0 -68.5 -33.5t-25.5 -97.5v-132q0 -83 45 -140t123 -65l6 2v335z" />
<glyph unicode="&#x3d2;" horiz-adv-x="1202" d="M770 1203q61 153 136.5 215t205.5 62q32 0 57 -4t46 -15l-24 -222q-4 1 -22 3t-29 2q-37 0 -65 -26t-46 -69l-286 -672v-477h-291v489l-280 660q-20 43 -48 69t-64 26q-12 0 -29.5 -2t-20.5 -3l-23 222q19 11 44 15t58 4q131 0 206 -59t135 -211l149 -385l18 -90h6l19 90 z" />
<glyph unicode="&#x3d6;" horiz-adv-x="1696" d="M1688 900h-133q27 -75 42.5 -159t15.5 -175q0 -268 -100 -427.5t-326 -159.5q-116 0 -202.5 55t-135.5 161q-51 -106 -137.5 -161t-200.5 -55q-227 0 -326.5 159.5t-99.5 427.5q0 91 15 175t43 159h-124v182h1669v-182zM1322 566q-3 82 -19 165.5t-43 168.5h-822 q-28 -85 -44 -168.5t-18 -165.5q0 -159 33.5 -261t111.5 -102q79 0 127 68.5t48 218.5v205h307v-205q0 -150 47.5 -218.5t125.5 -68.5q77 0 111.5 102t34.5 261z" />
<glyph unicode="&#x400;" horiz-adv-x="1139" d="M966 640h-540v-416h642v-224h-934v1456h932v-225h-640v-366h540v-225zM741 1600h-251l-272 260l2 6h325z" />
<glyph unicode="&#x401;" horiz-adv-x="1139" d="M966 640h-540v-416h642v-224h-934v1456h932v-225h-640v-366h540v-225zM984 1601h-266v204h266v-204zM484 1601h-266v204h266v-204z" />
<glyph unicode="&#x402;" horiz-adv-x="1560" d="M1169 1231h-416v-314h175q266 0 426 -125.5t160 -361.5q2 -134 -94 -269.5t-277 -192.5l-123 188q99 44 150.5 110.5t52.5 163.5q0 126 -78 192t-217 66h-175v-688h-292v1231h-410v225h1118v-225z" />
<glyph unicode="&#x403;" horiz-adv-x="1137" d="M1081 1231h-657v-1231h-292v1456h949v-225zM665 1866h325l2 -6l-277 -260h-249z" />
<glyph unicode="&#x404;" horiz-adv-x="1290" d="M1243 483l2 -6q4 -233 -142 -365t-403 -132q-262 0 -423 168.5t-161 435.5v289q0 266 157 435.5t412 169.5q266 0 416 -130t146 -366l-2 -6h-284q0 140 -67.5 208.5t-208.5 68.5q-131 0 -204.5 -105.5t-73.5 -272.5v-31h431v-226h-431v-34q0 -168 77.5 -274t215.5 -106 q131 0 195.5 68.5t64.5 210.5h283z" />
<glyph unicode="&#x405;" horiz-adv-x="1266" d="M893 380q0 84 -58.5 135t-205.5 96q-252 76 -382.5 179t-130.5 281q0 179 147 292.5t375 113.5q242 0 389.5 -122t142.5 -320l-2 -6h-283q0 109 -66 167.5t-185 58.5q-108 0 -167 -52t-59 -133q0 -74 64 -121.5t221 -100.5q240 -68 366 -177.5t126 -288.5 q0 -187 -146 -295t-386 -108q-235 0 -403.5 117t-163.5 349l2 6h283q0 -129 76 -190t206 -61q117 0 178.5 49t61.5 131z" />
<glyph unicode="&#x406;" horiz-adv-x="601" d="M446 0h-292v1456h292v-1456z" />
<glyph unicode="&#x407;" horiz-adv-x="601" d="M446 0h-292v1456h292v-1456zM684 1601h-266v204h266v-204zM184 1601h-266v204h266v-204z" />
<glyph unicode="&#x408;" horiz-adv-x="1137" d="M714 1456h291v-1005q0 -216 -132.5 -344t-340.5 -128q-231 0 -366 114t-130 331l2 6h284q0 -116 57 -171.5t153 -55.5q80 0 131 66.5t51 181.5v1005z" />
<glyph unicode="&#x409;" horiz-adv-x="2169" d="M1311 1456v-509h250q250 0 398 -132.5t148 -340.5q0 -210 -148 -342t-398 -132h-542v1231h-386v-438q0 -421 -135.5 -607t-412.5 -186h-43v224h40q150 0 204.5 123.5t54.5 445.5v663h970zM1311 722v-498h250q122 0 188.5 73t66.5 179q0 102 -66.5 174t-188.5 72h-250z " />
<glyph unicode="&#x40a;" horiz-adv-x="2168" d="M425 841h593v615h292v-527h250q251 0 399 -129t148 -334q0 -206 -148.5 -336t-398.5 -130h-542v616h-593v-616h-292v1456h292v-615zM1310 704v-476h250q123 0 189 69t66 171q0 99 -66 167.5t-189 68.5h-250z" />
<glyph unicode="&#x40b;" horiz-adv-x="1634" d="M1185 1231h-416v-253h195q264 0 405 -117.5t141 -361.5v-499h-292v499q0 143 -58 198.5t-196 55.5h-195v-753h-292v1231h-410v225h1118v-225z" />
<glyph unicode="&#x40c;" horiz-adv-x="1305" d="M533 608h-107v-608h-292v1456h292v-595h82l399 595h361l-504 -677l543 -779h-372zM657 1778h325l2 -6l-277 -260h-249z" />
<glyph unicode="&#x40d;" horiz-adv-x="1431" d="M1009 1456h292v-1456h-292v973l-6 1l-588 -974h-291v1456h291v-972l6 -1zM853 1600h-251l-272 260l2 6h325z" />
<glyph unicode="&#x40e;" horiz-adv-x="1310" d="M637 809l26 -88l6 -1l306 736h309l-531 -1180q-63 -141 -152 -219t-249 -78q-60 0 -107 10.5t-108 30.5l34 209q45 -13 79.5 -19.5t69.5 -6.5q82 0 126 35.5t69 105.5l22 55l-513 1057h315zM993 1896l2 -6q5 -127 -88.5 -207.5t-251.5 -80.5q-159 0 -253 80.5t-88 207.5 l2 6h213q0 -53 30.5 -87t95.5 -34q63 0 93.5 34t30.5 87h214z" />
<glyph unicode="&#x40f;" horiz-adv-x="1431" d="M120 1456h291v-1232h594v1232h292v-1456h-430v-360h-292v360h-455v1456z" />
<glyph unicode="&#x410;" horiz-adv-x="1303" d="M893 314h-472l-98 -314h-305l491 1456h299l489 -1456h-305zM493 543h329l-161 513h-6z" />
<glyph unicode="&#x411;" horiz-adv-x="1283" d="M1081 1231h-657v-287h250q251 0 399 -131t148 -339q0 -210 -148.5 -342t-398.5 -132h-542v1456h949v-225zM424 719v-495h250q123 0 189.5 73t66.5 179q0 102 -66.5 172.5t-189.5 70.5h-250z" />
<glyph unicode="&#x412;" horiz-adv-x="1305" d="M134 0v1456h477q257 0 401 -100.5t144 -298.5q0 -100 -52 -179t-152 -119q136 -25 205 -118t69 -217q0 -209 -138 -316.5t-391 -107.5h-563zM426 644v-420h271q116 0 177 50.5t61 149.5q0 106 -60 163t-181 57h-268zM426 846h195q117 0 180 48t63 140q0 101 -63.5 149 t-189.5 48h-185v-385z" />
<glyph unicode="&#x413;" horiz-adv-x="1137" d="M1081 1231h-657v-1231h-292v1456h949v-225z" />
<glyph unicode="&#x414;" horiz-adv-x="1465" d="M1473 -358h-292v358h-876v-358h-291v582h85q114 0 164 152t65 484l33 596h939v-1232h173v-582zM620 860q-10 -211 -46 -370t-98 -266h533v1007h-369z" />
<glyph unicode="&#x415;" horiz-adv-x="1139" d="M966 640h-540v-416h642v-224h-934v1456h932v-225h-640v-366h540v-225z" />
<glyph unicode="&#x416;" horiz-adv-x="1870" d="M1178 608h-92v-608h-291v608h-97l-328 -608h-364l459 785l-435 671h361l330 -595h74v595h291v-595h70l323 595h360l-429 -670l453 -786h-363z" />
<glyph unicode="&#x417;" horiz-adv-x="1345" d="M667 852q137 0 203 54t66 151q0 84 -73 139.5t-212 55.5q-109 0 -181 -52.5t-72 -134.5h-283l-1 6q-6 181 151 293.5t386 112.5q266 0 421 -108t155 -308q0 -100 -65 -183t-179 -130q129 -43 198 -129t69 -211q0 -201 -166 -315t-433 -114q-230 0 -397 107t-161 312l1 6 h284q0 -85 76.5 -143t196.5 -58q142 0 224.5 58.5t82.5 149.5q0 115 -73.5 168.5t-217.5 53.5h-197v219h197z" />
<glyph unicode="&#x418;" horiz-adv-x="1431" d="M1009 1456h292v-1456h-292v973l-6 1l-588 -974h-291v1456h291v-972l6 -1z" />
<glyph unicode="&#x419;" horiz-adv-x="1431" d="M1009 1456h292v-1456h-292v973l-6 1l-588 -974h-291v1456h291v-972l6 -1zM1052 1896l2 -6q5 -127 -88.5 -207.5t-251.5 -80.5q-159 0 -253 80.5t-88 207.5l2 6h213q0 -53 30.5 -87t95.5 -34q63 0 93.5 34t30.5 87h214z" />
<glyph unicode="&#x41a;" horiz-adv-x="1305" d="M533 608h-107v-608h-292v1456h292v-595h82l399 595h361l-504 -677l543 -779h-372z" />
<glyph unicode="&#x41b;" horiz-adv-x="1444" d="M1311 1456v-1456h-292v1231h-414v-438q0 -422 -127.5 -607.5t-392.5 -185.5h-43v224h40q137 0 184 122t47 447v663h998z" />
<glyph unicode="&#x41c;" horiz-adv-x="1782" d="M887 383h6l374 1073h381v-1456h-292v994l-6 1l-360 -995h-198l-360 997l-6 -1v-996h-292v1456h383z" />
<glyph unicode="&#x41d;" horiz-adv-x="1445" d="M1311 0h-292v605h-593v-605h-292v1456h292v-626h593v626h292v-1456z" />
<glyph unicode="&#x41e;" horiz-adv-x="1409" d="M1312 597q0 -269 -169 -443.5t-440 -174.5q-270 0 -438 175t-168 443v262q0 267 167.5 442.5t436.5 175.5q271 0 441 -175.5t170 -442.5v-262zM1021 861q0 170 -85 279t-235 109q-148 0 -230.5 -109t-82.5 -279v-264q0 -173 83 -282t232 -109q150 0 234 109t84 282v264z " />
<glyph unicode="&#x41f;" horiz-adv-x="1444" d="M1311 0h-292v1231h-594v-1231h-292v1456h1178v-1456z" />
<glyph unicode="&#x420;" horiz-adv-x="1305" d="M426 528v-528h-292v1456h557q251 0 395 -128t144 -337t-144 -336t-395 -127h-265zM426 753h265q122 0 185 66.5t63 169.5q0 105 -62.5 173.5t-185.5 68.5h-265v-478z" />
<glyph unicode="&#x421;" horiz-adv-x="1303" d="M1226 482l2 -6q4 -233 -142 -365t-403 -132q-262 0 -423 168.5t-161 435.5v289q0 266 157 435.5t412 169.5q266 0 416 -130t146 -366l-2 -6h-284q0 140 -67.5 208.5t-208.5 68.5q-131 0 -204.5 -105.5t-73.5 -272.5v-291q0 -168 77.5 -274t215.5 -106q131 0 195.5 68.5 t64.5 210.5h283z" />
<glyph unicode="&#x422;" horiz-adv-x="1175" d="M1149 1231h-416v-1231h-292v1231h-410v225h1118v-225z" />
<glyph unicode="&#x423;" horiz-adv-x="1310" d="M637 809l26 -88l6 -1l306 736h309l-531 -1180q-63 -141 -152 -219t-249 -78q-60 0 -107 10.5t-108 30.5l34 209q45 -13 79.5 -19.5t69.5 -6.5q82 0 126 35.5t69 105.5l22 55l-513 1057h315z" />
<glyph unicode="&#x424;" horiz-adv-x="1507" d="M909 1255q248 -16 401.5 -161t153.5 -374q0 -225 -154 -367.5t-401 -157.5v-195h-292v195q-250 13 -404 155t-154 368q0 231 154 377t404 160v201h292v-201zM345 718q0 -125 71.5 -198t194.5 -79l6 2v564l-6 2q-123 -8 -194.5 -84t-71.5 -207zM1177 720 q0 129 -70.5 204.5t-191.5 84.5l-6 -2v-564l6 -2q121 8 191.5 81t70.5 198z" />
<glyph unicode="&#x425;" horiz-adv-x="1303" d="M649 940l273 516h340l-432 -722l457 -734h-353l-281 525l-281 -525h-341l443 734l-432 722h338z" />
<glyph unicode="&#x426;" horiz-adv-x="1558" d="M121 1456h292v-1231h594v1231h292v-1231h195v-584h-292v359h-1081v1456z" />
<glyph unicode="&#x427;" horiz-adv-x="1420" d="M1288 1456v-1456h-293v561q-66 -16 -148 -24.5t-147 -8.5q-268 0 -414.5 116t-146.5 359v453h292v-453q0 -142 63.5 -196t205.5 -54q62 0 145.5 8.5t149.5 24.5v670h293z" />
<glyph unicode="&#x428;" horiz-adv-x="2119" d="M421 1456v-1232h497v1232h291v-1232h493v1232h292v-1456h-1865v1456h292z" />
<glyph unicode="&#x429;" horiz-adv-x="2275" d="M421 1456v-1232h497v1232h291v-1232h493v1232h292v-1248h226v-557h-292v349h-1799v1456h292z" />
<glyph unicode="&#x42a;" horiz-adv-x="1474" d="M6 1456h581v-512h250q251 0 399 -131t148 -339q0 -210 -148.5 -342t-398.5 -132h-542v1231h-289v225zM587 719v-495h250q123 0 189.5 73t66.5 179q0 102 -66.5 172.5t-189.5 70.5h-250z" />
<glyph unicode="&#x42b;" horiz-adv-x="1777" d="M424 944h250q251 0 399 -131t148 -339q0 -210 -148.5 -342t-398.5 -132h-542v1456h292v-512zM1644 0h-292v1456h292v-1456zM424 719v-495h250q123 0 189.5 73t66.5 179q0 102 -66.5 172.5t-189.5 70.5h-250z" />
<glyph unicode="&#x42c;" horiz-adv-x="1283" d="M424 944h250q251 0 399 -131t148 -339q0 -210 -148.5 -342t-398.5 -132h-542v1456h292v-512zM424 719v-495h250q123 0 189.5 73t66.5 179q0 102 -66.5 172.5t-189.5 70.5h-250z" />
<glyph unicode="&#x42d;" horiz-adv-x="1288" d="M94 974l-2 6q-5 232 137.5 365t399.5 133q253 0 407.5 -169t154.5 -436v-289q0 -268 -154.5 -436t-407.5 -168q-259 0 -401 128.5t-137 366.5l2 6h283q0 -142 60.5 -209.5t192.5 -67.5q129 0 199 104.5t70 273.5v43h-447v225h447v23q0 168 -70 274t-199 106 q-131 0 -191 -68.5t-60 -210.5h-284z" />
<glyph unicode="&#x42e;" horiz-adv-x="1935" d="M1792 597q0 -269 -169 -443.5t-440 -174.5q-270 0 -438 175t-168 443v7h-131v-604h-292v1456h292v-627h131v30q0 267 167.5 442.5t436.5 175.5q271 0 441 -175.5t170 -442.5v-262zM1501 861q0 170 -85 279t-235 109q-148 0 -230.5 -109t-82.5 -279v-264q0 -173 83 -282 t232 -109q150 0 234 109t84 282v264z" />
<glyph unicode="&#x42f;" horiz-adv-x="1203" d="M284 0h-316l315 650q-114 59 -172 152.5t-58 220.5q0 206 142.5 319.5t392.5 113.5h505v-1456h-292v561h-247zM801 1231h-213q-120 0 -182 -58t-62 -163t63 -170.5t181 -65.5h213v457z" />
<glyph unicode="&#x430;" horiz-adv-x="1100" d="M750 0q-16 37 -27.5 78t-16.5 84q-45 -79 -119 -131t-176 -52q-170 0 -262 87.5t-92 238.5q0 159 122.5 246.5t357.5 87.5h164v86q0 78 -41 121t-122 43q-71 0 -109.5 -34.5t-38.5 -94.5h-281l-2 6q-7 137 119.5 236.5t330.5 99.5q195 0 315.5 -98t120.5 -281v-447 q0 -76 11.5 -143t36.5 -133h-291zM483 195q76 0 136 38t82 88v153h-164q-93 0 -140.5 -46t-47.5 -113q0 -55 35.5 -87.5t98.5 -32.5z" />
<glyph unicode="&#x431;" horiz-adv-x="1148" d="M600 1102q228 0 357 -154t129 -397v-21q0 -244 -135.5 -397.5t-373.5 -153.5q-241 0 -376.5 153.5t-135.5 397.5v21v10.5t1 9.5v231q0 334 121.5 481.5t381.5 154.5q132 3 194.5 29.5t62.5 89.5h226l1 -6q5 -192 -107.5 -266.5t-351.5 -78.5q-148 -3 -224.5 -64 t-69.5 -164l3 -5q51 56 129.5 92.5t167.5 36.5zM575 877q-114 0 -166 -91t-52 -235v-21q0 -148 52 -237.5t168 -89.5q113 0 165.5 90t52.5 237v21q0 144 -53 235t-167 91z" />
<glyph unicode="&#x432;" d="M127 0v1082h452q216 0 336.5 -76t120.5 -226q0 -76 -50.5 -135t-143.5 -90q123 -24 186.5 -90.5t63.5 -155.5q0 -153 -114.5 -231t-328.5 -78h-522zM419 451v-229h230q77 0 114 28.5t37 84.5t-35.5 86t-115.5 30h-230zM419 641h168q81 0 119.5 26t38.5 78q0 59 -41 86.5 t-125 27.5h-160v-218z" />
<glyph unicode="&#x433;" horiz-adv-x="855" d="M846 856h-447v-856h-292v1082h739v-226z" />
<glyph unicode="&#x434;" horiz-adv-x="1365" d="M142 224v1h31q79 0 111.5 95t43.5 319l22 443h801v-858h149v-582h-292v358h-643v-358h-292v582h69zM619 639q-7 -133 -25.5 -236.5t-51.5 -178.5h318v625h-230z" />
<glyph unicode="&#x435;" horiz-adv-x="1071" d="M581 -21q-242 0 -378 148.5t-136 382.5v40q0 243 132 398t363 154q218 0 334.5 -133.5t116.5 -359.5v-151h-645l-3 -6q7 -111 67.5 -180t179.5 -69q98 0 166.5 20t141.5 61l79 -180q-65 -53 -176 -89t-242 -36zM562 877q-88 0 -135.5 -60.5t-57.5 -160.5l2 -5h356v22 q0 95 -39 149.5t-126 54.5z" />
<glyph unicode="&#x436;" horiz-adv-x="1661" d="M1055 408h-81v-408h-290v408h-79l-214 -408h-374l354 586l-336 496h368l223 -408h58v408h290v-408h61l222 408h369l-337 -497l353 -585h-373z" />
<glyph unicode="&#x437;" horiz-adv-x="1140" d="M568 646q85 0 129.5 31.5t44.5 87.5q0 51 -43 87.5t-130 36.5q-80 0 -129 -32t-49 -86h-281l-2 6q-6 145 123 234.5t323 89.5q219 0 349 -82.5t130 -232.5q0 -72 -48.5 -132.5t-133.5 -96.5q98 -33 150 -97t52 -154q0 -151 -140 -238.5t-359 -87.5q-193 0 -331 86 t-132 248l2 6h281q0 -55 51 -92.5t145 -37.5q91 0 141.5 39.5t50.5 95.5q0 69 -50 102t-144 33h-176v186h176z" />
<glyph unicode="&#x438;" d="M758 1082h291v-1082h-291v660l-6 1l-353 -661h-292v1082h292v-658l6 -1z" />
<glyph unicode="&#x439;" d="M758 1082h291v-1082h-291v660l-6 1l-353 -661h-292v1082h292v-658l6 -1zM917 1553l2 -6q5 -127 -88.5 -207.5t-251.5 -80.5q-159 0 -253 80.5t-88 207.5l2 6h213q0 -53 30.5 -87t95.5 -34q63 0 93.5 34t30.5 87h214z" />
<glyph unicode="&#x43a;" horiz-adv-x="1167" d="M533 405h-112v-405h-292v1082h292v-412h87l248 412h369l-358 -502l390 -580h-389z" />
<glyph unicode="&#x43b;" horiz-adv-x="1149" d="M1049 1082v-1082h-291v856h-260v-235q0 -320 -98 -470.5t-335 -150.5h-47l-3 230l31 1q100 0 130 82t30 308v461h843z" />
<glyph unicode="&#x43c;" horiz-adv-x="1557" d="M766 340h6l279 742h365v-1082h-291v646l-6 1l-251 -647h-196l-245 633l-6 -1v-632h-292v1082h362z" />
<glyph unicode="&#x43d;" d="M1047 0h-292v420h-356v-420h-292v1082h292v-438h356v438h292v-1082z" />
<glyph unicode="&#x43e;" d="M67 551q0 242 135 396.5t374 154.5q240 0 376 -154t136 -397v-21q0 -244 -135.5 -397.5t-374.5 -153.5q-240 0 -375.5 153.5t-135.5 397.5v21zM358 530q0 -148 52 -237.5t168 -89.5q113 0 165.5 90t52.5 237v21q0 144 -53 235t-167 91q-113 0 -165.5 -91.5t-52.5 -234.5 v-21z" />
<glyph unicode="&#x43f;" d="M1049 0h-292v856h-358v-856h-292v1082h942v-1082z" />
<glyph unicode="&#x440;" d="M1088 511q0 -240 -111 -386t-310 -146q-85 0 -151 31.5t-113 92.5v-519h-291v1498h263l17 -128q48 71 115.5 109.5t157.5 38.5q201 0 312 -157t111 -413v-21zM796 532q0 153 -51 248t-156 95q-66 0 -112.5 -27t-73.5 -77v-474q27 -46 73.5 -70t114.5 -24q106 0 155.5 83 t49.5 225v21z" />
<glyph unicode="&#x441;" horiz-adv-x="1056" d="M564 203q76 0 121 45.5t45 121.5h266l2 -6q4 -164 -122 -274.5t-312 -110.5q-240 0 -371 153.5t-131 392.5v30q0 238 130.5 392.5t369.5 154.5q198 0 319 -114t117 -300l-2 -6h-266q0 84 -44.5 139.5t-123.5 55.5q-113 0 -160.5 -90.5t-47.5 -231.5v-30q0 -144 47.5 -233 t162.5 -89z" />
<glyph unicode="&#x442;" horiz-adv-x="1070" d="M1028 859h-346v-859h-293v859h-341v223h980v-223z" />
<glyph unicode="&#x443;" horiz-adv-x="1046" d="M502 454l12 -60h6l207 688h314l-439 -1244q-46 -116 -125 -195.5t-237 -79.5q-37 0 -68.5 6t-76.5 17l34 213q13 -2 28 -4t27 -2q72 0 111 35.5t60 88.5l34 84l-384 1081h314z" />
<glyph unicode="&#x444;" horiz-adv-x="1790" d="M62 532q0 256 111 413t312 157q81 0 145 -32t112 -91v581h292v-585q47 61 112 94t149 33q201 0 312.5 -157t111.5 -413v-21q0 -240 -111 -386t-311 -146q-85 0 -150 30.5t-113 88.5v-514h-292v512q-49 -58 -113.5 -87.5t-145.5 -29.5q-199 0 -310 146t-111 386v21z M1426 532q0 153 -50.5 249t-156.5 96q-66 0 -112 -27t-73 -77v-476q27 -46 73 -70t114 -24q107 0 156 83t49 225v21zM354 511q0 -143 47.5 -225.5t155.5 -82.5q64 0 110 23.5t75 69.5v481q-29 48 -74.5 74t-108.5 26q-107 0 -156 -95.5t-49 -249.5v-21z" />
<glyph unicode="&#x445;" horiz-adv-x="1046" d="M519 738h6l166 344h330l-326 -535l337 -547h-329l-177 359l-177 -359h-330l337 547l-327 535h328z" />
<glyph unicode="&#x446;" horiz-adv-x="1247" d="M107 1082h292v-858h358v858h292v-858h156v-582h-291v358h-807v1082z" />
<glyph unicode="&#x447;" horiz-adv-x="1147" d="M1041 0h-292v343q-37 -8 -75.5 -11.5t-72.5 -3.5q-239 0 -368.5 102t-129.5 312v340h292v-340q0 -107 47 -148t159 -41q37 0 73.5 4t74.5 12v513h292v-1082z" />
<glyph unicode="&#x448;" horiz-adv-x="1691" d="M399 1082v-858h294v858h293v-858h294v858h292v-1082h-1465v1082h292z" />
<glyph unicode="&#x449;" horiz-adv-x="1855" d="M399 1082v-858h294v858h293v-858h294v858h292v-853h223v-589h-292v360h-1396v1082h292z" />
<glyph unicode="&#x44a;" horiz-adv-x="1302" d="M620 732h203q218 0 343 -100.5t125 -263.5q0 -165 -125 -266.5t-343 -101.5h-496v856h-313v226h606v-350zM620 508v-285h203q89 0 133 40t44 103q0 61 -44 101.5t-133 40.5h-203z" />
<glyph unicode="&#x44b;" horiz-adv-x="1703" d="M442 732h203q218 0 343 -100.5t125 -263.5q0 -165 -125 -266.5t-343 -101.5h-496v1082h293v-350zM1507 0h-292v1082h292v-1082zM442 508v-285h203q89 0 133 40t44 103q0 61 -44 101.5t-133 40.5h-203z" />
<glyph unicode="&#x44c;" horiz-adv-x="1143" d="M422 732h203q218 0 343 -100.5t125 -263.5q0 -165 -125 -266.5t-343 -101.5h-496v1082h293v-350zM422 508v-285h203q89 0 133 40t44 103q0 61 -44 101.5t-133 40.5h-203z" />
<glyph unicode="&#x44d;" horiz-adv-x="1064" d="M505 877q-77 0 -123 -46t-46 -120h-266l-2 6q-5 163 122 274t315 111q237 0 369 -154.5t132 -392.5v-30q0 -238 -132 -392t-368 -154q-199 0 -321 113.5t-117 300.5l2 6h266q0 -85 45 -140.5t125 -55.5q96 0 144.5 69.5t56.5 180.5l-3 5h-281v175h280l2 5 q-8 106 -56.5 172.5t-143.5 66.5z" />
<glyph unicode="&#x44e;" horiz-adv-x="1662" d="M425 663h156q30 198 161 318.5t340 120.5q240 0 376 -154t136 -397v-21q0 -244 -135.5 -397.5t-374.5 -153.5q-216 0 -348.5 125.5t-157.5 333.5h-153v-438h-292v1082h292v-419zM864 530q0 -148 52 -237.5t168 -89.5q113 0 165.5 90t52.5 237v21q0 144 -53 235t-167 91 q-113 0 -165.5 -91.5t-52.5 -234.5v-21z" />
<glyph unicode="&#x44f;" d="M1024 1082v-1082h-290v379h-176l-212 -379h-295l239 427q-99 44 -152.5 121t-53.5 175q0 158 125.5 258.5t338.5 100.5h476zM376 715q0 -56 43.5 -97.5t123.5 -41.5h191v283h-186q-82 0 -127 -44t-45 -100z" />
<glyph unicode="&#x450;" horiz-adv-x="1071" d="M581 -21q-242 0 -378 148.5t-136 382.5v40q0 243 132 398t363 154q218 0 334.5 -133.5t116.5 -359.5v-151h-645l-3 -6q7 -111 67.5 -180t179.5 -69q98 0 166.5 20t141.5 61l79 -180q-65 -53 -176 -89t-242 -36zM562 877q-88 0 -135.5 -60.5t-57.5 -160.5l2 -5h356v22 q0 95 -39 149.5t-126 54.5zM679 1279h-251l-272 260l2 6h325z" />
<glyph unicode="&#x451;" horiz-adv-x="1071" d="M581 -21q-242 0 -378 148.5t-136 382.5v40q0 243 132 398t363 154q218 0 334.5 -133.5t116.5 -359.5v-151h-645l-3 -6q7 -111 67.5 -180t179.5 -69q98 0 166.5 20t141.5 61l79 -180q-65 -53 -176 -89t-242 -36zM562 877q-88 0 -135.5 -60.5t-57.5 -160.5l2 -5h356v22 q0 95 -39 149.5t-126 54.5zM922 1280h-266v204h266v-204zM422 1280h-266v204h266v-204z" />
<glyph unicode="&#x452;" d="M554 1206h-157v-261q51 74 125 115.5t164 41.5q169 0 265.5 -112.5t96.5 -347.5v-172h1v-511q0 -190 -101 -293t-281 -103q-40 0 -74 4t-70 13l14 220q22 -6 47 -9t52 -3q57 0 88.5 44.5t31.5 126.5v685q0 126 -40.5 178.5t-121.5 52.5q-67 0 -116.5 -21.5t-80.5 -61.5 v-792h-292v1206h-140v180h140v174h292v-174h157v-180z" />
<glyph unicode="&#x453;" horiz-adv-x="855" d="M846 856h-447v-856h-292v1082h739v-226zM480 1523h325l2 -6l-277 -260h-249z" />
<glyph unicode="&#x454;" horiz-adv-x="1064" d="M564 203q76 0 121 45.5t45 121.5h266l2 -6q4 -164 -122 -274.5t-312 -110.5q-240 0 -371 153.5t-131 392.5v30q0 238 130.5 392.5t369.5 154.5q198 0 319 -114t117 -300l-2 -6h-266q0 84 -44.5 139.5t-123.5 55.5q-100 0 -148.5 -71.5t-57.5 -188.5h304v-175h-295l-2 -5 q7 -106 55 -170t146 -64z" />
<glyph unicode="&#x455;" horiz-adv-x="1056" d="M697 300q0 48 -46.5 82.5t-172.5 60.5q-190 38 -288.5 115t-98.5 209q0 139 118 237t314 98q205 0 328.5 -98t118.5 -244l-2 -6h-282q0 65 -42 106t-121 41q-70 0 -111 -35t-41 -86q0 -50 42.5 -81.5t172.5 -56.5q199 -40 296.5 -117.5t97.5 -213.5q0 -146 -125 -239 t-330 -93q-216 0 -341.5 109.5t-119.5 249.5l2 6h267q3 -87 57 -126t141 -39q81 0 123.5 32.5t42.5 88.5z" />
<glyph unicode="&#x456;" horiz-adv-x="547" d="M419 0h-292v1082h292v-1082zM419 1341h-292v219h292v-219z" />
<glyph unicode="&#x457;" horiz-adv-x="562" d="M425 0h-292v1082h292v-1082zM664 1258h-266v204h266v-204zM164 1258h-266v204h266v-204z" />
<glyph unicode="&#x458;" horiz-adv-x="543" d="M427 1082v-1122q0 -190 -101 -293.5t-281 -103.5q-40 0 -73 4t-70 13l14 223q23 -6 46 -9t49 -3q59 0 91 41.5t32 127.5v1122h293zM421 1343h-293v217h293v-217z" />
<glyph unicode="&#x459;" horiz-adv-x="1771" d="M1050 1082v-349h203q218 0 343.5 -101t125.5 -264q0 -165 -125.5 -266.5t-343.5 -101.5h-495v856h-232v-235q0 -316 -106 -468.5t-345 -152.5h-47l-3 227h31q90 0 134 96t44 298v461h816zM1050 508v-286h203q90 0 134 42t44 106q0 60 -44 99t-134 39h-203z" />
<glyph unicode="&#x45a;" horiz-adv-x="1768" d="M399 665h356v417h292v-350h203q218 0 343 -100.5t125 -263.5q0 -165 -125 -266.5t-343 -101.5h-495v441h-356v-441h-292v1082h292v-417zM1047 508v-286h203q89 0 133 42t44 106q0 60 -44 99t-133 39h-203z" />
<glyph unicode="&#x45b;" d="M700 1211h-303v-266q51 74 125 115.5t164 41.5q169 0 265.5 -112.5t96.5 -347.5v-642h-292v644q0 126 -40.5 178.5t-121.5 52.5q-67 0 -116.5 -21.5t-80.5 -61.5v-792h-292v1211h-76v181h76v168h292v-168h303v-181z" />
<glyph unicode="&#x45c;" horiz-adv-x="1167" d="M533 405h-112v-405h-292v1082h292v-412h87l248 412h369l-358 -502l390 -580h-389zM628 1522h325l2 -6l-277 -260h-249z" />
<glyph unicode="&#x45d;" d="M758 1082h291v-1082h-291v660l-6 1l-353 -661h-292v1082h292v-658l6 -1zM718 1257h-251l-272 260l2 6h325z" />
<glyph unicode="&#x45e;" horiz-adv-x="1046" d="M502 454l12 -60h6l207 688h314l-439 -1244q-46 -116 -125 -195.5t-237 -79.5q-37 0 -68.5 6t-76.5 17l34 213q13 -2 28 -4t27 -2q72 0 111 35.5t60 88.5l34 84l-384 1081h314zM862 1553l2 -6q5 -127 -88.5 -207.5t-251.5 -80.5q-159 0 -253 80.5t-88 207.5l2 6h213 q0 -53 30.5 -87t95.5 -34q63 0 93.5 34t30.5 87h214z" />
<glyph unicode="&#x45f;" d="M399 1082v-858h358v858h292v-1082h-325v-358h-291v358h-326v1082h292z" />
<glyph unicode="&#x460;" horiz-adv-x="1964" d="M1097 1435q57 20 122.5 31t136.5 11q226 0 371.5 -167t145.5 -430v-304q0 -265 -150 -431t-385 -166q-112 0 -199 22.5t-154 62.5q-67 -40 -154 -62.5t-197 -22.5q-236 0 -385.5 166t-149.5 431v304q0 263 145 430t372 167q70 0 135.5 -11t123.5 -31l-62 -213 q-39 14 -87 22t-103 8q-105 0 -169 -103.5t-64 -266.5v-306q0 -165 66.5 -269t177.5 -104q85 0 131.5 20.5t74.5 53.5v276h-188v202h668v-202h-188v-276q27 -33 73.5 -53.5t132.5 -20.5q110 0 176.5 104t66.5 269v306q0 163 -64 266.5t-168 103.5q-56 0 -104 -8t-87 -22z " />
<glyph unicode="&#x461;" horiz-adv-x="1461" d="M503 403l28 -148h6l41 148l78 300l-110 379h290l144 -679l15 -77h6l2 10q72 154 99.5 345t23.5 401h305q-24 -287 -100 -554.5t-197 -527.5h-272l-96 327l-6 1l-112 -328h-264l-368 1082h305z" />
<glyph unicode="&#x462;" horiz-adv-x="1283" d="M677 1090h-253v-146h250q251 0 399 -131t148 -339q0 -210 -148.5 -342t-398.5 -132h-542v1090h-126v181h126v185h292v-185h253v-181zM424 719v-495h250q123 0 189.5 73t66.5 179q0 102 -66.5 172.5t-189.5 70.5h-250z" />
<glyph unicode="&#x463;" horiz-adv-x="1143" d="M677 1105h-255v-373h203q218 0 343 -100.5t125 -263.5q0 -165 -125 -266.5t-343 -101.5h-496v1105h-140v181h140v276h293v-276h255v-181zM422 508v-285h203q89 0 133 40t44 103q0 61 -44 101.5t-133 40.5h-203z" />
<glyph unicode="&#x464;" horiz-adv-x="1828" d="M1226 611h-369v-27q0 -168 77.5 -274t215.5 -106q131 0 195.5 68.5t64.5 210.5h283l2 -6q4 -233 -142 -365t-403 -132q-262 0 -423 168.5t-161 435.5v27h-119v-611h-292v1456h292v-620h119v37q0 266 157 435.5t412 169.5q266 0 416 -130t146 -366l-2 -6h-284 q0 140 -67.5 208.5t-208.5 68.5q-131 0 -204.5 -105.5t-73.5 -272.5v-39h369v-225z" />
<glyph unicode="&#x465;" horiz-adv-x="1546" d="M1097 461h-308l-3 -5q5 -114 53.5 -183.5t150.5 -69.5q76 0 121 45.5t45 121.5h266l2 -6q4 -164 -122 -274.5t-312 -110.5q-224 0 -353 133.5t-146 348.5h-68v-461h-292v1082h292v-440h70q23 205 151 332.5t344 127.5q198 0 319 -114t117 -300l-2 -6h-266 q0 84 -44.5 139.5t-123.5 55.5q-95 0 -143 -64t-56 -166l2 -5h306v-181z" />
<glyph unicode="&#x466;" horiz-adv-x="1346" d="M908 390h-111v-390h-245v390h-100l-129 -390h-305l514 1456h300l511 -1456h-306zM518 591h324l-159 480h-6z" />
<glyph unicode="&#x467;" horiz-adv-x="1146" d="M733 271h-77v-271h-191v271h-69l-92 -271h-297l408 1082h300l409 -1082h-297zM459 456h211l-76 221l-27 113h-6l-27 -113z" />
<glyph unicode="&#x468;" horiz-adv-x="1919" d="M465 591h291l305 865h300l511 -1456h-306l-129 390h-111v-390h-245v390h-100l-129 -390h-305l137 389h-219v-389h-292v1456h292v-865zM1047 591h324l-159 480h-6z" />
<glyph unicode="&#x469;" horiz-adv-x="1638" d="M458 455h167l237 627h300l409 -1082h-297l-94 271h-77v-271h-191v271h-69l-92 -271h-585v1082h292v-627zM906 456h211l-76 221l-27 113h-6l-27 -113zM458 272v-245l6 -1l92 246h-98z" />
<glyph unicode="&#x46a;" horiz-adv-x="1784" d="M1175 804q244 -8 370 -117t126 -343v-344h-292v344q0 131 -58 182t-186 51h-84v-577h-292v577h-110q-129 0 -186.5 -51t-57.5 -182v-344h-292v344q0 242 134 350.5t395 110.5l-374 651h1282zM909 839l202 389h-404z" />
<glyph unicode="&#x46b;" horiz-adv-x="1501" d="M110 0v179q0 206 99 309t292 121l-275 473h1065l-276 -474q184 -21 280 -124t96 -305v-179h-291v179q0 123 -44.5 171t-143.5 48h-11v-398h-292v398h-20q-100 0 -144 -48t-44 -171v-179h-291zM755 635h6l123 259h-252z" />
<glyph unicode="&#x46c;" horiz-adv-x="2383" d="M1302 578h-970v228h970v-228zM446 0h-292v1456h292v-1456zM1742 804q244 -8 370 -117t126 -343v-344h-292v344q0 131 -58 182t-186 51h-84v-577h-292v577h-110q-129 0 -186.5 -51t-57.5 -182v-344h-292v344q0 242 134 350.5t395 110.5l-374 651h1282zM1476 839l202 389 h-404z" />
<glyph unicode="&#x46d;" horiz-adv-x="2062" d="M1228 406h-996v207h996v-207zM425 0h-292v1082h292v-1082zM616 0v179q0 206 99 309t292 121l-275 473h1065l-276 -474q184 -21 280 -124t96 -305v-179h-291v179q0 123 -44.5 171t-143.5 48h-11v-398h-292v398h-20q-100 0 -144 -48t-44 -171v-179h-291zM1261 635h6 l123 259h-252z" />
<glyph unicode="&#x46e;" horiz-adv-x="1052" d="M388 862q113 0 167.5 51t54.5 138q0 81 -57.5 127.5t-171.5 46.5h-260v231h260q242 0 381.5 -96t139.5 -285q0 -118 -60.5 -201t-170.5 -126q134 -43 205 -129.5t71 -210.5q0 -202 -137.5 -315.5t-367.5 -113.5h-58q-59 0 -86 -25.5t-27 -70.5q0 -60 42 -97t102 -63 l-82 -171q-159 36 -243 132t-85 236q0 144 94.5 217.5t262.5 73.5h64q106 0 167.5 53.5t61.5 139.5q0 110 -70 168t-204 58h-143v232h150zM561 1788l117 127h264v-17l-281 -255h-199l-281 256v16h264z" />
<glyph unicode="&#x46f;" horiz-adv-x="1033" d="M404 626q92 0 136.5 36t44.5 98q0 53 -51.5 85t-152.5 32h-260v205h260q230 0 362.5 -75.5t132.5 -223.5q0 -84 -47 -145.5t-133 -96.5q109 -33 167 -93t58 -144q0 -152 -126.5 -238.5t-337.5 -86.5h-49q-67 0 -98 -25.5t-31 -70.5q0 -60 37.5 -97t91.5 -63l-82 -157 q-131 42 -214 135.5t-84 218.5q0 131 86.5 197.5t240.5 66.5h56q101 0 160 35.5t59 93.5q0 66 -60 101t-173 35h-159v177h166zM489 1444l117 127h264v-17l-281 -255h-199l-281 256v16h264z" />
<glyph unicode="&#x470;" horiz-adv-x="1483" d="M888 581l6 -1q115 15 175 106t60 253v517h293v-517q0 -260 -144 -415t-390 -181v-343h-291v342q-251 21 -396 176.5t-145 420.5v517h291v-517q0 -158 64 -249.5t180 -109.5l6 2v874h291v-875z" />
<glyph unicode="&#x471;" horiz-adv-x="1526" d="M899 1082v-854l6 -2q137 27 200.5 124.5t63.5 241.5q-3 118 -31.5 239t-77.5 251h271q57 -99 93 -222t36 -268q0 -241 -134 -407t-427 -198v-465h-292v467q-257 31 -398 179.5t-141 421.5v492h292v-495q0 -161 64.5 -248.5t176.5 -109.5l6 1v852h292z" />
<glyph unicode="&#x472;" horiz-adv-x="1410" d="M1312 597q0 -269 -169 -443.5t-440 -174.5q-270 0 -438 175t-168 443v262q0 267 167.5 442.5t436.5 175.5q271 0 441 -175.5t170 -442.5v-262zM889 754q34 0 71 19.5t61 51.5v36q0 170 -85 279t-235 109q-148 0 -230.5 -109t-82.5 -279v-75q30 39 73.5 61t98.5 22 q67 0 167.5 -57.5t161.5 -57.5zM1021 618q-31 -31 -72.5 -48t-90.5 -17q-83 0 -174.5 58t-153.5 58q-44 0 -86 -32t-55 -76q8 -159 90.5 -257t223.5 -98q150 0 234 109t84 282v21z" />
<glyph unicode="&#x473;" d="M67 551q0 242 135 396.5t374 154.5q240 0 376 -154t136 -397v-21q0 -244 -135.5 -397.5t-374.5 -153.5q-240 0 -375.5 153.5t-135.5 397.5v21zM712 567q25 0 46.5 17t32.5 46q-13 112 -65.5 179.5t-149.5 67.5q-107 0 -158.5 -80t-50.5 -201l4 -4q13 24 42 40t62 16 q48 0 120.5 -40.5t116.5 -40.5zM451 493q-30 0 -53.5 -24t-29.5 -59q17 -97 68.5 -152t141.5 -55q97 0 148.5 67.5t56.5 176.5l-3 5q-13 -19 -38 -30t-53 -11q-60 0 -127 41t-111 41z" />
<glyph unicode="&#x474;" horiz-adv-x="1315" d="M634 395l18 -81h6l17 78l203 743q50 170 134.5 255t215.5 85q32 0 57.5 -4.5t45.5 -15.5l-23 -221q-5 0 -23 2t-28 2q-43 0 -75 -32t-47 -88l-330 -1118h-300l-492 1456h308z" />
<glyph unicode="&#x475;" horiz-adv-x="1046" d="M482 403l17 -88h6l16 88l92 374q48 162 132 243.5t213 81.5q32 0 57 -4t46 -15l-24 -221q-4 1 -21 2.5t-30 1.5q-38 0 -68.5 -29.5t-42.5 -72.5l-232 -764h-279l-348 1082h305z" />
<glyph unicode="&#x476;" horiz-adv-x="1315" d="M634 395l18 -81h6l17 78l203 743q50 170 134.5 255t215.5 85q32 0 57.5 -4.5t45.5 -15.5l-23 -221q-5 0 -23 2t-28 2q-43 0 -75 -32t-47 -88l-330 -1118h-300l-492 1456h308zM572 1595l-2 -5h-233l-285 260l2 6h278zM919 1590h-236l-240 261l2 5h275z" />
<glyph unicode="&#x477;" horiz-adv-x="1046" d="M482 403l17 -88h6l16 88l92 374q48 162 132 243.5t213 81.5q32 0 57 -4t46 -15l-24 -221q-4 1 -21 2.5t-30 1.5q-38 0 -68.5 -29.5t-42.5 -72.5l-232 -764h-279l-348 1082h305zM473 1339l-2 -5h-233l-285 260l2 6h278zM820 1334h-236l-240 261l2 5h275z" />
<glyph unicode="&#x478;" horiz-adv-x="2455" d="M1312 597q0 -269 -169 -443.5t-440 -174.5q-270 0 -438 175t-168 443v262q0 267 167.5 442.5t436.5 175.5q271 0 441 -175.5t170 -442.5v-262zM1021 861q0 170 -85 279t-235 109q-148 0 -230.5 -109t-82.5 -279v-264q0 -173 83 -282t232 -109q150 0 234 109t84 282v264z M1911 454l12 -60h6l207 688h314l-439 -1244q-46 -116 -125 -195.5t-237 -79.5q-37 0 -68.5 6t-76.5 17l34 213q13 -2 28 -4t27 -2q72 0 111 35.5t60 88.5l34 84l-384 1081h314z" />
<glyph unicode="&#x479;" horiz-adv-x="2202" d="M67 551q0 242 135 396.5t374 154.5q240 0 376 -154t136 -397v-21q0 -244 -135.5 -397.5t-374.5 -153.5q-240 0 -375.5 153.5t-135.5 397.5v21zM358 530q0 -148 52 -237.5t168 -89.5q113 0 165.5 90t52.5 237v21q0 144 -53 235t-167 91q-113 0 -165.5 -91.5t-52.5 -234.5 v-21zM1658 454l12 -60h6l207 688h314l-439 -1244q-46 -116 -125 -195.5t-237 -79.5q-37 0 -68.5 6t-76.5 17l34 213q13 -2 28 -4t27 -2q72 0 111 35.5t60 88.5l34 84l-384 1081h314z" />
<glyph unicode="&#x47a;" horiz-adv-x="1410" d="M802 1123h-195v454h195v-454zM804 -136h-195v464h195v-464zM1312 597q0 -269 -169 -443.5t-440 -174.5q-270 0 -438 175t-168 443v262q0 267 167.5 442.5t436.5 175.5q271 0 441 -175.5t170 -442.5v-262zM1021 861q0 170 -85 279t-235 109q-148 0 -230.5 -109t-82.5 -279 v-264q0 -173 83 -282t232 -109q150 0 234 109t84 282v264z" />
<glyph unicode="&#x47b;" d="M679 763h-196v441h196v-441zM673 -123h-195v454h195v-454zM67 551q0 242 135 396.5t374 154.5q240 0 376 -154t136 -397v-21q0 -244 -135.5 -397.5t-374.5 -153.5q-240 0 -375.5 153.5t-135.5 397.5v21zM358 530q0 -148 52 -237.5t168 -89.5q113 0 165.5 90t52.5 237v21 q0 144 -53 235t-167 91q-113 0 -165.5 -91.5t-52.5 -234.5v-21z" />
<glyph unicode="&#x47c;" horiz-adv-x="1964" d="M1127 1435q51 20 108.5 31t120.5 11q226 0 371.5 -178t145.5 -458v-214q0 -288 -150 -468t-385 -180q-112 0 -199 27t-153 74q-68 -47 -155 -74t-197 -27q-236 0 -385.5 180t-149.5 468v214q0 280 145 458t372 178q62 0 119.5 -11t109.5 -31l-62 -213q-33 14 -73 22 t-87 8q-105 0 -169 -114.5t-64 -294.5v-216q0 -188 66.5 -306t177.5 -118q85 0 131.5 24.5t74.5 62.5v41h292v-41q27 -38 73.5 -62.5t132.5 -24.5q110 0 177 118t67 306v216q0 180 -64.5 294.5t-168.5 114.5q-48 0 -88 -8t-72 -22zM1459 1877v-134h-23q-129 0 -287 60 t-198 60q-49 0 -76 -25.5t-27 -76.5v-18h-133v37q0 109 60 163t172 54q70 0 224.5 -60t265.5 -60h22zM960 1448l-82 55l59 109l-1 146h182v-128z" />
<glyph unicode="&#x47d;" horiz-adv-x="1682" d="M952 1061q45 20 96 31t108 11q197 0 324.5 -150.5t127.5 -386.5v-45q0 -240 -132 -391t-338 -151q-91 0 -163.5 23t-128.5 65q-57 -42 -129.5 -65t-162.5 -23q-207 0 -338.5 151t-131.5 391v45q0 236 127 386.5t325 150.5q56 0 107 -11t97 -31l-62 -213q-28 14 -62 22 t-73 8q-76 0 -122 -86.5t-46 -223.5v-47q0 -140 49 -229t130 -89q60 0 93 20.5t53 53.5v60h292v-60q19 -33 52 -53.5t94 -20.5q80 0 129.5 89t49.5 229v47q0 137 -46.5 223.5t-121.5 86.5q-40 0 -74 -8t-61 -22zM1343 1496v-134h-23q-128 0 -286 60t-199 60 q-48 0 -75.5 -25.5t-27.5 -76.5v-18h-133v37q0 109 60.5 163t172.5 54q70 0 224.5 -60t265.5 -60h21zM845 1080l-82 55l59 109l-1 133h182v-115z" />
<glyph unicode="&#x47e;" horiz-adv-x="1965" d="M715 1687v-127l-178 1l1 238h885v-239h-179v127h-181v-127h-181v127h-167zM1158 1222q39 14 87 22t104 8q104 0 168 -103.5t64 -266.5v-306q0 -165 -66.5 -269t-176.5 -104q-86 0 -132.5 20.5t-73.5 53.5v276h188v202h-668v-202h188v-276q-28 -33 -74.5 -53.5 t-131.5 -20.5q-111 0 -177.5 104t-66.5 269v306q0 163 64 266.5t169 103.5q55 0 103 -8t87 -22l62 213q-58 20 -123.5 31t-135.5 11q-227 0 -372 -167t-145 -430v-304q0 -265 149.5 -431t385.5 -166q110 0 197 22.5t154 62.5q67 -40 154 -62.5t199 -22.5q235 0 385 166 t150 431v304q0 263 -145.5 430t-371.5 167q-71 0 -136.5 -11t-122.5 -31z" />
<glyph unicode="&#x47f;" horiz-adv-x="1461" d="M512 1345v-127l-178 1l1 238h824v-239h-179v127h-151v-127h-181v127h-136zM321 1082h-305l368 -1082h264l112 328l6 -1l96 -327h272q121 260 197 527.5t100 554.5h-305q4 -210 -23.5 -401t-99.5 -345l-2 -10h-6l-15 77l-144 679h-290l110 -379l-78 -300l-41 -148h-6 l-28 148z" />
<glyph unicode="&#x480;" horiz-adv-x="1277" d="M842 -366h-291v353q-212 33 -335.5 195t-123.5 401v289q0 267 153.5 436t408.5 169q258 0 399.5 -129.5t137.5 -366.5l-2 -6h-283q0 141 -60.5 209t-191.5 68q-130 0 -200 -105t-70 -273v-291q0 -169 70 -274.5t200 -105.5h188v-569z" />
<glyph unicode="&#x481;" horiz-adv-x="1095" d="M776 -367h-292v355q-191 32 -294.5 179t-103.5 358v30q0 238 131 392.5t368 154.5q199 0 320.5 -114t117.5 -300l-2 -6h-266q0 83 -45.5 139t-124.5 56q-111 0 -159.5 -91t-48.5 -231v-30q0 -143 48 -232.5t162 -89.5h189v-570z" />
<glyph unicode="&#x482;" horiz-adv-x="1275" d="M601 449l289 -172l-72 -128l-291 170l-181 -319h-175l225 398l-289 171l71 128l293 -171l202 360l-290 171l73 130l291 -171l185 326h172l-228 -405l293 -171l-76 -127l-288 170z" />
<glyph unicode="&#x483;" horiz-adv-x="912" d="M269 1312v-126l-177 1l1 238h546l-1 108l177 -1v-220h-546z" />
<glyph unicode="&#x484;" horiz-adv-x="952" d="M123 1437q113 0 271.5 60t231.5 60q113 0 175.5 -54t62.5 -163v-37h-136v18q0 51 -29 76.5t-77 25.5q-43 0 -204.5 -60t-292.5 -60h-23v134h21z" />
<glyph unicode="&#x485;" horiz-adv-x="476" d="M125 1500v141h190l-1 -159l58 -109l-81 -68z" />
<glyph unicode="&#x486;" horiz-adv-x="491" d="M188 1305l-81 68l58 109l-1 159h190v-141z" />
<glyph unicode="&#x488;" horiz-adv-x="2068" d="M811 1267l-2 6q-5 79 51 130.5t153 51.5q96 0 152.5 -51.5t52.5 -130.5l-2 -6h-104q0 43 -24.5 72t-74.5 29t-73.5 -29t-23.5 -72h-105zM1402 990l-2 6q-5 78 51.5 130t152.5 52t153 -51.5t53 -130.5l-2 -6h-105q0 44 -24 72.5t-75 28.5q-50 0 -73 -29t-23 -72h-106z M1589 487l-2 6q-5 78 51.5 130t152.5 52t152.5 -51.5t52.5 -130.5l-2 -6h-104q0 44 -24 72.5t-75 28.5q-50 0 -73.5 -29t-23.5 -72h-105zM1392 -32l-2 6q-5 78 51.5 130t152.5 52t152.5 -51.5t52.5 -130.5l-2 -6h-104q0 44 -24 72.5t-75 28.5q-50 0 -73.5 -29t-23.5 -72 h-105zM816 -316l-2 6q-5 80 51 131t153 51q96 0 152.5 -51t52.5 -131l-2 -6h-104q0 44 -24.5 72.5t-74.5 28.5t-73.5 -28.5t-23.5 -72.5h-105zM238 990l-2 6q-5 79 51.5 130.5t153.5 51.5q96 0 152.5 -51.5t52.5 -130.5l-2 -6h-104q0 43 -24.5 72t-74.5 29t-73.5 -29 t-23.5 -72h-106zM62 487l-2 6q-5 78 51.5 130t152.5 52t152.5 -51.5t52.5 -130.5l-2 -6h-104q0 44 -24 72.5t-75 28.5q-50 0 -73.5 -29t-23.5 -72h-105zM228 -32l-2 6q-5 78 51.5 130t152.5 52t153 -51.5t53 -130.5l-2 -6h-105q0 44 -24 72.5t-75 28.5q-50 0 -73 -29 t-23 -72h-106z" />
<glyph unicode="&#x489;" horiz-adv-x="2000" d="M1100 -60l11 -14l-122 -339h-96l70 353h137zM905 1126l-12 14l122 338h96l-70 -352h-136zM1583 631l13 12l333 -124v-98l-346 71v139zM419 433l-13 -12l-333 124v98l346 -71v-139zM1343 1002l2 16l321 153l68 -68q-37 -23 -294 -200zM659 21l-2 -17l-320 -153l-69 69 l294 200zM519 860l-17 2l-148 326l65 69l198 -299zM1481 161l17 -2l149 -325l-66 -71l-197 299z" />
<glyph unicode="&#x48a;" horiz-adv-x="1431" d="M1009 1456h292v-1456h-292v973l-6 1l-588 -974h-291v1456h291v-972l6 -1zM1052 1896l2 -6q5 -127 -88.5 -207.5t-251.5 -80.5q-159 0 -253 80.5t-88 207.5l2 6h213q0 -53 30.5 -87t95.5 -34q63 0 93.5 34t30.5 87h214zM1567 -27l-159 -315h-195l70 324v228h284v-237z" />
<glyph unicode="&#x48b;" d="M758 1082h291v-1082h-291v660l-6 1l-353 -661h-292v1082h292v-658l6 -1zM917 1553l2 -6q5 -127 -88.5 -207.5t-251.5 -80.5q-159 0 -253 80.5t-88 207.5l2 6h213q0 -53 30.5 -87t95.5 -34q63 0 93.5 34t30.5 87h214zM1315 -27l-159 -315h-195l70 324v228h284v-237z" />
<glyph unicode="&#x48c;" horiz-adv-x="1283" d="M677 1090h-253v-146h250q251 0 399 -131t148 -339q0 -210 -148.5 -342t-398.5 -132h-542v1090h-126v181h126v185h292v-185h253v-181zM424 719v-495h250q123 0 189.5 73t66.5 179q0 102 -66.5 172.5t-189.5 70.5h-250z" />
<glyph unicode="&#x48d;" horiz-adv-x="1143" d="M658 810h-236v-78h203q218 0 343 -100.5t125 -263.5q0 -165 -125 -266.5t-343 -101.5h-496v810h-142v181h142v91h293v-91h236v-181zM422 508v-285h203q89 0 133 40t44 103q0 61 -44 101.5t-133 40.5h-203z" />
<glyph unicode="&#x48e;" horiz-adv-x="1284" d="M1053 401l-120 -64l-302 574l121 63zM419 528v-528h-292v1456h557q251 0 395 -128t144 -337t-144 -336t-395 -127h-265zM419 753h265q122 0 185 66.5t63 169.5q0 105 -62.5 173.5t-185.5 68.5h-265v-478z" />
<glyph unicode="&#x48f;" horiz-adv-x="1154" d="M872 -135l-128 -48l-199 556l128 49zM1088 511q0 -240 -111 -386t-310 -146q-85 0 -151 31.5t-113 92.5v-519h-291v1498h263l17 -128q48 71 115.5 109.5t157.5 38.5q201 0 312 -157t111 -413v-21zM796 532q0 153 -51 248t-156 95q-66 0 -112.5 -27t-73.5 -77v-474 q27 -46 73.5 -70t114.5 -24q106 0 155.5 83t49.5 225v21z" />
<glyph unicode="&#x490;" horiz-adv-x="1138" d="M1095 1231h-671v-1231h-292v1456h671v368h292v-593z" />
<glyph unicode="&#x491;" horiz-adv-x="946" d="M887 857h-41v-1h-447v-856h-292v1082h489v315h291v-540z" />
<glyph unicode="&#x492;" horiz-adv-x="1137" d="M655 664h-231v-664h-292v664h-148v181h148v611h949v-225h-657v-386h231v-181z" />
<glyph unicode="&#x493;" horiz-adv-x="855" d="M625 455h-226v-455h-292v455h-153v181h153v446h739v-226h-447v-220h226v-181z" />
<glyph unicode="&#x494;" horiz-adv-x="1145" d="M1081 1231h-657v-319h204q266 0 426 -125.5t160 -361.5q2 -134 -94 -269.5t-277 -192.5l-123 188q99 44 150.5 110.5t52.5 163.5q0 126 -78 192t-217 66h-204v-683h-292v1456h949v-225z" />
<glyph unicode="&#x495;" horiz-adv-x="1208" d="M846 856h-447v-146h53q266 0 426 -125.5t160 -361.5q2 -134 -94 -269t-277 -193l-123 188q99 45 150.5 111t52.5 163q0 126 -78 192t-217 66h-53v-481h-292v1082h739v-226z" />
<glyph unicode="&#x496;" horiz-adv-x="1870" d="M1178 608h-92v-608h-291v608h-97l-328 -608h-364l459 785l-435 671h361l330 -595h74v595h291v-595h70l323 595h360l-429 -670l453 -786h-363zM1978 -357h-292v591h292v-591z" />
<glyph unicode="&#x497;" horiz-adv-x="1661" d="M1055 408h-81v-408h-290v408h-79l-214 -408h-374l354 586l-336 496h368l223 -408h58v408h290v-408h61l222 408h369l-337 -497l353 -585h-373zM1713 -357h-292v591h292v-591z" />
<glyph unicode="&#x498;" horiz-adv-x="1345" d="M667 852q137 0 203 54t66 151q0 84 -73 139.5t-212 55.5q-109 0 -181 -52.5t-72 -134.5h-283l-1 6q-6 181 151 293.5t386 112.5q266 0 421 -108t155 -308q0 -100 -65 -183t-179 -130q129 -43 198 -129t69 -211q0 -201 -166 -315t-433 -114q-230 0 -397 107t-161 312l1 6 h284q0 -85 76.5 -143t196.5 -58q142 0 224.5 58.5t82.5 149.5q0 115 -73.5 168.5t-217.5 53.5h-197v219h197zM688 54q91 -52 135.5 -121.5t44.5 -144.5q0 -101 -72 -157.5t-181 -56.5q-63 0 -108.5 12.5t-81.5 31.5l35 154q23 -8 45.5 -14t53.5 -6q53 0 71.5 21.5t18.5 48.5 q0 47 -24 82.5t-74 86.5z" />
<glyph unicode="&#x499;" horiz-adv-x="1140" d="M568 646q85 0 129.5 31.5t44.5 87.5q0 51 -43 87.5t-130 36.5q-80 0 -129 -32t-49 -86h-281l-2 6q-6 145 123 234.5t323 89.5q219 0 349 -82.5t130 -232.5q0 -72 -48.5 -132.5t-133.5 -96.5q98 -33 150 -97t52 -154q0 -151 -140 -238.5t-359 -87.5q-193 0 -331 86 t-132 248l2 6h281q0 -55 51 -92.5t145 -37.5q91 0 141.5 39.5t50.5 95.5q0 69 -50 102t-144 33h-176v186h176zM587 55q91 -52 135.5 -121.5t44.5 -144.5q0 -101 -72 -157.5t-181 -56.5q-63 0 -108.5 12.5t-81.5 31.5l35 154q23 -8 45.5 -14t53.5 -6q53 0 71.5 21.5 t18.5 48.5q0 47 -24 82.5t-74 86.5z" />
<glyph unicode="&#x49a;" horiz-adv-x="1305" d="M533 608h-107v-608h-292v1456h292v-595h82l399 595h361l-504 -677l543 -779h-372zM1373 -357h-292v591h292v-591z" />
<glyph unicode="&#x49b;" horiz-adv-x="1167" d="M533 405h-112v-405h-292v1082h292v-412h87l248 412h369l-358 -502l390 -580h-389zM1235 -357h-292v591h292v-591z" />
<glyph unicode="&#x49c;" horiz-adv-x="1351" d="M1335 1456l-381 -663l420 -793h-372l-274 604h-54v-229h-167v229h-83v-604h-292v1456h292v-599h83v256h167v-256h40l260 599h361z" />
<glyph unicode="&#x49d;" horiz-adv-x="1184" d="M1179 1082l-293 -510l309 -572h-373l-165 405h-26v-172h-151v172h-59v-405h-292v1082h292v-412h59v191h151v-191h25l154 412h369z" />
<glyph unicode="&#x49e;" horiz-adv-x="1305" d="M533 608h-107v-608h-292v1140h-218v181h218v135h292v-135h161v-181h-161v-279h82l399 595h361l-504 -677l543 -779h-372z" />
<glyph unicode="&#x49f;" horiz-adv-x="1097" d="M478 453h-74v-453h-292v1208h-197v181h197v171h292v-171h182v-181h-182v-533h65l259 407h338l-352 -493l400 -589h-336z" />
<glyph unicode="&#x4a0;" horiz-adv-x="1753" d="M972 608h-107v-608h-292v1230h-489v226h781v-595h82l399 595h361l-504 -677l543 -779h-372z" />
<glyph unicode="&#x4a1;" horiz-adv-x="1513" d="M913 405h-112v-405h-292v856h-437v226h729v-412h87l248 412h369l-358 -502l390 -580h-389z" />
<glyph unicode="&#x4a2;" horiz-adv-x="1445" d="M1311 0h-292v605h-593v-605h-292v1456h292v-626h593v626h292v-1456zM1494 -357h-292v591h292v-591z" />
<glyph unicode="&#x4a3;" d="M1047 0h-292v420h-356v-420h-292v1082h292v-438h356v438h292v-1082zM1230 -357h-292v591h292v-591z" />
<glyph unicode="&#x4a4;" horiz-adv-x="2016" d="M425 830h593v626h918v-225h-626v-1231h-292v605h-593v-605h-292v1456h292v-626z" />
<glyph unicode="&#x4a5;" horiz-adv-x="1446" d="M399 644h356v438h631v-225h-339v-857h-292v420h-356v-420h-292v1082h292v-438z" />
<glyph unicode="&#x4a6;" horiz-adv-x="2119" d="M1311 917h174q266 0 425.5 -125t159.5 -361q3 -133 -93.5 -269t-277.5 -195l-122 189q99 44 150 110.5t52 164.5q0 126 -78 192t-216 66h-174v-689h-292v1231h-594v-1231h-292v1456h1178v-539z" />
<glyph unicode="&#x4a7;" horiz-adv-x="1773" d="M1049 713h159q266 0 426 -125.5t160 -361.5q2 -134 -94 -269t-277 -193l-123 188q99 45 150.5 111t52.5 163q0 126 -78 192t-217 66h-159v-484h-292v856h-358v-856h-292v1082h942v-369z" />
<glyph unicode="&#x4a8;" horiz-adv-x="1472" d="M571 648v92q0 166 107 274.5t280 108.5q185 0 301 -115.5t116 -294.5v-88q0 -278 -179 -462t-463 -184q-282 0 -459 176t-177 442v262q0 265 172 440.5t443 171.5l6 -2v-227q-144 0 -229 -107t-85 -274v-264q0 -170 88.5 -277t240.5 -107q32 0 62 5.5t59 16.5 q-134 55 -208.5 163t-74.5 250v0zM1068 625v91q0 76 -30 124.5t-80 48.5q-51 0 -81 -49t-30 -124v-70q0 -93 44 -159.5t123 -86.5l6 1q22 44 35 101.5t13 122.5v0z" />
<glyph unicode="&#x4a9;" horiz-adv-x="1178" d="M496 495v26q0 128 85.5 212.5t221.5 84.5q135 0 221.5 -93t86.5 -233v-34q0 -207 -137 -343t-352 -136q-247 0 -401 149.5t-154 377.5v41q0 239 153.5 396t395.5 153l6 -2v-225q-115 -9 -181.5 -95.5t-66.5 -224.5v-43q0 -130 67 -211.5t181 -81.5h6q-63 46 -97.5 119 t-34.5 163v0zM834 472v36q0 50 -17.5 83.5t-44.5 33.5t-44 -32.5t-17 -79.5v-31q0 -61 22 -104t61 -51l6 1q15 25 24.5 63t9.5 81v0z" />
<glyph unicode="&#x4aa;" horiz-adv-x="1303" d="M1226 482l2 -6q4 -233 -142 -365t-403 -132q-262 0 -423 168.5t-161 435.5v289q0 266 157 435.5t412 169.5q266 0 416 -130t146 -366l-2 -6h-284q0 140 -67.5 208.5t-208.5 68.5q-131 0 -204.5 -105.5t-73.5 -272.5v-291q0 -168 77.5 -274t215.5 -106q131 0 195.5 68.5 t64.5 210.5h283zM687 61q91 -52 135.5 -121.5t44.5 -144.5q0 -101 -72 -157.5t-181 -56.5q-63 0 -108.5 12.5t-81.5 31.5l35 154q23 -8 45.5 -14t53.5 -6q53 0 71.5 21.5t18.5 48.5q0 47 -24 82.5t-74 86.5z" />
<glyph unicode="&#x4ab;" horiz-adv-x="1056" d="M564 203q76 0 121 45.5t45 121.5h266l2 -6q4 -164 -122 -274.5t-312 -110.5q-240 0 -371 153.5t-131 392.5v30q0 238 130.5 392.5t369.5 154.5q198 0 319 -114t117 -300l-2 -6h-266q0 84 -44.5 139.5t-123.5 55.5q-113 0 -160.5 -90.5t-47.5 -231.5v-30q0 -144 47.5 -233 t162.5 -89zM574 61q91 -52 135.5 -121.5t44.5 -144.5q0 -101 -72 -157.5t-181 -56.5q-63 0 -108.5 12.5t-81.5 31.5l35 154q23 -8 45.5 -14t53.5 -6q53 0 71.5 21.5t18.5 48.5q0 47 -24 82.5t-74 86.5z" />
<glyph unicode="&#x4ac;" horiz-adv-x="1175" d="M1149 1231h-416v-1231h-292v1231h-410v225h1118v-225zM916 -357h-292v591h292v-591z" />
<glyph unicode="&#x4ad;" horiz-adv-x="1070" d="M1028 859h-346v-859h-293v859h-341v223h980v-223zM865 -357h-292v591h292v-591z" />
<glyph unicode="&#x4ae;" horiz-adv-x="1303" d="M648 785h6l318 671h320l-499 -944v-512h-292v527l-491 929h320z" />
<glyph unicode="&#x4af;" horiz-adv-x="1046" d="M726 1082h305l-362 -1065v-434h-292v437l-361 1062h305l182 -679l19 -100h6l20 100z" />
<glyph unicode="&#x4b0;" horiz-adv-x="1303" d="M647 785h6l319 671h320l-401 -757h104v-181h-199l-3 -6v-512h-292v518h-177v181h86l-400 757h320z" />
<glyph unicode="&#x4b1;" horiz-adv-x="1046" d="M867 9h-198v-426h-292v426h-181v181h123l-303 892h305l182 -679l19 -100h6l20 100l178 679h305l-304 -892h140v-181z" />
<glyph unicode="&#x4b2;" horiz-adv-x="1303" d="M649 940l273 516h340l-432 -722l457 -734h-353l-281 525l-281 -525h-341l443 734l-432 722h338zM1315 -357h-292v591h292v-591z" />
<glyph unicode="&#x4b3;" horiz-adv-x="1046" d="M519 738h6l166 344h330l-326 -535l337 -547h-329l-177 359l-177 -359h-330l337 547l-327 535h328zM1074 -357h-292v591h292v-591z" />
<glyph unicode="&#x4b4;" horiz-adv-x="1841" d="M380 1230h-337v225h337v1h292v-1h331v-225h-331v-1005h594v1231h292v-1218h223v-591h-292v353h-1109v1230z" />
<glyph unicode="&#x4b5;" horiz-adv-x="1420" d="M264 857h-218v225h707v-225h-197v-633h358v858h292v-858h156v-582h-291v358h-807v857z" />
<glyph unicode="&#x4b6;" horiz-adv-x="1420" d="M1288 1456v-1456h-293v561q-66 -16 -148 -24.5t-147 -8.5q-268 0 -414.5 116t-146.5 359v453h292v-453q0 -142 63.5 -196t205.5 -54q62 0 145.5 8.5t149.5 24.5v670h293zM1471 -357h-292v591h292v-591z" />
<glyph unicode="&#x4b7;" horiz-adv-x="1147" d="M1041 0h-292v343q-37 -8 -75.5 -11.5t-72.5 -3.5q-239 0 -368.5 102t-129.5 312v340h292v-340q0 -107 47 -148t159 -41q37 0 73.5 4t74.5 12v513h292v-1082zM1224 -357h-292v591h292v-591z" />
<glyph unicode="&#x4b8;" horiz-adv-x="1394" d="M831 291h-167v756h167v-756zM1288 1456v-1456h-293v561q-66 -16 -148 -24.5t-147 -8.5q-268 0 -414.5 116t-146.5 359v453h292v-453q0 -142 63.5 -196t205.5 -54q62 0 145.5 8.5t149.5 24.5v670h293z" />
<glyph unicode="&#x4b9;" horiz-adv-x="1148" d="M659 184h-167v641h167v-641zM1041 0h-292v343q-37 -8 -75.5 -11.5t-72.5 -3.5q-239 0 -368.5 102t-129.5 312v340h292v-340q0 -107 47 -148t159 -41q37 0 73.5 4t74.5 12v513h292v-1082z" />
<glyph unicode="&#x4ba;" horiz-adv-x="1433" d="M78 0v1456h293v-561q66 14 148 23.5t147 9.5q267 0 414 -116.5t147 -358.5v-453h-292v453q0 141 -64 195.5t-205 54.5q-62 0 -145.5 -9.5t-149.5 -23.5v-670h-293z" />
<glyph unicode="&#x4bb;" horiz-adv-x="1148" d="M95.0635 1084h291.982v-342.979q36.9971 8 75.4951 11.5q38.498 3.49902 72.4961 3.49902q238.985 0 368.478 -101.993q129.491 -101.994 129.491 -311.981v-339.979h-291.981v339.979q0 106.994 -46.9971 147.991q-46.9971 40.998 -158.99 40.998q-36.998 0 -73.4961 -4 t-74.4951 -11.999v-512.969h-291.982v1081.93z" />
<glyph unicode="&#x4bc;" horiz-adv-x="1680" d="M1030 -23q-339 0 -526.5 186.5t-199.5 499.5q-155 24 -238.5 134t-83.5 285h196q0 -86 33 -142t99 -77q33 273 209 443t421 169q292 0 448 -182t156 -500v-150h-940l-2 -6q9 -190 113 -304.5t315 -114.5q116 0 209 19t169 47l49 -225q-52 -28 -163.5 -55t-263.5 -27z M940 1233q-141 0 -228 -101.5t-106 -263.5l2 -5h645v31q0 153 -75 246t-238 93z" />
<glyph unicode="&#x4bd;" horiz-adv-x="1225" d="M692 -21q-235 0 -371 141t-143 366q-119 37 -182.5 135t-63.5 244h183q0 -60 18.5 -105.5t56.5 -72.5q34 189 160.5 302t322.5 113q218 0 334.5 -133.5t116.5 -359.5v-151h-645l-3 -6q7 -111 67.5 -180t179.5 -69q98 0 166.5 20t141.5 61l79 -180q-65 -53 -176 -89 t-242 -36zM673 877q-88 0 -135.5 -60.5t-57.5 -160.5l2 -5h356v22q0 95 -39 149.5t-126 54.5z" />
<glyph unicode="&#x4be;" horiz-adv-x="1680" d="M1030 -23q-339 0 -526.5 186.5t-199.5 499.5q-155 24 -238.5 134t-83.5 285h196q0 -86 33 -142t99 -77q33 273 209 443t421 169q292 0 448 -182t156 -500v-150h-940l-2 -6q9 -190 113 -304.5t315 -114.5q116 0 209 19t169 47l49 -225q-52 -28 -163.5 -55t-263.5 -27z M940 1233q-141 0 -228 -101.5t-106 -263.5l2 -5h645v31q0 153 -75 246t-238 93zM945 0q-54 -53 -79 -90t-25 -86q0 -27 17 -48.5t69 -21.5q28 0 49.5 6t44.5 14l35 -154q-36 -19 -80.5 -31.5t-105.5 -12.5q-108 0 -177.5 56.5t-69.5 157.5q0 77 46 146.5t144 123.5z" />
<glyph unicode="&#x4bf;" horiz-adv-x="1225" d="M692 -21q-235 0 -371 141t-143 366q-119 37 -182.5 135t-63.5 244h183q0 -60 18.5 -105.5t56.5 -72.5q34 189 160.5 302t322.5 113q218 0 334.5 -133.5t116.5 -359.5v-151h-645l-3 -6q7 -111 67.5 -180t179.5 -69q98 0 166.5 20t141.5 61l79 -180q-65 -53 -176 -89 t-242 -36zM673 877q-88 0 -135.5 -60.5t-57.5 -160.5l2 -5h356v22q0 95 -39 149.5t-126 54.5zM718 0q-54 -53 -79 -90t-25 -86q0 -27 17 -48.5t69 -21.5q28 0 49.5 6t44.5 14l35 -154q-36 -19 -80.5 -31.5t-105.5 -12.5q-108 0 -177.5 56.5t-69.5 157.5q0 77 46 146.5 t144 123.5z" />
<glyph unicode="&#x4c0;" horiz-adv-x="601" d="M446 0h-292v1456h292v-1456z" />
<glyph unicode="&#x4c1;" horiz-adv-x="1870" d="M1178 608h-92v-608h-291v608h-97l-328 -608h-364l459 785l-435 671h361l330 -595h74v595h291v-595h70l323 595h360l-429 -670l453 -786h-363zM1273 1896l2 -6q5 -127 -88.5 -207.5t-251.5 -80.5q-159 0 -253 80.5t-88 207.5l2 6h213q0 -53 30.5 -87t95.5 -34 q63 0 93.5 34t30.5 87h214z" />
<glyph unicode="&#x4c2;" horiz-adv-x="1661" d="M1055 408h-81v-408h-290v408h-79l-214 -408h-374l354 586l-336 496h368l223 -408h58v408h290v-408h61l222 408h369l-337 -497l353 -585h-373zM1169 1553l2 -6q5 -127 -88.5 -207.5t-251.5 -80.5q-159 0 -253 80.5t-88 207.5l2 6h213q0 -53 30.5 -87t95.5 -34 q63 0 93.5 34t30.5 87h214z" />
<glyph unicode="&#x4c3;" horiz-adv-x="1297" d="M806 815q204 -36 321 -163t117 -340q2 -141 -102 -282t-300 -202l-123 188q115 46 173.5 118t59.5 178q0 146 -81 217t-228 71h-219v-600h-292v1456h292v-599h102l371 599h361z" />
<glyph unicode="&#x4c4;" horiz-adv-x="1170" d="M781 600q158 -47 246.5 -158.5t88.5 -283.5q2 -132 -93.5 -264t-277.5 -191l-123 189q100 44 151 108t51 158q0 125 -76.5 186t-217.5 61h-109v-405h-292v1082h292v-412h87l248 412h369z" />
<glyph unicode="&#x4c5;" horiz-adv-x="1444" d="M1311 1456v-1456h-292v1231h-414v-438q0 -422 -127.5 -607.5t-392.5 -185.5h-43v224h40q137 0 184 122t47 447v663h998zM1577 -27l-159 -315h-195l70 324v228h284v-237z" />
<glyph unicode="&#x4c6;" horiz-adv-x="1149" d="M1049 1082v-1082h-291v856h-260v-235q0 -320 -98 -470.5t-335 -150.5h-47l-3 230l31 1q100 0 130 82t30 308v461h843zM1315 -27l-159 -315h-195l70 324v228h284v-237z" />
<glyph unicode="&#x4c7;" horiz-adv-x="1444" d="M426 1456v-626h593v626h291v-1496q0 -190 -101 -293.5t-280 -103.5q-41 0 -75 4t-70 13l14 221q23 -6 48 -9.5t52 -3.5q57 0 89 45t32 127v645h-593v-605h-293v1456h293z" />
<glyph unicode="&#x4c8;" d="M399 1082v-438h356v438h292v-1122q0 -190 -101 -293.5t-281 -103.5q-40 0 -74 4t-70 13l14 221q23 -6 47.5 -9.5t51.5 -3.5q57 0 89 45t32 127v460h-356v-420h-292v1082h292z" />
<glyph unicode="&#x4c9;" horiz-adv-x="1445" d="M1311 0h-292v605h-593v-605h-292v1456h292v-626h593v626h292v-1456zM1577 -27l-159 -315h-195l70 324v228h284v-237z" />
<glyph unicode="&#x4ca;" d="M1047 0h-292v420h-356v-420h-292v1082h292v-438h356v438h292v-1082zM1313 -27l-159 -315h-195l70 324v228h284v-237z" />
<glyph unicode="&#x4cb;" horiz-adv-x="1420" d="M1288 1456v-1456h-293v561q-66 -16 -148 -24.5t-147 -8.5q-268 0 -414.5 116t-146.5 359v453h292v-453q0 -142 63.5 -196t205.5 -54q62 0 145.5 8.5t149.5 24.5v670h293zM1096 -357h-292v591h292v-591z" />
<glyph unicode="&#x4cc;" horiz-adv-x="1147" d="M1041 0h-292v343q-37 -8 -75.5 -11.5t-72.5 -3.5q-239 0 -368.5 102t-129.5 312v340h292v-340q0 -107 47 -148t159 -41q37 0 73.5 4t74.5 12v513h292v-1082zM849 -357h-292v591h292v-591z" />
<glyph unicode="&#x4cd;" horiz-adv-x="1782" d="M887 383h6l374 1073h381v-1456h-292v994l-6 1l-360 -995h-198l-360 997l-6 -1v-996h-292v1456h383zM1914 -27l-159 -315h-195l70 324v228h284v-237z" />
<glyph unicode="&#x4ce;" horiz-adv-x="1557" d="M766 340h6l279 742h365v-1082h-291v646l-6 1l-251 -647h-196l-245 633l-6 -1v-632h-292v1082h362zM1682 -27l-159 -315h-195l70 324v228h284v-237z" />
<glyph unicode="&#x4cf;" horiz-adv-x="601" d="M446 0h-292v1456h292v-1456z" />
<glyph unicode="&#x4d0;" horiz-adv-x="1303" d="M893 314h-472l-98 -314h-305l491 1456h299l489 -1456h-305zM493 543h329l-161 513h-6zM992 1896l2 -6q5 -127 -88.5 -207.5t-251.5 -80.5q-159 0 -253 80.5t-88 207.5l2 6h213q0 -53 30.5 -87t95.5 -34q63 0 93.5 34t30.5 87h214z" />
<glyph unicode="&#x4d1;" horiz-adv-x="1100" d="M750 0q-16 37 -27.5 78t-16.5 84q-45 -79 -119 -131t-176 -52q-170 0 -262 87.5t-92 238.5q0 159 122.5 246.5t357.5 87.5h164v86q0 78 -41 121t-122 43q-71 0 -109.5 -34.5t-38.5 -94.5h-281l-2 6q-7 137 119.5 236.5t330.5 99.5q195 0 315.5 -98t120.5 -281v-447 q0 -76 11.5 -143t36.5 -133h-291zM483 195q76 0 136 38t82 88v153h-164q-93 0 -140.5 -46t-47.5 -113q0 -55 35.5 -87.5t98.5 -32.5zM885 1574l2 -6q5 -127 -88.5 -207.5t-251.5 -80.5q-159 0 -253 80.5t-88 207.5l2 6h213q0 -53 30.5 -87t95.5 -34q63 0 93.5 34t30.5 87 h214z" />
<glyph unicode="&#x4d2;" horiz-adv-x="1303" d="M893 314h-472l-98 -314h-305l491 1456h299l489 -1456h-305zM493 543h329l-161 513h-6zM1036 1601h-266v204h266v-204zM536 1601h-266v204h266v-204z" />
<glyph unicode="&#x4d3;" horiz-adv-x="1100" d="M750 0q-16 37 -27.5 78t-16.5 84q-45 -79 -119 -131t-176 -52q-170 0 -262 87.5t-92 238.5q0 159 122.5 246.5t357.5 87.5h164v86q0 78 -41 121t-122 43q-71 0 -109.5 -34.5t-38.5 -94.5h-281l-2 6q-7 137 119.5 236.5t330.5 99.5q195 0 315.5 -98t120.5 -281v-447 q0 -76 11.5 -143t36.5 -133h-291zM483 195q76 0 136 38t82 88v153h-164q-93 0 -140.5 -46t-47.5 -113q0 -55 35.5 -87.5t98.5 -32.5zM929 1279h-266v204h266v-204zM429 1279h-266v204h266v-204z" />
<glyph unicode="&#x4d4;" horiz-adv-x="1945" d="M1874 0h-898l-14 335h-440l-168 -335h-342l784 1456h1016v-228h-596l16 -366h499v-227h-490l17 -408h616v-227zM642 575h310l-23 559l-6 1z" />
<glyph unicode="&#x4d5;" horiz-adv-x="1771" d="M1280 -21q-129 0 -229 40.5t-167 117.5q-60 -69 -161.5 -113.5t-240.5 -44.5q-192 0 -296.5 90.5t-104.5 247.5q0 159 126.5 245t369.5 86h181v59q0 79 -40.5 124.5t-114.5 45.5q-81 0 -127.5 -37.5t-46.5 -93.5l-282 18l-2 6q-6 144 121.5 238t339.5 94q102 0 186 -27.5 t143 -79.5q61 52 142 79.5t180 27.5q212 0 333.5 -132t121.5 -358v-158h-651l-2 -6q4 -111 66 -178t186 -67q92 0 153.5 20t141.5 61l77 -184q-62 -48 -169.5 -84.5t-233.5 -36.5zM537 185q58 0 121 30.5t100 72.5v176h-179q-97 0 -152 -44.5t-55 -106.5q0 -59 41.5 -93.5 t123.5 -34.5zM1257 877q-95 0 -142 -61.5t-54 -166.5l2 -5h362v28q0 94 -42.5 149.5t-125.5 55.5z" />
<glyph unicode="&#x4d6;" horiz-adv-x="1139" d="M966 640h-540v-416h642v-224h-934v1456h932v-225h-640v-366h540v-225zM940 1896l2 -6q5 -127 -88.5 -207.5t-251.5 -80.5q-159 0 -253 80.5t-88 207.5l2 6h213q0 -53 30.5 -87t95.5 -34q63 0 93.5 34t30.5 87h214z" />
<glyph unicode="&#x4d7;" horiz-adv-x="1071" d="M581 -21q-242 0 -378 148.5t-136 382.5v40q0 243 132 398t363 154q218 0 334.5 -133.5t116.5 -359.5v-151h-645l-3 -6q7 -111 67.5 -180t179.5 -69q98 0 166.5 20t141.5 61l79 -180q-65 -53 -176 -89t-242 -36zM562 877q-88 0 -135.5 -60.5t-57.5 -160.5l2 -5h356v22 q0 95 -39 149.5t-126 54.5zM878 1575l2 -6q5 -127 -88.5 -207.5t-251.5 -80.5q-159 0 -253 80.5t-88 207.5l2 6h213q0 -53 30.5 -87t95.5 -34q63 0 93.5 34t30.5 87h214z" />
<glyph unicode="&#x4d8;" horiz-adv-x="1506" d="M640 1477q350 0 538.5 -199.5t188.5 -530.5v-42q0 -318 -183 -522.5t-454 -203.5q-312 0 -478 181.5t-166 499.5v150h980l2 6q-9 188 -113.5 303.5t-314.5 115.5q-117 0 -209.5 -19.5t-168.5 -46.5l-49 225q53 28 163.5 55.5t263.5 27.5zM730 220q140 0 227 101t107 264 l-2 5h-685v-31q0 -154 84 -246.5t269 -92.5z" />
<glyph unicode="&#x4d9;" horiz-adv-x="1081" d="M542.035 1103q241.985 0 377.978 -148.491q135.991 -148.491 135.991 -382.477v-39.998q0 -242.984 -131.992 -397.976q-131.991 -154.99 -362.978 -153.99q-217.986 0 -334.479 133.492q-116.493 133.491 -116.493 359.478v150.991h644.961l3 5.99902 q-7 110.993 -67.4961 179.989t-179.489 68.9961q-97.9941 0 -166.489 -19.999q-68.4961 -19.999 -141.491 -60.9961l-78.9961 179.988q64.9961 52.9971 175.989 88.9951t241.985 35.998zM561.034 205.054q87.9951 0 135.492 60.4961t57.4961 160.49l-2 5h-355.979v-21.999 q0 -94.9941 38.998 -149.491q38.998 -54.4961 125.992 -54.4961z" />
<glyph unicode="&#x4da;" horiz-adv-x="1506" d="M640 1477q350 0 538.5 -199.5t188.5 -530.5v-42q0 -318 -183 -522.5t-454 -203.5q-312 0 -478 181.5t-166 499.5v150h980l2 6q-9 188 -113.5 303.5t-314.5 115.5q-117 0 -209.5 -19.5t-168.5 -46.5l-49 225q53 28 163.5 55.5t263.5 27.5zM730 220q140 0 227 101t107 264 l-2 5h-685v-31q0 -154 84 -246.5t269 -92.5zM1063 1546h-266v204h266v-204zM563 1546h-266v204h266v-204z" />
<glyph unicode="&#x4db;" horiz-adv-x="1081" d="M542.035 1103q241.985 0 377.978 -148.491q135.991 -148.491 135.991 -382.477v-39.998q0 -242.984 -131.992 -397.976q-131.991 -154.99 -362.978 -153.99q-217.986 0 -334.479 133.492q-116.493 133.491 -116.493 359.478v150.991h644.961l3 5.99902 q-7 110.993 -67.4961 179.989t-179.489 68.9961q-97.9941 0 -166.489 -19.999q-68.4961 -19.999 -141.491 -60.9961l-78.9961 179.988q64.9961 52.9971 175.989 88.9951t241.985 35.998zM561.034 205.054q87.9951 0 135.492 60.4961t57.4961 160.49l-2 5h-355.979v-21.999 q0 -94.9941 38.998 -149.491q38.998 -54.4961 125.992 -54.4961zM947 1279h-266v204h266v-204zM447 1279h-266v204h266v-204z" />
<glyph unicode="&#x4dc;" horiz-adv-x="1870" d="M1178 608h-92v-608h-291v608h-97l-328 -608h-364l459 785l-435 671h361l330 -595h74v595h291v-595h70l323 595h360l-429 -670l453 -786h-363zM1317 1601h-266v204h266v-204zM817 1601h-266v204h266v-204z" />
<glyph unicode="&#x4dd;" horiz-adv-x="1661" d="M1055 408h-81v-408h-290v408h-79l-214 -408h-374l354 586l-336 496h368l223 -408h58v408h290v-408h61l222 408h369l-337 -497l353 -585h-373zM1213 1258h-266v204h266v-204zM713 1258h-266v204h266v-204z" />
<glyph unicode="&#x4de;" horiz-adv-x="1345" d="M667 852q137 0 203 54t66 151q0 84 -73 139.5t-212 55.5q-109 0 -181 -52.5t-72 -134.5h-283l-1 6q-6 181 151 293.5t386 112.5q266 0 421 -108t155 -308q0 -100 -65 -183t-179 -130q129 -43 198 -129t69 -211q0 -201 -166 -315t-433 -114q-230 0 -397 107t-161 312l1 6 h284q0 -85 76.5 -143t196.5 -58q142 0 224.5 58.5t82.5 149.5q0 115 -73.5 168.5t-217.5 53.5h-197v219h197zM1051 1622h-266v204h266v-204zM551 1622h-266v204h266v-204z" />
<glyph unicode="&#x4df;" horiz-adv-x="1140" d="M568 646q85 0 129.5 31.5t44.5 87.5q0 51 -43 87.5t-130 36.5q-80 0 -129 -32t-49 -86h-281l-2 6q-6 145 123 234.5t323 89.5q219 0 349 -82.5t130 -232.5q0 -72 -48.5 -132.5t-133.5 -96.5q98 -33 150 -97t52 -154q0 -151 -140 -238.5t-359 -87.5q-193 0 -331 86 t-132 248l2 6h281q0 -55 51 -92.5t145 -37.5q91 0 141.5 39.5t50.5 95.5q0 69 -50 102t-144 33h-176v186h176zM950 1278h-266v204h266v-204zM450 1278h-266v204h266v-204z" />
<glyph unicode="&#x4e0;" horiz-adv-x="1186" d="M751 1225l-3 6h-604v225h946l1 -183l-365 -408q190 -31 292.5 -148.5t102.5 -308.5q0 -201 -147.5 -315t-384.5 -114q-208 0 -356.5 107t-143.5 312l2 6h283q0 -86 59 -143.5t156 -57.5q111 0 175.5 58.5t64.5 149.5q0 143 -70 208t-210 65h-135v182z" />
<glyph unicode="&#x4e1;" horiz-adv-x="1186" d="M745 851l-2 5h-606v226h953l1 -184l-361 -408q188 -32 289.5 -149.5t101.5 -307.5q0 -199 -147.5 -313.5t-384.5 -114.5q-208 0 -356.5 107.5t-143.5 310.5l2 6h283q0 -84 59 -141.5t156 -57.5q111 0 175.5 58.5t64.5 147.5q0 143 -70 208.5t-210 65.5h-135v181z" />
<glyph unicode="&#x4e2;" horiz-adv-x="1431" d="M1009 1456h292v-1456h-292v973l-6 1l-588 -974h-291v1456h291v-972l6 -1zM1080 1613h-731v165h731v-165z" />
<glyph unicode="&#x4e3;" d="M758 1082h291v-1082h-291v660l-6 1l-353 -661h-292v1082h292v-658l6 -1zM945 1271h-731v165h731v-165z" />
<glyph unicode="&#x4e4;" horiz-adv-x="1431" d="M1009 1456h292v-1456h-292v973l-6 1l-588 -974h-291v1456h291v-972l6 -1zM1096 1601h-266v204h266v-204zM596 1601h-266v204h266v-204z" />
<glyph unicode="&#x4e5;" d="M758 1082h291v-1082h-291v660l-6 1l-353 -661h-292v1082h292v-658l6 -1zM961 1258h-266v204h266v-204zM461 1258h-266v204h266v-204z" />
<glyph unicode="&#x4e6;" horiz-adv-x="1409" d="M1312 597q0 -269 -169 -443.5t-440 -174.5q-270 0 -438 175t-168 443v262q0 267 167.5 442.5t436.5 175.5q271 0 441 -175.5t170 -442.5v-262zM1021 861q0 170 -85 279t-235 109q-148 0 -230.5 -109t-82.5 -279v-264q0 -173 83 -282t232 -109q150 0 234 109t84 282v264z M1088 1622h-266v204h266v-204zM588 1622h-266v204h266v-204z" />
<glyph unicode="&#x4e7;" d="M67 551q0 242 135 396.5t374 154.5q240 0 376 -154t136 -397v-21q0 -244 -135.5 -397.5t-374.5 -153.5q-240 0 -375.5 153.5t-135.5 397.5v21zM358 530q0 -148 52 -237.5t168 -89.5q113 0 165.5 90t52.5 237v21q0 144 -53 235t-167 91q-113 0 -165.5 -91.5t-52.5 -234.5 v-21zM960 1279h-266v204h266v-204zM460 1279h-266v204h266v-204z" />
<glyph unicode="&#x4e8;" horiz-adv-x="1410" d="M1312 597q0 -269 -169 -443.5t-440 -174.5q-270 0 -438 175t-168 443v262q0 267 167.5 442.5t436.5 175.5q271 0 441 -175.5t170 -442.5v-262zM889 754q34 0 71 19.5t61 51.5v36q0 170 -85 279t-235 109q-148 0 -230.5 -109t-82.5 -279v-75q30 39 73.5 61t98.5 22 q67 0 167.5 -57.5t161.5 -57.5zM1021 618q-31 -31 -72.5 -48t-90.5 -17q-83 0 -174.5 58t-153.5 58q-44 0 -86 -32t-55 -76q8 -159 90.5 -257t223.5 -98q150 0 234 109t84 282v21z" />
<glyph unicode="&#x4e9;" d="M67 551q0 242 135 396.5t374 154.5q240 0 376 -154t136 -397v-21q0 -244 -135.5 -397.5t-374.5 -153.5q-240 0 -375.5 153.5t-135.5 397.5v21zM712 567q25 0 46.5 17t32.5 46q-13 112 -65.5 179.5t-149.5 67.5q-107 0 -158.5 -80t-50.5 -201l4 -4q13 24 42 40t62 16 q48 0 120.5 -40.5t116.5 -40.5zM451 493q-30 0 -53.5 -24t-29.5 -59q17 -97 68.5 -152t141.5 -55q97 0 148.5 67.5t56.5 176.5l-3 5q-13 -19 -38 -30t-53 -11q-60 0 -127 41t-111 41z" />
<glyph unicode="&#x4ea;" horiz-adv-x="1410" d="M1312 597q0 -269 -169 -443.5t-440 -174.5q-270 0 -438 175t-168 443v262q0 267 167.5 442.5t436.5 175.5q271 0 441 -175.5t170 -442.5v-262zM889 754q34 0 71 19.5t61 51.5v36q0 170 -85 279t-235 109q-148 0 -230.5 -109t-82.5 -279v-75q30 39 73.5 61t98.5 22 q67 0 167.5 -57.5t161.5 -57.5zM1021 618q-31 -31 -72.5 -48t-90.5 -17q-83 0 -174.5 58t-153.5 58q-44 0 -86 -32t-55 -76q8 -159 90.5 -257t223.5 -98q150 0 234 109t84 282v21zM1111 1596h-266v204h266v-204zM611 1596h-266v204h266v-204z" />
<glyph unicode="&#x4eb;" d="M67 551q0 242 135 396.5t374 154.5q240 0 376 -154t136 -397v-21q0 -244 -135.5 -397.5t-374.5 -153.5q-240 0 -375.5 153.5t-135.5 397.5v21zM712 567q25 0 46.5 17t32.5 46q-13 112 -65.5 179.5t-149.5 67.5q-107 0 -158.5 -80t-50.5 -201l4 -4q13 24 42 40t62 16 q48 0 120.5 -40.5t116.5 -40.5zM451 493q-30 0 -53.5 -24t-29.5 -59q17 -97 68.5 -152t141.5 -55q97 0 148.5 67.5t56.5 176.5l-3 5q-13 -19 -38 -30t-53 -11q-60 0 -127 41t-111 41zM942 1307h-266v204h266v-204zM442 1307h-266v204h266v-204z" />
<glyph unicode="&#x4ec;" horiz-adv-x="1288" d="M94 974l-2 6q-5 232 137.5 365t399.5 133q253 0 407.5 -169t154.5 -436v-289q0 -268 -154.5 -436t-407.5 -168q-259 0 -401 128.5t-137 366.5l2 6h283q0 -142 60.5 -209.5t192.5 -67.5q129 0 199 104.5t70 273.5v43h-447v225h447v23q0 168 -70 274t-199 106 q-131 0 -191 -68.5t-60 -210.5h-284zM1026 1623h-266v204h266v-204zM526 1623h-266v204h266v-204z" />
<glyph unicode="&#x4ed;" horiz-adv-x="1064" d="M505 877q-77 0 -123 -46t-46 -120h-266l-2 6q-5 163 122 274t315 111q237 0 369 -154.5t132 -392.5v-30q0 -238 -132 -392t-368 -154q-199 0 -321 113.5t-117 300.5l2 6h266q0 -85 45 -140.5t125 -55.5q96 0 144.5 69.5t56.5 180.5l-3 5h-281v175h280l2 5 q-8 106 -56.5 172.5t-143.5 66.5zM918 1279h-266v204h266v-204zM418 1279h-266v204h266v-204z" />
<glyph unicode="&#x4ee;" horiz-adv-x="1310" d="M637 809l26 -88l6 -1l306 736h309l-531 -1180q-63 -141 -152 -219t-249 -78q-60 0 -107 10.5t-108 30.5l34 209q45 -13 79.5 -19.5t69.5 -6.5q82 0 126 35.5t69 105.5l22 55l-513 1057h315zM1021 1613h-731v165h731v-165z" />
<glyph unicode="&#x4ef;" horiz-adv-x="1046" d="M502 454l12 -60h6l207 688h314l-439 -1244q-46 -116 -125 -195.5t-237 -79.5q-37 0 -68.5 6t-76.5 17l34 213q13 -2 28 -4t27 -2q72 0 111 35.5t60 88.5l34 84l-384 1081h314zM890 1271h-731v165h731v-165z" />
<glyph unicode="&#x4f0;" horiz-adv-x="1310" d="M637 809l26 -88l6 -1l306 736h309l-531 -1180q-63 -141 -152 -219t-249 -78q-60 0 -107 10.5t-108 30.5l34 209q45 -13 79.5 -19.5t69.5 -6.5q82 0 126 35.5t69 105.5l22 55l-513 1057h315zM1037 1601h-266v204h266v-204zM537 1601h-266v204h266v-204z" />
<glyph unicode="&#x4f1;" horiz-adv-x="1046" d="M502 454l12 -60h6l207 688h314l-439 -1244q-46 -116 -125 -195.5t-237 -79.5q-37 0 -68.5 6t-76.5 17l34 213q13 -2 28 -4t27 -2q72 0 111 35.5t60 88.5l34 84l-384 1081h314zM907 1258h-266v204h266v-204zM407 1258h-266v204h266v-204z" />
<glyph unicode="&#x4f2;" horiz-adv-x="1310" d="M637 809l26 -88l6 -1l306 736h309l-531 -1180q-63 -141 -152 -219t-249 -78q-60 0 -107 10.5t-108 30.5l34 209q45 -13 79.5 -19.5t69.5 -6.5q82 0 126 35.5t69 105.5l22 55l-513 1057h315zM931 1867h279l2 -6l-285 -260h-234l-2 5zM543 1867h275l2 -5l-240 -261h-235z " />
<glyph unicode="&#x4f3;" horiz-adv-x="1046" d="M502 454l12 -60h6l207 688h314l-439 -1244q-46 -116 -125 -195.5t-237 -79.5q-37 0 -68.5 6t-76.5 17l34 213q13 -2 28 -4t27 -2q72 0 111 35.5t60 88.5l34 84l-384 1081h314zM800 1524h279l2 -6l-285 -260h-234l-2 5zM412 1524h275l2 -5l-240 -261h-235z" />
<glyph unicode="&#x4f4;" horiz-adv-x="1420" d="M1288 1456v-1456h-293v561q-66 -16 -148 -24.5t-147 -8.5q-268 0 -414.5 116t-146.5 359v453h292v-453q0 -142 63.5 -196t205.5 -54q62 0 145.5 8.5t149.5 24.5v670h293zM1140 1601h-266v204h266v-204zM640 1601h-266v204h266v-204z" />
<glyph unicode="&#x4f5;" horiz-adv-x="1147" d="M1041 0h-292v343q-37 -8 -75.5 -11.5t-72.5 -3.5q-239 0 -368.5 102t-129.5 312v340h292v-340q0 -107 47 -148t159 -41q37 0 73.5 4t74.5 12v513h292v-1082zM953 1258h-266v204h266v-204zM453 1258h-266v204h266v-204z" />
<glyph unicode="&#x4f6;" horiz-adv-x="1137" d="M1081 1231h-657v-1231h-292v1456h949v-225zM607 -357h-292v591h292v-591z" />
<glyph unicode="&#x4f7;" horiz-adv-x="855" d="M846 856h-447v-856h-292v1082h739v-226zM539 -357h-292v591h292v-591z" />
<glyph unicode="&#x4f8;" horiz-adv-x="1777" d="M424 944h250q251 0 399 -131t148 -339q0 -210 -148.5 -342t-398.5 -132h-542v1456h292v-512zM424 719v-495h250q123 0 189.5 73t66.5 179q0 102 -66.5 172.5t-189.5 70.5h-250zM1644 0h-292v1456h292v-1456zM1271 1601h-266v204h266v-204zM771 1601h-266v204h266v-204z " />
<glyph unicode="&#x4f9;" horiz-adv-x="1703" d="M442 732h203q218 0 343 -100.5t125 -263.5q0 -165 -125 -266.5t-343 -101.5h-496v1082h293v-350zM442 508v-285h203q89 0 133 40t44 103q0 61 -44 101.5t-133 40.5h-203zM1507 0h-292v1082h292v-1082zM1231 1258h-266v204h266v-204zM731 1258h-266v204h266v-204z" />
<glyph unicode="&#x4fa;" horiz-adv-x="1231" d="M1174 1231h-657v-1231h-292v1456h949v-225zM745 711h-671v181h671v-181zM689 247v-287q0 -190 -101 -293.5t-281 -103.5q-40 0 -73 4t-70 13l14 224q22 -5 47 -8.5t51 -3.5q58 0 89 43t31 125v287h293z" />
<glyph unicode="&#x4fb;" horiz-adv-x="864" d="M944 856h-447v-856h-292v1082h739v-226zM746 536h-671v181h671v-181zM673 247v-287q0 -190 -101 -293.5t-281 -103.5q-40 0 -73 4t-70 13l14 224q22 -5 47 -8.5t51 -3.5q58 0 89 43t31 125v287h293z" />
<glyph unicode="&#x4fc;" horiz-adv-x="1303" d="M649 940l273 516h340l-432 -722l457 -734h-353l-281 525l-281 -525h-341l443 734l-432 722h338zM1424 247v-287q0 -190 -101 -293.5t-281 -103.5q-40 0 -73 4t-70 13l14 224q22 -5 47 -8.5t51 -3.5q58 0 89 43t31 125v287h293z" />
<glyph unicode="&#x4fd;" horiz-adv-x="1046" d="M519 738h6l166 344h330l-326 -535l337 -547h-329l-177 359l-177 -359h-330l337 547l-327 535h328zM1183 247v-287q0 -190 -101 -293.5t-281 -103.5q-40 0 -73 4t-70 13l14 224q22 -5 47 -8.5t51 -3.5q58 0 89 43t31 125v287h293z" />
<glyph unicode="&#x4fe;" horiz-adv-x="1303" d="M994 656h-116l409 -656h-353l-281 525l-281 -525h-341l396 656h-104v181h89l-370 619h338l269 -516l273 516h340l-371 -619h103v-181z" />
<glyph unicode="&#x4ff;" horiz-adv-x="1046" d="M865 465h-120l287 -465h-329l-177 359l-177 -359h-330l286 465h-111v181h101l-266 436h328l162 -344h6l166 344h330l-266 -436h110v-181z" />
<glyph unicode="&#x500;" horiz-adv-x="1283" d="M873 944v512h292v-1456h-543q-251 0 -398.5 132t-147.5 342q0 208 147.5 339t398.5 131h251zM873 224v495h-251q-123 0 -188.5 -70.5t-65.5 -172.5q0 -106 65.5 -179t188.5 -73h251z" />
<glyph unicode="&#x501;" d="M67 532q0 256 110.5 413t311.5 157q81 0 146 -35t114 -100v593h293v-1560h-249l-25 133q-51 -75 -121 -114.5t-160 -39.5q-199 0 -309.5 146t-110.5 386v21zM358 511q0 -142 48 -223.5t156 -81.5q63 0 110 25.5t77 74.5v461q-30 51 -76.5 79.5t-108.5 28.5 q-107 0 -156.5 -95t-49.5 -248v-21z" />
<glyph unicode="&#x502;" horiz-adv-x="1848" d="M661 0q-251 0 -399 132t-148 342q0 208 148 339t399 131h251v512h291v-1231h69q91 1 140.5 53.5t53.5 146.5q1 76 -14.5 159t-45.5 161h285q33 -99 51 -174t16 -146q-4 -205 -144 -315t-342 -110h-611zM912 224v495h-251q-124 0 -189.5 -70.5t-65.5 -172.5 q0 -106 66 -179t189 -73h251z" />
<glyph unicode="&#x503;" horiz-adv-x="1748" d="M90 532q0 256 111 413t312 157q75 0 136 -29.5t108 -85.5v573h292v-1188q-1 -74 31.5 -120t87.5 -46q98 1 151.5 86.5t57.5 236.5q1 97 -14.5 199t-45.5 204h285q34 -127 51.5 -219.5t15.5 -183.5q-4 -266 -147 -408t-354 -142q-132 -2 -223 41.5t-138 138.5 q-52 -88 -125 -134t-171 -46q-200 0 -310.5 146t-110.5 386v21zM757 790q-30 41 -72.5 63t-97.5 22q-107 0 -156 -95t-49 -248v-21q0 -142 47.5 -223.5t155.5 -81.5q59 0 104.5 23t75.5 66q-4 18 -6 37.5t-2 39.5v418z" />
<glyph unicode="&#x504;" horiz-adv-x="1615" d="M651 382q0 99 -56 159.5t-149 60.5h-237v227h180q141 0 203.5 52t62.5 161q0 88 -59.5 137t-186.5 49h-344v228h344q261 0 399.5 -106.5t138.5 -309.5q0 -116 -70 -199t-203 -132q143 -35 206 -118t63 -207v-68q-1 -48 21.5 -79t61.5 -31q93 1 144 86.5t55 236.5 q1 97 -14.5 199t-45.5 204h285q34 -134 51 -223.5t16 -179.5q-4 -266 -148.5 -408t-357.5 -142q-168 -3 -260 78.5t-100 258.5v66z" />
<glyph unicode="&#x505;" horiz-adv-x="1316" d="M791 253q-1 -44 14.5 -68.5t53.5 -24.5q68 1 106 69t42 190q1 76 -15 158t-46 161h285q34 -102 52 -175t16 -144q-4 -215 -125.5 -330.5t-299.5 -115.5q-184 -3 -274.5 54t-100.5 187v75q0 50 -28.5 78t-81.5 28h-257l-2 213h183q80 0 117.5 30t37.5 86q0 60 -38 96 t-117 36h-262l-6 226h268q213 0 330 -85t117 -238q0 -79 -41 -135.5t-121 -92.5q102 -25 147.5 -84t45.5 -144v-50v0z" />
<glyph unicode="&#x506;" horiz-adv-x="1203" d="M130 583l-2 225h243q123 0 183 51.5t60 153.5q0 100 -60.5 159t-177.5 59h-304l-6 225h310q248 0 389 -113.5t141 -316.5q0 -113 -59 -194t-173 -131q128 -38 184.5 -126.5t56.5 -219.5v-108q0 -60 17 -127t56 -98v-22h-301q-40 32 -51.5 106t-11.5 143v104 q0 108 -59.5 169t-168.5 61h-266zM1079 11l-159 -315h-195l70 324v228h284v-237z" />
<glyph unicode="&#x507;" horiz-adv-x="1149" d="M164 391l-2 196h254q84 0 130 34.5t46 94.5q0 61 -46.5 102t-129.5 41h-298l-8 223h306q215 0 342 -93t127 -252q0 -80 -41.5 -140.5t-121.5 -101.5q93 -34 134.5 -100.5t41.5 -159.5v-77q0 -33 8.5 -79.5t28.5 -64.5v-14h-301q-18 17 -22.5 65t-4.5 94v75 q0 76 -47 116.5t-136 40.5h-260zM1063 -9l-159 -315h-195l70 324v228h284v-237z" />
<glyph unicode="&#x508;" horiz-adv-x="1978" d="M1013 1228h-381v-460q0 -398 -118.5 -583t-395.5 -185h-53v227h41q124 0 179 126.5t55 414.5v688h964v-1084q-1 -74 31.5 -120t88.5 -46q97 1 151 86.5t58 236.5q1 97 -15 198.5t-46 204.5h285q33 -122 51 -216.5t16 -186.5q-4 -266 -147 -408t-353 -142q-191 -3 -296 92 t-115 301v856z" />
<glyph unicode="&#x509;" horiz-adv-x="1737" d="M767 853h-204v-231q0 -318 -99.5 -470t-331.5 -152h-72l4 242l41 1q90 0 128.5 88.5t38.5 290.5v460h787v-710q-1 -74 35.5 -120t99.5 -46q75 1 116.5 75.5t45.5 206.5q1 92 -14.5 188.5t-45.5 192.5h285q34 -123 52 -209t16 -172q-4 -246 -134 -377.5t-321 -131.5 q-199 -3 -308 92t-119 301v481z" />
<glyph unicode="&#x50a;" horiz-adv-x="2038" d="M1307 1456v-1084q-1 -74 31.5 -120t87.5 -46q98 1 152 86.5t58 236.5q1 97 -15 198.5t-46 204.5h285q34 -127 51.5 -219.5t15.5 -183.5q-4 -266 -147 -408t-354 -142q-191 -3 -296 92t-115 301v233h-589v-605h-293v1456h293v-626h589v626h292z" />
<glyph unicode="&#x50b;" horiz-adv-x="1690" d="M751 429h-367v-429h-292v1082h292v-426h367v426h292v-710q-2 -74 34.5 -120t99.5 -46q76 1 118 75.5t46 206.5q1 91 -14.5 187.5t-45.5 193.5h284q34 -126 51 -211t16 -170q-4 -246 -134 -377.5t-321 -131.5q-198 -3 -307 92t-119 301v57z" />
<glyph unicode="&#x50c;" horiz-adv-x="1296" d="M701 -21q-278 0 -452 174.5t-174 443.5v262q0 268 174 443t452 175q113 0 202 -22.5t157 -66.5l-63 -207q-67 33 -139 50.5t-157 17.5q-153 0 -243.5 -112t-90.5 -276v-264q0 -167 90.5 -279t243.5 -112q112 1 173.5 62t65.5 170q1 80 -12.5 167t-37.5 181h284 q38 -166 48 -219.5t9 -128.5q-4 -223 -155 -341t-375 -118z" />
<glyph unicode="&#x50d;" horiz-adv-x="1085" d="M612 206q69 1 96.5 30.5t30.5 90.5q0 52 -5 106.5t-14 103.5h284q13 -65 20 -115t7 -95q-4 -171 -119 -259.5t-300 -88.5q-252 0 -397 156.5t-145 384.5v42q0 226 140 383t381 157q94 0 165 -17.5t118 -48.5l-46 -220q-47 27 -107.5 42.5t-129.5 15.5q-113 0 -171 -93.5 t-58 -218.5v-42q0 -128 62.5 -221t187.5 -93z" />
<glyph unicode="&#x50e;" horiz-adv-x="1446" d="M465 1228h-433v228h1152v-228h-427v-856q-1 -74 31.5 -120t87.5 -46q98 1 152 86.5t58 236.5q1 97 -15 198.5t-46 204.5h285q33 -122 51 -216.5t16 -186.5q-4 -266 -147 -408t-354 -142q-191 -3 -296 92t-115 301v856z" />
<glyph unicode="&#x50f;" horiz-adv-x="1305" d="M360 856h-294v226h907v-226h-321v-484q-1 -74 35 -120t99 -46q76 1 118 58.5t46 160.5q1 69 -14.5 144.5t-45.5 147.5h285q34 -93 52 -160.5t16 -131.5q-5 -215 -135.5 -330.5t-321.5 -115.5q-198 -3 -307 92t-119 301v484z" />
<glyph unicode="&#x510;" horiz-adv-x="1345" d="M111 408q0 124 68 210.5t198 129.5q-115 47 -179.5 130t-64.5 183q0 200 155 308t422 108q228 0 385 -112.5t152 -293.5l-1 -6h-284q0 82 -72.5 134.5t-179.5 52.5q-141 0 -213 -55.5t-72 -139.5q0 -97 65 -151t203 -54h197v-219h-197q-145 0 -218 -53.5t-73 -168.5 q0 -91 82 -149.5t226 -58.5q118 0 195.5 58t77.5 143h283l1 -6q5 -205 -162 -312t-395 -107q-268 0 -433.5 114t-165.5 315z" />
<glyph unicode="&#x511;" horiz-adv-x="1140" d="M584 458q-96 0 -147 -32t-51 -101q0 -55 51.5 -94.5t144.5 -39.5q94 0 147 37t53 92h281l2 -6q5 -162 -134.5 -248t-332.5 -86q-220 0 -361.5 87.5t-141.5 238.5q0 90 52.5 154t151.5 97q-87 36 -136 96.5t-49 132.5q0 150 132 232.5t352 82.5q193 0 324 -89.5 t126 -234.5l-2 -6h-282q0 54 -51 86t-130 32q-89 0 -133.5 -37t-44.5 -87q0 -55 46 -86.5t133 -31.5h187v-189h-187z" />
<glyph unicode="&#x512;" horiz-adv-x="1444" d="M1311 1456v-1456h-292v1231h-414v-438q0 -422 -127.5 -607.5t-392.5 -185.5h-43v224h40q137 0 184 122t47 447v663h998zM1603 247v-287q0 -190 -101 -293.5t-281 -103.5q-40 0 -73 4t-70 13l14 224q22 -5 47 -8.5t51 -3.5q58 0 89 43t31 125v287h293z" />
<glyph unicode="&#x513;" horiz-adv-x="1149" d="M1049 1082v-1082h-291v856h-260v-235q0 -320 -98 -470.5t-335 -150.5h-47l-3 230l31 1q100 0 130 82t30 308v461h843zM1341 247v-287q0 -190 -101 -293.5t-281 -103.5q-40 0 -73 4t-70 13l14 224q22 -5 47 -8.5t51 -3.5q58 0 89 43t31 125v287h293z" />
<glyph unicode="&#x1e00;" horiz-adv-x="1303" d="M893 314h-472l-98 -314h-305l491 1456h299l489 -1456h-305zM493 543h329l-161 513h-6zM467 -228q0 71 53 118t131 47q76 0 128 -47t52 -118q0 -70 -52 -116t-128 -46q-79 0 -131.5 46t-52.5 116zM581 -228q0 -29 19.5 -48.5t50.5 -19.5q29 0 47.5 19t18.5 49 q0 32 -18.5 51.5t-47.5 19.5q-31 0 -50.5 -19.5t-19.5 -51.5z" />
<glyph unicode="&#x1e01;" horiz-adv-x="1100" d="M750 0q-16 37 -27.5 78t-16.5 84q-45 -79 -119 -131t-176 -52q-170 0 -262 87.5t-92 238.5q0 159 122.5 246.5t357.5 87.5h164v86q0 78 -41 121t-122 43q-71 0 -109.5 -34.5t-38.5 -94.5h-281l-2 6q-7 137 119.5 236.5t330.5 99.5q195 0 315.5 -98t120.5 -281v-447 q0 -76 11.5 -143t36.5 -133h-291zM483 195q76 0 136 38t82 88v153h-164q-93 0 -140.5 -46t-47.5 -113q0 -55 35.5 -87.5t98.5 -32.5zM290 -214q0 71 53 118t131 47q76 0 128 -47t52 -118q0 -70 -52 -116t-128 -46q-79 0 -131.5 46t-52.5 116zM404 -214q0 -29 19.5 -48.5 t50.5 -19.5q29 0 47.5 19t18.5 49q0 32 -18.5 51.5t-47.5 19.5q-31 0 -50.5 -19.5t-19.5 -51.5z" />
<glyph unicode="&#x1e3e;" horiz-adv-x="1782" d="M887 383h6l374 1073h381v-1456h-292v994l-6 1l-360 -995h-198l-360 997l-6 -1v-996h-292v1456h383zM948 1866h325l2 -6l-277 -260h-249z" />
<glyph unicode="&#x1e3f;" horiz-adv-x="1772" d="M383 1082l12 -143q52 78 130.5 120.5t181.5 42.5q104 0 178 -46t112 -139q50 87 130 136t188 49q160 0 252.5 -113.5t92.5 -346.5v-642h-292v643q0 130 -40 181t-119 51q-62 0 -107.5 -27.5t-72.5 -76.5q0 -19 1 -32.5t1 -27.5v-711h-291v643q0 127 -40 179.5t-120 52.5 q-59 0 -103.5 -22.5t-73.5 -63.5v-789h-291v1082h271zM965 1544h325l2 -6l-277 -260h-249z" />
<glyph unicode="&#x1e80;" horiz-adv-x="1804" d="M1283 468h6l193 988h301l-340 -1456h-271l-268 959h-6l-267 -959h-271l-340 1456h301l194 -987h6l262 987h236zM1042 1600h-251l-272 260l2 6h325z" />
<glyph unicode="&#x1e81;" horiz-adv-x="1507" d="M1053 402h6l131 680h284l-275 -1082h-244l-201 624h-6l-201 -624h-243l-275 1082h284l133 -677h6l202 677h195zM892 1257h-251l-272 260l2 6h325z" />
<glyph unicode="&#x1e82;" horiz-adv-x="1804" d="M1283 468h6l193 988h301l-340 -1456h-271l-268 959h-6l-267 -959h-271l-340 1456h301l194 -987h6l262 987h236zM960 1866h325l2 -6l-277 -260h-249z" />
<glyph unicode="&#x1e83;" horiz-adv-x="1507" d="M1053 402h6l131 680h284l-275 -1082h-244l-201 624h-6l-201 -624h-243l-275 1082h284l133 -677h6l202 677h195zM810 1523h325l2 -6l-277 -260h-249z" />
<glyph unicode="&#x1e84;" horiz-adv-x="1804" d="M1283 468h6l193 988h301l-340 -1456h-271l-268 959h-6l-267 -959h-271l-340 1456h301l194 -987h6l262 987h236zM1285 1601h-266v204h266v-204zM785 1601h-266v204h266v-204z" />
<glyph unicode="&#x1e85;" horiz-adv-x="1507" d="M1053 402h6l131 680h284l-275 -1082h-244l-201 624h-6l-201 -624h-243l-275 1082h284l133 -677h6l202 677h195zM1135 1258h-266v204h266v-204zM635 1258h-266v204h266v-204z" />
<glyph unicode="&#x1ea0;" horiz-adv-x="1303" d="M893 314h-472l-98 -314h-305l491 1456h299l489 -1456h-305zM493 543h329l-161 513h-6zM820 -354h-327v241h327v-241z" />
<glyph unicode="&#x1ea1;" horiz-adv-x="1100" d="M750 0q-16 37 -27.5 78t-16.5 84q-45 -79 -119 -131t-176 -52q-170 0 -262 87.5t-92 238.5q0 159 122.5 246.5t357.5 87.5h164v86q0 78 -41 121t-122 43q-71 0 -109.5 -34.5t-38.5 -94.5h-281l-2 6q-7 137 119.5 236.5t330.5 99.5q195 0 315.5 -98t120.5 -281v-447 q0 -76 11.5 -143t36.5 -133h-291zM483 195q76 0 136 38t82 88v153h-164q-93 0 -140.5 -46t-47.5 -113q0 -55 35.5 -87.5t98.5 -32.5zM643 -340h-327v241h327v-241z" />
<glyph unicode="&#x1ea2;" horiz-adv-x="1303" d="M893 314h-472l-98 -314h-305l491 1456h299l489 -1456h-305zM493 543h329l-161 513h-6zM544 1586l-16 137q74 3 105.5 18t26.5 45v6q5 35 -32 50.5t-104 15.5l7 133q185 0 283 -52t98 -143q0 -64 -43 -100t-107 -45v-65h-218z" />
<glyph unicode="&#x1ea3;" horiz-adv-x="1100" d="M750 0q-16 37 -27.5 78t-16.5 84q-45 -79 -119 -131t-176 -52q-170 0 -262 87.5t-92 238.5q0 159 122.5 246.5t357.5 87.5h164v86q0 78 -41 121t-122 43q-71 0 -109.5 -34.5t-38.5 -94.5h-281l-2 6q-7 137 119.5 236.5t330.5 99.5q195 0 315.5 -98t120.5 -281v-447 q0 -76 11.5 -143t36.5 -133h-291zM483 195q76 0 136 38t82 88v153h-164q-93 0 -140.5 -46t-47.5 -113q0 -55 35.5 -87.5t98.5 -32.5zM437 1264l-16 137q74 3 105.5 18t26.5 45v6q5 35 -32 50.5t-104 15.5l7 133q185 0 283 -52t98 -143q0 -64 -43 -100t-107 -45v-65h-218z " />
<glyph unicode="&#x1ea4;" horiz-adv-x="1303" d="M893 314h-472l-98 -314h-305l491 1456h299l489 -1456h-305zM493 543h329l-161 513h-6zM536 1842h240l296 -253l-2 -6h-262l-153 143l-151 -143h-263l-2 6zM1131 2026h270l-214 -271h-204z" />
<glyph unicode="&#x1ea5;" horiz-adv-x="1100" d="M750 0q-16 37 -27.5 78t-16.5 84q-45 -79 -119 -131t-176 -52q-170 0 -262 87.5t-92 238.5q0 159 122.5 246.5t357.5 87.5h164v86q0 78 -41 121t-122 43q-71 0 -109.5 -34.5t-38.5 -94.5h-281l-2 6q-7 137 119.5 236.5t330.5 99.5q195 0 315.5 -98t120.5 -281v-447 q0 -76 11.5 -143t36.5 -133h-291zM483 195q76 0 136 38t82 88v153h-164q-93 0 -140.5 -46t-47.5 -113q0 -55 35.5 -87.5t98.5 -32.5zM429 1520h240l296 -253l-2 -6h-262l-153 143l-151 -143h-263l-2 6zM1024 1704h270l-214 -271h-204z" />
<glyph unicode="&#x1ea6;" horiz-adv-x="1303" d="M893 314h-472l-98 -314h-305l491 1456h299l489 -1456h-305zM493 543h329l-161 513h-6zM1069 1581l-2 -6h-262l-152 143l-152 -143h-263l-2 6l297 253h240zM326 1747h-204l-213 271h268z" />
<glyph unicode="&#x1ea7;" horiz-adv-x="1100" d="M750 0q-16 37 -27.5 78t-16.5 84q-45 -79 -119 -131t-176 -52q-170 0 -262 87.5t-92 238.5q0 159 122.5 246.5t357.5 87.5h164v86q0 78 -41 121t-122 43q-71 0 -109.5 -34.5t-38.5 -94.5h-281l-2 6q-7 137 119.5 236.5t330.5 99.5q195 0 315.5 -98t120.5 -281v-447 q0 -76 11.5 -143t36.5 -133h-291zM483 195q76 0 136 38t82 88v153h-164q-93 0 -140.5 -46t-47.5 -113q0 -55 35.5 -87.5t98.5 -32.5zM962 1259l-2 -6h-262l-152 143l-152 -143h-263l-2 6l297 253h240zM219 1425h-204l-213 271h268z" />
<glyph unicode="&#x1ea8;" horiz-adv-x="1303" d="M893 314h-472l-98 -314h-305l491 1456h299l489 -1456h-305zM493 543h329l-161 513h-6zM773 1806h-250l-293 -253l3 -6h255l159 153l160 -153h255l3 6zM991 1683l-13 116q62 3 88.5 15t22.5 37v6q4 30 -27 43.5t-88 13.5l7 111q156 0 238.5 -43.5t82.5 -120.5 q0 -55 -36.5 -85.5t-89.5 -37.5v-55h-185z" />
<glyph unicode="&#x1ea9;" horiz-adv-x="1100" d="M750 0q-16 37 -27.5 78t-16.5 84q-45 -79 -119 -131t-176 -52q-170 0 -262 87.5t-92 238.5q0 159 122.5 246.5t357.5 87.5h164v86q0 78 -41 121t-122 43q-71 0 -109.5 -34.5t-38.5 -94.5h-281l-2 6q-7 137 119.5 236.5t330.5 99.5q195 0 315.5 -98t120.5 -281v-447 q0 -76 11.5 -143t36.5 -133h-291zM483 195q76 0 136 38t82 88v153h-164q-93 0 -140.5 -46t-47.5 -113q0 -55 35.5 -87.5t98.5 -32.5zM666 1485h-250l-293 -253l3 -6h255l159 153l160 -153h255l3 6zM884 1362l-13 116q62 3 88.5 15t22.5 37v6q4 30 -27 43.5t-88 13.5l7 111 q156 0 238.5 -43.5t82.5 -120.5q0 -55 -36.5 -85.5t-89.5 -37.5v-55h-185z" />
<glyph unicode="&#x1eaa;" horiz-adv-x="1303" d="M893 314h-472l-98 -314h-305l491 1456h299l489 -1456h-305zM493 543h329l-161 513h-6zM1053 1540l-2 -6h-251l-158 137l-159 -137h-252l-2 6l294 228h238zM924 2015q0 -70 -42 -123t-106 -53q-51 0 -123 35t-109 35q-25 0 -40.5 -25t-15.5 -59l-112 30q0 69 40.5 123.5 t104.5 54.5q41 0 118 -34t115 -34q24 0 40.5 27t16.5 62z" />
<glyph unicode="&#x1eab;" horiz-adv-x="1100" d="M750 0q-16 37 -27.5 78t-16.5 84q-45 -79 -119 -131t-176 -52q-170 0 -262 87.5t-92 238.5q0 159 122.5 246.5t357.5 87.5h164v86q0 78 -41 121t-122 43q-71 0 -109.5 -34.5t-38.5 -94.5h-281l-2 6q-7 137 119.5 236.5t330.5 99.5q195 0 315.5 -98t120.5 -281v-447 q0 -76 11.5 -143t36.5 -133h-291zM483 195q76 0 136 38t82 88v153h-164q-93 0 -140.5 -46t-47.5 -113q0 -55 35.5 -87.5t98.5 -32.5zM946 1219l-2 -6h-251l-158 137l-159 -137h-252l-2 6l294 228h238zM817 1694q0 -70 -42 -123t-106 -53q-51 0 -123 35t-109 35 q-25 0 -40.5 -25t-15.5 -59l-112 30q0 69 40.5 123.5t104.5 54.5q41 0 118 -34t115 -34q24 0 40.5 27t16.5 62z" />
<glyph unicode="&#x1eac;" horiz-adv-x="1303" d="M893 314h-472l-98 -314h-305l491 1456h299l489 -1456h-305zM493 543h329l-161 513h-6zM1025 1615v-23h-232l-140 133l-139 -133h-227v26l282 240h169zM820 -354h-327v241h327v-241z" />
<glyph unicode="&#x1ead;" horiz-adv-x="1100" d="M750 0q-16 37 -27.5 78t-16.5 84q-45 -79 -119 -131t-176 -52q-170 0 -262 87.5t-92 238.5q0 159 122.5 246.5t357.5 87.5h164v86q0 78 -41 121t-122 43q-71 0 -109.5 -34.5t-38.5 -94.5h-281l-2 6q-7 137 119.5 236.5t330.5 99.5q195 0 315.5 -98t120.5 -281v-447 q0 -76 11.5 -143t36.5 -133h-291zM483 195q76 0 136 38t82 88v153h-164q-93 0 -140.5 -46t-47.5 -113q0 -55 35.5 -87.5t98.5 -32.5zM918 1293v-23h-232l-140 133l-139 -133h-227v26l282 240h169zM643 -340h-327v241h327v-241z" />
<glyph unicode="&#x1eae;" horiz-adv-x="1303" d="M893 314h-472l-98 -314h-305l491 1456h299l489 -1456h-305zM493 543h329l-161 513h-6zM978 1783l2 -6q6 -105 -88 -171.5t-252 -66.5q-159 0 -253 66.5t-87 171.5l2 6h212q0 -43 30.5 -71t95.5 -28q63 0 94 28t31 71h213zM683 2009h205l2 -5l-170 -184h-160z" />
<glyph unicode="&#x1eaf;" horiz-adv-x="1100" d="M750 0q-16 37 -27.5 78t-16.5 84q-45 -79 -119 -131t-176 -52q-170 0 -262 87.5t-92 238.5q0 159 122.5 246.5t357.5 87.5h164v86q0 78 -41 121t-122 43q-71 0 -109.5 -34.5t-38.5 -94.5h-281l-2 6q-7 137 119.5 236.5t330.5 99.5q195 0 315.5 -98t120.5 -281v-447 q0 -76 11.5 -143t36.5 -133h-291zM483 195q76 0 136 38t82 88v153h-164q-93 0 -140.5 -46t-47.5 -113q0 -55 35.5 -87.5t98.5 -32.5zM871 1461l2 -6q6 -105 -88 -171.5t-252 -66.5q-159 0 -253 66.5t-87 171.5l2 6h212q0 -43 30.5 -71t95.5 -28q63 0 94 28t31 71h213z M576 1687h205l2 -5l-170 -184h-160z" />
<glyph unicode="&#x1eb0;" horiz-adv-x="1303" d="M893 314h-472l-98 -314h-305l491 1456h299l489 -1456h-305zM493 543h329l-161 513h-6zM1000 1869l2 -6q5 -127 -90 -207.5t-255 -80.5q-162 0 -257 80.5t-89 207.5l2 6h197q0 -53 36 -87t111 -34q73 0 109 34t36 87h198zM790 1929h-228l-201 211l3 6h268z" />
<glyph unicode="&#x1eb1;" horiz-adv-x="1100" d="M750 0q-16 37 -27.5 78t-16.5 84q-45 -79 -119 -131t-176 -52q-170 0 -262 87.5t-92 238.5q0 159 122.5 246.5t357.5 87.5h164v86q0 78 -41 121t-122 43q-71 0 -109.5 -34.5t-38.5 -94.5h-281l-2 6q-7 137 119.5 236.5t330.5 99.5q195 0 315.5 -98t120.5 -281v-447 q0 -76 11.5 -143t36.5 -133h-291zM483 195q76 0 136 38t82 88v153h-164q-93 0 -140.5 -46t-47.5 -113q0 -55 35.5 -87.5t98.5 -32.5zM893 1547l2 -6q5 -127 -90 -207.5t-255 -80.5q-162 0 -257 80.5t-89 207.5l2 6h197q0 -53 36 -87t111 -34q73 0 109 34t36 87h198z M683 1607h-228l-201 211l3 6h268z" />
<glyph unicode="&#x1eb2;" horiz-adv-x="1303" d="M893 314h-472l-98 -314h-305l491 1456h299l489 -1456h-305zM493 543h329l-161 513h-6zM769 1806q0 -42 -31 -68.5t-94 -26.5q-66 0 -96.5 26.5t-30.5 68.5h-214l-1 -6q-7 -100 87 -163t255 -63q159 0 252.5 63t87.5 163l-1 6h-214zM536 1856l-16 109q71 2 101.5 13 t25.5 34v6q5 26 -30.5 38t-101.5 12l7 104q181 0 277 -40t96 -111q0 -50 -42 -77.5t-105 -34.5v-53h-212z" />
<glyph unicode="&#x1eb3;" horiz-adv-x="1100" d="M750 0q-16 37 -27.5 78t-16.5 84q-45 -79 -119 -131t-176 -52q-170 0 -262 87.5t-92 238.5q0 159 122.5 246.5t357.5 87.5h164v86q0 78 -41 121t-122 43q-71 0 -109.5 -34.5t-38.5 -94.5h-281l-2 6q-7 137 119.5 236.5t330.5 99.5q195 0 315.5 -98t120.5 -281v-447 q0 -76 11.5 -143t36.5 -133h-291zM483 195q76 0 136 38t82 88v153h-164q-93 0 -140.5 -46t-47.5 -113q0 -55 35.5 -87.5t98.5 -32.5zM662 1484q0 -42 -31 -68.5t-94 -26.5q-66 0 -96.5 26.5t-30.5 68.5h-214l-1 -6q-7 -100 87 -163t255 -63q159 0 252.5 63t87.5 163l-1 6 h-214zM429 1534l-16 109q71 2 101.5 13t25.5 34v6q5 26 -30.5 38t-101.5 12l7 104q181 0 277 -40t96 -111q0 -50 -42 -77.5t-105 -34.5v-53h-212z" />
<glyph unicode="&#x1eb4;" horiz-adv-x="1303" d="M893 314h-472l-98 -314h-305l491 1456h299l489 -1456h-305zM493 543h329l-161 513h-6zM985 1802l1 -6q6 -100 -87 -164t-251 -64t-251.5 64t-86.5 164l2 6h212q0 -43 30 -69.5t94 -26.5q63 0 93.5 26.5t30.5 69.5h213zM940 2074q0 -74 -47.5 -127.5t-116.5 -53.5 q-56 0 -125.5 34t-108.5 34q-29 0 -48 -25t-19 -61l-121 33q0 73 46.5 127.5t117.5 54.5q43 0 117.5 -33.5t116.5 -33.5q27 0 46.5 24.5t19.5 60.5z" />
<glyph unicode="&#x1eb5;" horiz-adv-x="1100" d="M750 0q-16 37 -27.5 78t-16.5 84q-45 -79 -119 -131t-176 -52q-170 0 -262 87.5t-92 238.5q0 159 122.5 246.5t357.5 87.5h164v86q0 78 -41 121t-122 43q-71 0 -109.5 -34.5t-38.5 -94.5h-281l-2 6q-7 137 119.5 236.5t330.5 99.5q195 0 315.5 -98t120.5 -281v-447 q0 -76 11.5 -143t36.5 -133h-291zM483 195q76 0 136 38t82 88v153h-164q-93 0 -140.5 -46t-47.5 -113q0 -55 35.5 -87.5t98.5 -32.5zM878 1480l1 -6q6 -100 -87 -164t-251 -64t-251.5 64t-86.5 164l2 6h212q0 -43 30 -69.5t94 -26.5q63 0 93.5 26.5t30.5 69.5h213zM833 1752 q0 -74 -47.5 -127.5t-116.5 -53.5q-56 0 -125.5 34t-108.5 34q-29 0 -48 -25t-19 -61l-121 33q0 73 46.5 127.5t117.5 54.5q43 0 117.5 -33.5t116.5 -33.5q27 0 46.5 24.5t19.5 60.5z" />
<glyph unicode="&#x1eb6;" horiz-adv-x="1303" d="M893 314h-472l-98 -314h-305l491 1456h299l489 -1456h-305zM493 543h329l-161 513h-6zM992 1896l2 -6q5 -127 -88.5 -207.5t-251.5 -80.5q-159 0 -253 80.5t-88 207.5l2 6h213q0 -53 30.5 -87t95.5 -34q63 0 93.5 34t30.5 87h214zM820 -354h-327v241h327v-241z" />
<glyph unicode="&#x1eb7;" horiz-adv-x="1100" d="M750 0q-16 37 -27.5 78t-16.5 84q-45 -79 -119 -131t-176 -52q-170 0 -262 87.5t-92 238.5q0 159 122.5 246.5t357.5 87.5h164v86q0 78 -41 121t-122 43q-71 0 -109.5 -34.5t-38.5 -94.5h-281l-2 6q-7 137 119.5 236.5t330.5 99.5q195 0 315.5 -98t120.5 -281v-447 q0 -76 11.5 -143t36.5 -133h-291zM483 195q76 0 136 38t82 88v153h-164q-93 0 -140.5 -46t-47.5 -113q0 -55 35.5 -87.5t98.5 -32.5zM885 1574l2 -6q5 -127 -88.5 -207.5t-251.5 -80.5q-159 0 -253 80.5t-88 207.5l2 6h213q0 -53 30.5 -87t95.5 -34q63 0 93.5 34t30.5 87 h214zM643 -340h-327v241h327v-241z" />
<glyph unicode="&#x1eb8;" horiz-adv-x="1139" d="M966 640h-540v-416h642v-224h-934v1456h932v-225h-640v-366h540v-225zM765 -344h-327v241h327v-241z" />
<glyph unicode="&#x1eb9;" horiz-adv-x="1071" d="M581 -21q-242 0 -378 148.5t-136 382.5v40q0 243 132 398t363 154q218 0 334.5 -133.5t116.5 -359.5v-151h-645l-3 -6q7 -111 67.5 -180t179.5 -69q98 0 166.5 20t141.5 61l79 -180q-65 -53 -176 -89t-242 -36zM562 877q-88 0 -135.5 -60.5t-57.5 -160.5l2 -5h356v22 q0 95 -39 149.5t-126 54.5zM736 -354h-327v241h327v-241z" />
<glyph unicode="&#x1eba;" horiz-adv-x="1139" d="M966 640h-540v-416h642v-224h-934v1456h932v-225h-640v-366h540v-225zM492 1586l-16 137q74 3 105.5 18t26.5 45v6q5 35 -32 50.5t-104 15.5l7 133q185 0 283 -52t98 -143q0 -64 -43 -100t-107 -45v-65h-218z" />
<glyph unicode="&#x1ebb;" horiz-adv-x="1071" d="M581 -21q-242 0 -378 148.5t-136 382.5v40q0 243 132 398t363 154q218 0 334.5 -133.5t116.5 -359.5v-151h-645l-3 -6q7 -111 67.5 -180t179.5 -69q98 0 166.5 20t141.5 61l79 -180q-65 -53 -176 -89t-242 -36zM562 877q-88 0 -135.5 -60.5t-57.5 -160.5l2 -5h356v22 q0 95 -39 149.5t-126 54.5zM430 1265l-16 137q74 3 105.5 18t26.5 45v6q5 35 -32 50.5t-104 15.5l7 133q185 0 283 -52t98 -143q0 -64 -43 -100t-107 -45v-65h-218z" />
<glyph unicode="&#x1ebc;" horiz-adv-x="1139" d="M966 640h-540v-416h642v-224h-934v1456h932v-225h-640v-366h540v-225zM975 1856q0 -96 -59.5 -163.5t-150.5 -67.5q-70 0 -158.5 43.5t-140.5 43.5q-36 0 -60 -32.5t-24 -77.5l-156 42q0 94 59.5 163.5t149.5 69.5q56 0 152 -43.5t148 -43.5q34 0 60 32t26 79z" />
<glyph unicode="&#x1ebd;" horiz-adv-x="1071" d="M581 -21q-242 0 -378 148.5t-136 382.5v40q0 243 132 398t363 154q218 0 334.5 -133.5t116.5 -359.5v-151h-645l-3 -6q7 -111 67.5 -180t179.5 -69q98 0 166.5 20t141.5 61l79 -180q-65 -53 -176 -89t-242 -36zM562 877q-88 0 -135.5 -60.5t-57.5 -160.5l2 -5h356v22 q0 95 -39 149.5t-126 54.5zM913 1535q0 -96 -59.5 -163.5t-150.5 -67.5q-70 0 -158.5 43.5t-140.5 43.5q-36 0 -60 -32.5t-24 -77.5l-156 42q0 94 59.5 163.5t149.5 69.5q56 0 152 -43.5t148 -43.5q34 0 60 32t26 79z" />
<glyph unicode="&#x1ebe;" horiz-adv-x="1139" d="M966 640h-540v-416h642v-224h-934v1456h932v-225h-640v-366h540v-225zM484 1842h240l296 -253l-2 -6h-262l-153 143l-151 -143h-263l-2 6zM1079 2026h270l-214 -271h-204z" />
<glyph unicode="&#x1ebf;" horiz-adv-x="1071" d="M581 -21q-242 0 -378 148.5t-136 382.5v40q0 243 132 398t363 154q218 0 334.5 -133.5t116.5 -359.5v-151h-645l-3 -6q7 -111 67.5 -180t179.5 -69q98 0 166.5 20t141.5 61l79 -180q-65 -53 -176 -89t-242 -36zM562 877q-88 0 -135.5 -60.5t-57.5 -160.5l2 -5h356v22 q0 95 -39 149.5t-126 54.5zM422 1521h240l296 -253l-2 -6h-262l-153 143l-151 -143h-263l-2 6zM1017 1705h270l-214 -271h-204z" />
<glyph unicode="&#x1ec0;" horiz-adv-x="1139" d="M966 640h-540v-416h642v-224h-934v1456h932v-225h-640v-366h540v-225zM1017 1581l-2 -6h-262l-152 143l-152 -143h-263l-2 6l297 253h240zM274 1747h-204l-213 271h268z" />
<glyph unicode="&#x1ec1;" horiz-adv-x="1071" d="M581 -21q-242 0 -378 148.5t-136 382.5v40q0 243 132 398t363 154q218 0 334.5 -133.5t116.5 -359.5v-151h-645l-3 -6q7 -111 67.5 -180t179.5 -69q98 0 166.5 20t141.5 61l79 -180q-65 -53 -176 -89t-242 -36zM562 877q-88 0 -135.5 -60.5t-57.5 -160.5l2 -5h356v22 q0 95 -39 149.5t-126 54.5zM955 1260l-2 -6h-262l-152 143l-152 -143h-263l-2 6l297 253h240zM212 1426h-204l-213 271h268z" />
</font>
</defs>
</svg>
