<?xml version="1.0" standalone="no"?>
<!DOCTYPE svg PUBLIC "-//W3C//DTD SVG 1.1//EN" "http://www.w3.org/Graphics/SVG/1.1/DTD/svg11.dtd" >
<svg>
<metadata>
Created by FontForge 20090622 at Tue Dec 29 14:28:13 2015
 By deploy user
Copyright (c) 2012 by Jos Buivenga. All rights reserved.
</metadata>
<defs>
<font id="MuseoSansCyrl-900" horiz-adv-x="600" >
  <font-face 
    font-family="Museo Sans Cyrl 900"
    font-weight="700"
    font-stretch="normal"
    units-per-em="1000"
    panose-1="2 0 0 0 0 0 0 0 0 0"
    ascent="750"
    descent="-250"
    x-height="515"
    cap-height="715"
    bbox="-129 -215 1230 918"
    underline-thickness="50"
    underline-position="-50"
    unicode-range="U+0020-U+FB04"
  />
<missing-glyph horiz-adv-x="510" 
d="M5 0v700h500v-700h-500zM255 395l170 255h-340zM285 350l170 -255v510zM55 95l170 255l-170 255v-510zM85 50h340l-170 255z" />
    <glyph glyph-name="f_f" unicode="ff" horiz-adv-x="763" 
d="M92 0v380h-63v135h63v12q0 48 17 84.5t41.5 56.5t59 32t62 15.5t56.5 3.5q34 0 52 -3v-146q-8 2 -28 2q-87 0 -87 -50v-7h211v12q0 48 17 84.5t41.5 56.5t59 32t62 15.5t56.5 3.5q34 0 52 -3v-146q-8 2 -28 2q-87 0 -87 -50v-7h95v-135h-95v-380h-173v380h-211v-380h-173
z" />
    <glyph glyph-name="fi" unicode="fi" horiz-adv-x="675" 
d="M92 0v380h-63v135h63v12q0 48 17 84.5t41.5 56.5t59 32t62 15.5t56.5 3.5q34 0 52 -3v-146q-8 2 -28 2q-87 0 -87 -50v-7h352v-515h-173v380h-179v-380h-173zM446 580v135h169v-135h-169z" />
    <glyph glyph-name="fl" unicode="fl" horiz-adv-x="705" 
d="M95 0v371h-63v135h63v21q0 48 17 84.5t41.5 56.5t59 32t62 15.5t56.5 3.5q34 0 52 -3v-146q-8 2 -28 2q-87 0 -87 -50v-16h95v-135h-95v-371h-173zM440 190v525h173v-502q0 -38 9.5 -52t38.5 -14q13 0 21 1v-150q-36 -3 -52 -3q-40 0 -69.5 6.5t-59 25.5t-45.5 60
t-16 103z" />
    <glyph glyph-name="f_f_i" unicode="ffi" horiz-adv-x="1059" 
d="M92 0v380h-63v135h63v12q0 48 17 84.5t41.5 56.5t59 32t62 15.5t56.5 3.5q34 0 52 -3v-146q-8 2 -28 2q-87 0 -87 -50v-7h211v12q0 48 17 84.5t41.5 56.5t59 32t62 15.5t56.5 3.5q34 0 52 -3v-146q-8 2 -28 2q-87 0 -87 -50v-7h352v-515h-173v380h-179v-380h-173v380
h-211v-380h-173zM830 580v135h169v-135h-169z" />
    <glyph glyph-name="f_f_l" unicode="ffl" horiz-adv-x="1086" 
d="M92 0v380h-63v135h63v12q0 48 17 84.5t41.5 56.5t59 32t62 15.5t56.5 3.5q34 0 52 -3v-146q-8 2 -28 2q-87 0 -87 -50v-7h211v12q0 48 17 84.5t41.5 56.5t59 32t62 15.5t56.5 3.5q34 0 52 -3v-146q-8 2 -28 2q-87 0 -87 -50v-7h95v-135h-95v-380h-173v380h-211v-380h-173
zM821 190v525h173v-502q0 -38 9.5 -52t38.5 -14q13 0 21 1v-150q-36 -3 -52 -3q-40 0 -69.5 6.5t-59 25.5t-45.5 60t-16 103z" />
    <glyph glyph-name="f_j" unicode="fj" horiz-adv-x="675" 
d="M92 0v380h-63v135h63v12q0 48 17 84.5t41.5 56.5t59 32t62 15.5t56.5 3.5q34 0 52 -3v-146q-8 2 -28 2q-87 0 -87 -50v-7h352v-528q0 -49 -18 -86.5t-43.5 -57.5t-61 -32t-63 -15.5t-56.5 -3.5q-23 0 -46 3v144q8 -1 22 -1q93 0 93 66v376h-179v-380h-173zM446 580v135
h169v-135h-169z" />
    <glyph glyph-name=".notdef" horiz-adv-x="510" 
d="M5 0v700h500v-700h-500zM255 395l170 255h-340zM285 350l170 -255v510zM55 95l170 255l-170 255v-510zM85 50h340l-170 255z" />
    <glyph glyph-name=".null" horiz-adv-x="0" 
 />
    <glyph glyph-name="nonmarkingreturn" horiz-adv-x="333" 
 />
    <glyph glyph-name="space" unicode=" " horiz-adv-x="250" 
 />
    <glyph glyph-name="exclam" unicode="!" horiz-adv-x="308" 
d="M80 221l-16 494h180l-16 -494h-148zM75 0v150h158v-150h-158z" />
    <glyph glyph-name="quotedbl" unicode="&#x22;" horiz-adv-x="437" 
d="M253 490v240h122v-240h-122zM62 490v240h122v-240h-122z" />
    <glyph glyph-name="numbersign" unicode="#" horiz-adv-x="706" 
d="M103 0l31 180h-101l20 120h101l17 95h-99l20 120h99l35 200h134l-35 -200h108l35 200h134l-35 -200h105l-20 -120h-105l-17 -95h103l-20 -120h-103l-31 -180h-134l31 180h-108l-31 -180h-134zM288 300h108l17 95h-108z" />
    <glyph glyph-name="dollar" unicode="$" 
d="M42 90l92 133q34 -31 81 -52.5t90 -21.5q31 0 53 13.5t22 43.5q0 21 -33.5 40.5t-81.5 39t-95.5 45.5t-81 71.5t-33.5 105.5q0 82 53 139.5t138 73.5v94h109v-91q108 -11 183 -78l-74 -143q-32 27 -75 45t-83 18q-31 0 -53.5 -14t-22.5 -42q0 -23 33.5 -42t81 -37.5
t95.5 -43t81.5 -70.5t33.5 -107q0 -82 -53.5 -142.5t-146.5 -75.5v-91h-109v91q-128 19 -204 98z" />
    <glyph glyph-name="percent" unicode="%" horiz-adv-x="857" 
d="M215 382q-76 0 -128.5 50t-52.5 122q0 71 53 122t128 51t128 -51t53 -122q0 -72 -53 -122t-128 -50zM74 0l552 715h152l-552 -715h-152zM215 502q23 0 39 15.5t16 37.5q0 21 -16.5 36.5t-38.5 15.5t-38.5 -15.5t-16.5 -36.5q0 -22 16 -37.5t39 -15.5zM461 160
q0 71 53 122t128 51t128 -51t53 -122q0 -72 -53 -122t-128 -50q-76 0 -128.5 50t-52.5 122zM587 161q0 -22 16 -37.5t39 -15.5t39 15.5t16 37.5q0 21 -16.5 36.5t-38.5 15.5t-38.5 -15.5t-16.5 -36.5z" />
    <glyph glyph-name="ampersand" unicode="&#x26;" horiz-adv-x="699" 
d="M44 207q0 55 31.5 102.5t82.5 68.5v2q-39 19 -61.5 61t-22.5 93q0 97 68.5 145t167.5 48q45 0 103 -12l-40 -137q-16 4 -39 4q-36 0 -59.5 -19t-23.5 -55q0 -29 19.5 -49t53.5 -20h87v88h172v-88h89v-150h-89v-69q0 -100 -73 -166t-200 -66q-120 0 -193 62.5t-73 156.5z
M223 218q0 -29 25 -50t62 -21q48 0 74.5 23t26.5 60v59h-98q-90 0 -90 -71z" />
    <glyph glyph-name="quotesingle" unicode="'" horiz-adv-x="249" 
d="M62 490v240h125v-240h-125z" />
    <glyph glyph-name="parenleft" unicode="(" horiz-adv-x="332" 
d="M164 -95q-124 196 -124 442q0 212 124 403h142q-113 -189 -113 -403q0 -227 113 -442h-142z" />
    <glyph glyph-name="parenright" unicode=")" horiz-adv-x="332" 
d="M26 -95q113 215 113 442q0 214 -113 403h142q124 -191 124 -403q0 -246 -124 -442h-142z" />
    <glyph glyph-name="asterisk" unicode="*" horiz-adv-x="495" 
d="M191 309l-122 88l75 83v2l-110 23l46 143l102 -45l-11 112h152l-12 -112l103 46l47 -143l-111 -23v-2l76 -83l-122 -89l-56 97h-2z" />
    <glyph glyph-name="plus" unicode="+" 
d="M27 222v130h205v223h136v-223h205v-130h-205v-222h-136v222h-205z" />
    <glyph glyph-name="comma" unicode="," horiz-adv-x="298" 
d="M11 -111l75 277h165l-113 -277h-127z" />
    <glyph glyph-name="hyphen" unicode="-" horiz-adv-x="432" 
d="M59 212v150h314v-150h-314z" />
    <glyph glyph-name="period" unicode="." horiz-adv-x="282" 
d="M59 0v164h164v-164h-164z" />
    <glyph glyph-name="slash" unicode="/" horiz-adv-x="452" 
d="M26 -42l256 792h144l-256 -792h-144z" />
    <glyph glyph-name="zero" unicode="0" horiz-adv-x="636" 
d="M318 -12q-74 0 -127.5 28.5t-83.5 80.5t-44 117t-14 145t14 144.5t44 116t83.5 79.5t127.5 28t127.5 -28t83.5 -79.5t44 -116t14 -144.5t-14 -145t-44 -117t-83.5 -80.5t-127.5 -28.5zM318 148q89 0 89 211q0 208 -89 208t-89 -208q0 -211 89 -211z" />
    <glyph glyph-name="one" unicode="1" horiz-adv-x="552" 
d="M55 0v150h152v298l1 55h-2q-9 -20 -28 -38l-43 -39l-101 108l193 181h151v-565h153v-150h-476z" />
    <glyph glyph-name="two" unicode="2" horiz-adv-x="599" 
d="M55 0q-8 45 -8 77q0 62 23 115t57 87t74.5 65t74.5 52.5t57 46t23 48.5q0 35 -23 53t-54 18q-33 0 -61 -22t-45 -54l-130 87q35 68 98.5 111t153.5 43q98 0 171 -56.5t73 -162.5q0 -62 -30 -113t-73 -83.5t-86 -59t-75 -52t-34 -50.5h309v-150h-495z" />
    <glyph glyph-name="three" unicode="3" horiz-adv-x="582" 
d="M30 82l84 135q66 -64 147 -64q47 0 74.5 20.5t27.5 50.5q0 79 -133 79h-50l-37 85l94 113l30.5 35t23.5 24l8 8v2q-23 -5 -68 -5h-171v150h451v-109l-145 -167q79 -17 126 -74t47 -133q0 -100 -69.5 -172t-195.5 -72q-151 0 -244 94z" />
    <glyph glyph-name="four" unicode="4" horiz-adv-x="633" 
d="M24 173v106l276 436h214v-397h85v-145h-85v-173h-173v173h-317zM202 318h139v160l6 80h-2q-15 -44 -35 -74l-108 -164v-2z" />
    <glyph glyph-name="five" unicode="5" horiz-adv-x="582" 
d="M37 82l84 135q68 -64 145 -64q39 0 69.5 23.5t30.5 64.5t-32 65t-82 24q-48 0 -96 -24l-93 35l29 374h400v-150h-248l-4 -66l-4 -28h2q19 7 52 7q122 0 189 -66.5t67 -168.5q0 -111 -74 -183t-191 -72q-146 0 -244 94z" />
    <glyph glyph-name="six" unicode="6" horiz-adv-x="615" 
d="M45 330q0 74 22.5 144t64 127t108 91.5t146.5 34.5q93 0 158 -31l-47 -150q-13 7 -44 14t-54 7q-115 0 -154 -118h2q13 9 43 17t55 8q106 0 170 -73.5t64 -171.5q0 -97 -66.5 -169t-177.5 -72q-118 0 -204 89t-86 253zM335 148q32 0 52 23.5t20 56.5q0 43 -27 74t-81 31
q-74 0 -74 -43q0 -60 35 -101t75 -41z" />
    <glyph glyph-name="seven" unicode="7" horiz-adv-x="563" 
d="M63 0l253 501q11 22 21.5 38t15.5 21l5 6v2q-6 -3 -42 -3h-283v150h513v-122l-300 -593h-183z" />
    <glyph glyph-name="eight" unicode="8" horiz-adv-x="621" 
d="M43 210q0 40 20 79.5t39.5 59.5t39.5 35q-65 58 -65 137q0 86 61 146t179 60q104 0 173 -55.5t69 -151.5q0 -79 -70 -164q84 -58 84 -150q0 -89 -70 -153.5t-195 -64.5q-124 0 -194.5 65.5t-70.5 156.5zM362 419q26 42 26 88q0 30 -20 48t-55 18q-32 0 -48.5 -15.5
t-16.5 -40.5q0 -32 28.5 -53t85.5 -45zM222 225q0 -35 25 -59t61 -24q40 0 63 19t23 54q0 7 -2 13t-7 12l-9.5 11t-14 11l-16 10t-19 10t-20 10t-22.5 10.5t-23 10.5q-39 -41 -39 -88z" />
    <glyph glyph-name="nine" unicode="9" horiz-adv-x="615" 
d="M71 19l47 150q49 -21 98 -21q115 0 154 118h-2q-12 -10 -42 -17.5t-56 -7.5q-106 0 -170 73.5t-64 171.5q0 97 66.5 169t177.5 72q118 0 204 -89t86 -253q0 -74 -22.5 -144t-64 -127t-108 -91.5t-146.5 -34.5q-93 0 -158 31zM316 382q74 0 74 43q0 60 -35 101t-75 41
q-32 0 -52 -23.5t-20 -56.5q0 -43 27 -74t81 -31z" />
    <glyph glyph-name="colon" unicode=":" horiz-adv-x="282" 
d="M59 351v164h164v-164h-164zM59 0v164h164v-164h-164z" />
    <glyph glyph-name="semicolon" unicode=";" horiz-adv-x="306" 
d="M88 351v164h158v-164h-158zM18 -111l65 277h166l-103 -277h-128z" />
    <glyph glyph-name="less" unicode="&#x3c;" 
d="M34 234v107l504 223v-145l-330 -131v-2l330 -130v-145z" />
    <glyph glyph-name="equal" unicode="=" 
d="M47 337v130h506v-130h-506zM47 107v130h506v-130h-506z" />
    <glyph glyph-name="greater" unicode="&#x3e;" 
d="M61 11v145l330 130v2l-330 131v145l504 -223v-107z" />
    <glyph glyph-name="question" unicode="?" horiz-adv-x="509" 
d="M135 221v50q0 37 16 68.5t39.5 52l46.5 39t39 39.5t16 44q0 25 -21 42t-50 17q-46 0 -95 -43l-96 117q83 83 209 83q92 0 162.5 -52.5t70.5 -143.5q0 -45 -17.5 -82.5t-43 -61t-50.5 -44t-42.5 -43t-17.5 -46.5v-36h-166zM139 0v150h158v-150h-158z" />
    <glyph glyph-name="at" unicode="@" horiz-adv-x="845" 
d="M46 239q0 159 112.5 267.5t280.5 108.5q156 0 227 -66.5t71 -173.5v-198h74v-119h-283q-106 0 -166.5 54t-60.5 128q0 72 59.5 124t167.5 52h49q0 30 -41.5 47t-93.5 17q-95 0 -161 -73.5t-66 -167.5q0 -101 67 -170t185 -69v-130q-192 0 -306.5 105t-114.5 264zM472 244
q0 -29 17 -48t49 -19h39v134h-37q-33 0 -50.5 -19t-17.5 -48z" />
    <glyph glyph-name="A" unicode="A" horiz-adv-x="664" 
d="M-3 0l243 715h184l243 -715h-180l-44 150h-223l-43 -150h-180zM261 290h141l-40 139l-29 123h-2q-16 -78 -29 -123z" />
    <glyph glyph-name="B" unicode="B" horiz-adv-x="647" 
d="M75 0v715h263q110 0 176.5 -48.5t66.5 -138.5q0 -46 -22 -87.5t-61 -64.5v-2q57 -17 84.5 -62.5t27.5 -98.5q0 -109 -77 -161t-195 -52h-263zM250 438h90q31 0 47 19t16 47q0 27 -16.5 44t-49.5 17h-87v-127zM250 150h105q36 0 56 21.5t20 53.5t-19 52.5t-56 20.5h-106
v-148z" />
    <glyph glyph-name="C" unicode="C" horiz-adv-x="714" 
d="M37 359q0 158 105.5 263t269.5 105q75 0 146 -25.5t122 -75.5l-81 -132q-36 32 -84.5 52.5t-94.5 20.5q-100 0 -151 -59.5t-51 -144.5q0 -87 52.5 -151t149.5 -64q102 0 190 88l90 -128q-116 -120 -288 -120q-170 0 -272.5 104.5t-102.5 266.5z" />
    <glyph glyph-name="D" unicode="D" horiz-adv-x="737" 
d="M75 0v715h254q170 0 269.5 -94.5t99.5 -261.5q0 -168 -99.5 -263.5t-269.5 -95.5h-254zM250 150h72q92 0 143.5 54t51.5 155q0 100 -52 153t-143 53h-72v-415z" />
    <glyph glyph-name="E" unicode="E" horiz-adv-x="574" 
d="M75 0v715h448v-150h-273v-130h218v-150h-218v-135h287v-150h-462z" />
    <glyph glyph-name="F" unicode="F" horiz-adv-x="537" 
d="M75 0v715h438v-150h-263v-150h218v-150h-218v-265h-175z" />
    <glyph glyph-name="G" unicode="G" horiz-adv-x="773" 
d="M37 359q0 157 106.5 262.5t268.5 105.5q167 0 275 -95l-84 -131q-31 28 -80 47t-94 19q-106 0 -158.5 -57.5t-52.5 -144.5q0 -99 59.5 -158t145.5 -59q78 0 145 52v55h-101v149h256v-404h-146v20l1 30h-2q-32 -28 -83.5 -45t-104.5 -17q-144 0 -247.5 101t-103.5 270z
" />
    <glyph glyph-name="H" unicode="H" horiz-adv-x="760" 
d="M75 0v715h175v-286h260v286h175v-715h-175v280h-260v-280h-175z" />
    <glyph glyph-name="I" unicode="I" horiz-adv-x="325" 
d="M75 0v715h175v-715h-175z" />
    <glyph glyph-name="J" unicode="J" horiz-adv-x="566" 
d="M18 220v52h175v-38q0 -86 65 -86q30 0 47 19t17 57v341h-192v150h367v-495q0 -111 -71 -171.5t-168 -60.5q-98 0 -169 61t-71 171z" />
    <glyph glyph-name="K" unicode="K" horiz-adv-x="675" 
d="M75 0v715h175v-276h72l148 276h188l-193 -342v-2l204 -371h-196l-151 290h-72v-290h-175z" />
    <glyph glyph-name="L" unicode="L" horiz-adv-x="552" 
d="M75 0v715h175v-565h292v-150h-467z" />
    <glyph glyph-name="M" unicode="M" horiz-adv-x="874" 
d="M47 0l59 715h190l104 -302l36 -118h2q20 72 36 118l104 302h190l58 -715h-175l-22 322q-2 24 -2 54t1 48l1 18h-2q-24 -75 -40 -120l-75 -207h-150l-75 207l-40 120h-2q4 -66 0 -120l-22 -322h-176z" />
    <glyph glyph-name="N" unicode="N" horiz-adv-x="754" 
d="M75 0v715h177l198 -334q12 -21 27 -51.5t24 -50.5l9 -20h2q-8 77 -8 122v334h175v-715h-176l-199 333q-12 21 -27 51.5t-24 50.5l-9 20h-2q8 -77 8 -122v-333h-175z" />
    <glyph glyph-name="O" unicode="O" horiz-adv-x="820" 
d="M36 362q0 156 105 260.5t269 104.5t269 -104.5t105 -260.5q0 -160 -105 -267t-269 -107t-269 107t-105 267zM217 362q0 -92 54.5 -153t138.5 -61t138.5 61t54.5 153q0 88 -54.5 146.5t-138.5 58.5t-138.5 -58.5t-54.5 -146.5z" />
    <glyph glyph-name="P" unicode="P" horiz-adv-x="629" 
d="M75 0v715h297q104 0 168.5 -69t64.5 -177q0 -109 -64.5 -178.5t-168.5 -69.5h-122v-221h-175zM250 371h86q44 0 67.5 27t23.5 71t-23 70t-65 26h-89v-194z" />
    <glyph glyph-name="Q" unicode="Q" horiz-adv-x="819" 
d="M36 362q0 156 105 260.5t269 104.5t269 -104.5t105 -260.5q0 -111 -71 -212l75 -61l-99 -111l-73 69q-90 -59 -206 -59q-164 0 -269 107t-105 267zM217 362q0 -92 54.5 -153t138.5 -61q46 0 78 16l-73 64l98 111l71 -69q19 44 19 92q0 88 -55 146.5t-138 58.5
q-84 0 -138.5 -58.5t-54.5 -146.5z" />
    <glyph glyph-name="R" unicode="R" horiz-adv-x="658" 
d="M75 0v715h249q95 0 139 -17q62 -24 97 -77.5t35 -130.5q0 -60 -28 -114.5t-79 -80.5v-2q10 -13 27 -43l139 -250h-195l-127 241h-82v-241h-175zM250 391h76q43 0 67 23t24 65q0 59 -42 76q-23 10 -66 10h-59v-174z" />
    <glyph glyph-name="S" unicode="S" horiz-adv-x="575" 
d="M26 90l92 133q34 -30 81 -52t91 -22q35 0 54.5 14t19.5 36q0 23 -23.5 42.5t-58.5 32.5t-76 33.5t-76 43.5t-58.5 63.5t-23.5 93.5q0 98 72.5 158.5t186.5 60.5q133 0 224 -81l-74 -143q-31 27 -74 45t-84 18q-38 0 -57 -14t-19 -37t23.5 -42t58.5 -31.5t76 -32t76 -42
t58.5 -63t23.5 -93.5q0 -95 -67.5 -159t-186.5 -64q-72 0 -140.5 26t-118.5 76z" />
    <glyph glyph-name="T" unicode="T" horiz-adv-x="633" 
d="M229 0v565h-217v150h609v-150h-217v-565h-175z" />
    <glyph glyph-name="U" unicode="U" horiz-adv-x="732" 
d="M67 263v452h175v-452q0 -55 33.5 -85t90.5 -30t90.5 30t33.5 85v452h175v-452q0 -122 -82 -198.5t-216 -76.5q-135 0 -217.5 76.5t-82.5 198.5z" />
    <glyph glyph-name="V" unicode="V" horiz-adv-x="675" 
d="M247 0l-253 715h190l126 -407q6 -20 13 -49t11 -47l3 -19h2q13 70 27 115l128 407h187l-252 -715h-182z" />
    <glyph glyph-name="W" unicode="W" horiz-adv-x="979" 
d="M187 0l-174 715h184l90 -447q4 -20 6.5 -38.5t2.5 -27.5v-9h2q1 31 12 75l110 447h141l107 -447q5 -20 8 -38.5t4 -27.5v-9h2q0 31 9 75l98 447h181l-181 -715h-195l-90 361l-14 84h-2q-3 -38 -14 -84l-90 -361h-197z" />
    <glyph glyph-name="X" unicode="X" horiz-adv-x="659" 
d="M8 0l217 355l-218 360h199l78 -147l44 -92h2q19 46 44 92l79 147h199l-219 -360l218 -355h-195l-82 150l-44 89h-2q-19 -44 -44 -89l-82 -150h-194z" />
    <glyph glyph-name="Y" unicode="Y" horiz-adv-x="627" 
d="M226 0v293l-236 422h199l81 -172l43 -103h2q20 54 43 103l80 172h199l-236 -422v-293h-175z" />
    <glyph glyph-name="Z" unicode="Z" horiz-adv-x="635" 
d="M37 0v110l276 391q14 20 27.5 36t20.5 23l7 6v2q-23 -3 -55 -3h-263v150h540v-108l-277 -393q-14 -20 -27.5 -36t-20.5 -22l-7 -7v-2q23 3 55 3h282v-150h-558z" />
    <glyph glyph-name="bracketleft" unicode="[" horiz-adv-x="352" 
d="M70 -95v845h246v-120h-102v-605h102v-120h-246z" />
    <glyph glyph-name="backslash" unicode="\" horiz-adv-x="452" 
d="M282 -42l-256 792h144l256 -792h-144z" />
    <glyph glyph-name="bracketright" unicode="]" horiz-adv-x="352" 
d="M36 25h102v605h-102v120h246v-845h-246v120z" />
    <glyph glyph-name="asciicircum" unicode="^" horiz-adv-x="630" 
d="M58 241l203 474h107l203 -474h-145l-112 300l-111 -300h-145z" />
    <glyph glyph-name="underscore" unicode="_" horiz-adv-x="618" 
d="M11 0h596v-130h-596v130z" />
    <glyph glyph-name="grave" unicode="`" horiz-adv-x="484" 
d="M234 761l-118 150h171l81 -150h-134z" />
    <glyph glyph-name="a" unicode="a" horiz-adv-x="553" 
d="M22 145q0 49 27 85t71.5 55t92.5 27.5t100 8.5h15v9q0 57 -73 57q-68 0 -142 -49l-60 122q35 27 96.5 47t121.5 20q107 0 168.5 -56t61.5 -154v-317h-158v31l2 32h-2q-25 -35 -66.5 -55t-86.5 -20q-74 0 -121 45t-47 112zM193 161q0 -19 13 -31.5t36 -12.5q36 0 62 29
t26 62v14h-16q-48 0 -84.5 -14.5t-36.5 -46.5z" />
    <glyph glyph-name="b" unicode="b" horiz-adv-x="633" 
d="M58 0v715h173v-199l-2 -44h2q22 25 60.5 40t78.5 15q105 0 168.5 -74.5t63.5 -195.5t-68 -195t-172 -74q-93 0 -144 61h-2q1 -13 1 -29v-20h-159zM226 254q0 -50 26.5 -86.5t74.5 -36.5q43 0 72 33t29 90t-28 92t-73 35q-43 0 -72 -32t-29 -95z" />
    <glyph glyph-name="c" unicode="c" horiz-adv-x="552" 
d="M29 258q0 110 77.5 189.5t209.5 79.5q58 0 113.5 -19.5t91.5 -58.5l-73 -116q-52 50 -121 50q-58 0 -90.5 -36.5t-32.5 -86.5q0 -51 34 -89.5t95 -38.5q69 0 141 62l63 -121q-38 -39 -97.5 -62t-123.5 -23q-132 0 -209.5 79t-77.5 191z" />
    <glyph glyph-name="d" unicode="d" horiz-adv-x="633" 
d="M31 258q0 121 65.5 195t169.5 74q94 0 135 -41h2q-1 10 -1 23v206h173v-715h-162v34l1 29h-2q-49 -75 -149 -75q-105 0 -168.5 74.5t-63.5 195.5zM205 258q0 -57 28 -92t73 -35q43 0 72 32t29 95q0 50 -26.5 86.5t-74.5 36.5q-43 0 -72 -33t-29 -90z" />
    <glyph glyph-name="e" unicode="e" horiz-adv-x="567" 
d="M29 258q0 116 73 192.5t195 76.5q111 0 174.5 -69.5t63.5 -179.5q0 -18 -4 -54h-325q9 -45 42.5 -68.5t77.5 -23.5q64 0 142 52l64 -121q-41 -35 -100.5 -55t-119.5 -20q-131 0 -207 80t-76 190zM210 323h154q0 33 -19.5 55t-51.5 22q-66 0 -83 -77z" />
    <glyph glyph-name="f" unicode="f" horiz-adv-x="382" 
d="M95 0v371h-63v135h63v21q0 48 17 84.5t41.5 56.5t59 32t62 15.5t56.5 3.5q34 0 52 -3v-146q-8 2 -28 2q-87 0 -87 -50v-16h95v-135h-95v-371h-173z" />
    <glyph glyph-name="g" unicode="g" horiz-adv-x="625" 
d="M130 -33q68 -33 145 -33q119 0 119 99v17l1 19h-2q-45 -54 -129 -54q-110 0 -171 76t-61 183q0 106 60 179.5t171 73.5q90 0 140 -50h3q-1 6 -1 12v26h162v-468q0 -68 -25 -119t-68 -80.5t-92.5 -43.5t-105.5 -14q-107 0 -195 46zM206 280q0 -52 25 -86.5t74 -34.5
q40 0 66.5 25.5t26.5 87.5q0 111 -100 111q-44 0 -68 -28.5t-24 -74.5z" />
    <glyph glyph-name="h" unicode="h" horiz-adv-x="626" 
d="M58 0v715h173v-226l-2 -44h2q22 38 64 60t93 22q185 0 185 -193v-334h-173v302q0 68 -57 68q-54 0 -83 -38t-29 -100v-232h-173z" />
    <glyph glyph-name="i" unicode="i" horiz-adv-x="289" 
d="M60 580v135h169v-135h-169zM58 0v515h173v-515h-173z" />
    <glyph glyph-name="j" unicode="j" horiz-adv-x="289" 
d="M60 580v135h169v-135h-169zM58 4v511h173v-528q0 -49 -18 -86.5t-43.5 -57.5t-61 -32t-63 -15.5t-56.5 -3.5q-23 0 -46 3v144q8 -1 22 -1q93 0 93 66z" />
    <glyph glyph-name="k" unicode="k" horiz-adv-x="591" 
d="M58 0v715h173v-370h49l102 170h188l-151 -234v-2l172 -279h-197l-109 200h-54v-200h-173z" />
    <glyph glyph-name="l" unicode="l" horiz-adv-x="323" 
d="M57 190v525h173v-502q0 -38 9.5 -52t38.5 -14q13 0 21 1v-150q-36 -3 -52 -3q-40 0 -69.5 6.5t-59 25.5t-45.5 60t-16 103z" />
    <glyph glyph-name="m" unicode="m" horiz-adv-x="909" 
d="M58 0v515h166v-45l-2 -32h2q59 89 153 89q104 0 144 -87h2q22 36 66.5 61.5t98.5 25.5q76 0 121.5 -46t45.5 -147v-334h-173v305q0 65 -40 65q-52 0 -75.5 -43.5t-23.5 -108.5v-218h-173v305q0 65 -40 65q-54 0 -76.5 -44t-22.5 -108v-218h-173z" />
    <glyph glyph-name="n" unicode="n" horiz-adv-x="626" 
d="M58 0v515h166v-45l-2 -32h2q53 89 164 89q185 0 185 -193v-334h-173v302q0 68 -57 68q-55 0 -83.5 -39t-28.5 -98v-233h-173z" />
    <glyph glyph-name="o" unicode="o" horiz-adv-x="642" 
d="M29 256q0 119 84 195t207 76q124 0 208.5 -75.5t84.5 -195.5q0 -119 -84 -193.5t-208 -74.5t-208 74.5t-84 193.5zM204 256q0 -56 34 -90t83 -34t83 34t34 90q0 57 -34 92t-83 35t-83 -35t-34 -92z" />
    <glyph glyph-name="p" unicode="p" horiz-adv-x="633" 
d="M58 -200v715h156v-26l-2 -33h2q53 71 156 71q105 0 168.5 -74.5t63.5 -195.5t-68 -195t-172 -74q-74 0 -131 49h-2q2 -18 2 -44v-193h-173zM226 254q0 -50 26.5 -86.5t74.5 -36.5q43 0 72 33t29 90t-28 92t-73 35q-43 0 -72 -32t-29 -95z" />
    <glyph glyph-name="q" unicode="q" horiz-adv-x="633" 
d="M31 258q0 121 65.5 195t169.5 74q98 0 147 -55h2q-2 11 -2 28v15h162v-715h-173v202l2 44h-2q-50 -58 -139 -58q-105 0 -168.5 74.5t-63.5 195.5zM205 258q0 -57 28 -92t73 -35q43 0 72 32t29 95q0 50 -26.5 86.5t-74.5 36.5q-43 0 -72 -33t-29 -90z" />
    <glyph glyph-name="r" unicode="r" horiz-adv-x="426" 
d="M58 0v515h166v-87l-2 -32h2q17 54 62.5 91t101.5 37q8 0 20 -2v-170q-9 3 -35 3q-70 0 -106 -41t-36 -114v-200h-173z" />
    <glyph glyph-name="s" unicode="s" horiz-adv-x="471" 
d="M19 64l74 113q62 -52 140 -52q47 0 47 27q0 15 -25 26.5t-60 23.5t-70.5 29.5t-60.5 51.5t-25 81q0 77 60.5 120t153.5 43q111 0 184 -59l-59 -120q-22 18 -59.5 30t-70.5 12q-48 0 -48 -25q0 -12 18 -22.5t44.5 -18t58 -21t58 -30t44.5 -47t18 -69.5q0 -74 -57.5 -121.5
t-154.5 -47.5q-125 0 -210 76z" />
    <glyph glyph-name="t" unicode="t" horiz-adv-x="411" 
d="M88 190v181h-66v135h71v148h168v-148h108v-135h-108v-158q0 -66 92 -66q12 0 23 1v-150q-39 -3 -47 -3q-24 0 -46.5 2.5t-52 9.5t-53 21t-44.5 34.5t-33 53.5t-12 74z" />
    <glyph glyph-name="u" unicode="u" horiz-adv-x="621" 
d="M53 181v334h173v-302q0 -68 55 -68q53 0 81 40.5t28 101.5v228h173v-515h-166v45l2 32h-2q-21 -41 -65 -65t-96 -24q-84 0 -133.5 45.5t-49.5 147.5z" />
    <glyph glyph-name="v" unicode="v" horiz-adv-x="572" 
d="M181 0l-178 515h182l80 -274l19 -89h2q9 55 19 89l79 274h183l-175 -515h-211z" />
    <glyph glyph-name="w" unicode="w" horiz-adv-x="836" 
d="M155 0l-144 515h182l64 -304l6 -54h2q2 26 9 54l71 304h148l71 -304l8 -54h2q1 26 7 54l64 304h180l-144 -515h-193l-58 238l-10 55h-2q-3 -27 -10 -55l-58 -238h-195z" />
    <glyph glyph-name="x" unicode="x" horiz-adv-x="550" 
d="M11 0l162 255l-166 260h195l56 -115l16 -34h2l16 34l56 115h195l-165 -260l162 -255h-190l-62 116l-12 26h-2q-7 -17 -12 -26l-61 -116h-190z" />
    <glyph glyph-name="y" unicode="y" horiz-adv-x="561" 
d="M63 -47q28 -19 53 -19q62 0 83 52l10 24l-219 505h196l76 -237l19 -80h2q10 49 17 77l65 240h189l-211 -570q-30 -80 -88.5 -117.5t-126.5 -37.5q-30 0 -60 9t-45 18l-15 9z" />
    <glyph glyph-name="z" unicode="z" horiz-adv-x="544" 
d="M34 0v86l189 237l23 26t16 17l6 4v2q-13 -2 -45 -2h-181v145h460v-87l-188 -237q-11 -14 -22.5 -25.5t-17.5 -16.5l-6 -5v-2q13 3 46 3h193v-145h-473z" />
    <glyph glyph-name="braceleft" unicode="{" horiz-adv-x="395" 
d="M117 62v98q0 42 -21.5 67t-63.5 29v150q40 4 62.5 29t22.5 70v88q0 50 20.5 85t54 50.5t63 21t61.5 5.5l43 -2v-124q-11 2 -25 2q-73 0 -73 -54v-117q0 -46 -23.5 -80.5t-60.5 -46.5v-2q84 -30 84 -126v-127q0 -54 73 -54l25 2v-124q-18 -2 -43 -2q-32 0 -61.5 5.5
t-63 21t-54 50.5t-20.5 85z" />
    <glyph glyph-name="bar" unicode="|" horiz-adv-x="280" 
d="M68 -165v967h144v-967h-144z" />
    <glyph glyph-name="braceright" unicode="}" horiz-adv-x="395" 
d="M36 26q11 -2 25 -2q73 0 73 54v127q0 43 22 79t62 47v2q-34 11 -59 45t-25 82v117q0 54 -73 54l-25 -2v124q18 2 43 2q32 0 61.5 -5.5t63 -21t54 -50.5t20.5 -85v-88q0 -41 21.5 -68.5t63.5 -30.5v-150q-39 -1 -62 -28.5t-23 -67.5v-98q0 -50 -20.5 -85t-54 -50.5
t-63 -21t-61.5 -5.5l-43 2v124z" />
    <glyph glyph-name="asciitilde" unicode="~" horiz-adv-x="636" 
d="M53 191q0 203 174 203q31 0 58.5 -12.5t43 -27.5t34.5 -27.5t36 -12.5q25 0 40 19.5t15 56.5h133q0 -203 -173 -203q-31 0 -58.5 12.5t-43 27.5t-35 27.5t-36.5 12.5q-24 0 -39 -19.5t-15 -56.5h-134z" />
    <glyph glyph-name="uni00A0" unicode="&#xa0;" horiz-adv-x="250" 
 />
    <glyph glyph-name="exclamdown" unicode="&#xa1;" horiz-adv-x="290" 
d="M219 294l16 -494h-180l16 494h148zM224 515v-150h-158v150h158z" />
    <glyph glyph-name="cent" unicode="&#xa2;" 
d="M256 -12v87q-91 21 -152 99.5t-61 183.5q0 104 61.5 183t151.5 100v85h110v-85q68 -15 119.5 -60.5t73.5 -111.5l-154 -60q-11 32 -34.5 53.5t-55.5 21.5q-37 0 -67.5 -36t-30.5 -90q0 -60 28.5 -93t69.5 -33q32 0 56 21.5t34 53.5l154 -60q-21 -60 -71.5 -111
t-121.5 -61v-87h-110z" />
    <glyph glyph-name="sterling" unicode="&#xa3;" 
d="M45 0v150h55v149h-43v112h43v100q0 95 69 155.5t175 60.5q113 0 196 -83l-97 -118q-44 44 -94 44q-29 0 -49.5 -17.5t-20.5 -46.5v-95h165v-112h-165v-149h290v-150h-524z" />
    <glyph glyph-name="currency" unicode="&#xa4;" horiz-adv-x="645" 
d="M112 0v142h-65v111h65v57h-65v134h65v271h282q115 0 172 -56.5t57 -155.5q0 -92 -66.5 -143t-172.5 -51h-97v-56h244v-111h-244v-142h-175zM287 444h71q44 0 65 20.5t21 49.5q0 28 -20.5 47t-62.5 19h-74v-136z" />
    <glyph glyph-name="yen" unicode="&#xa5;" 
d="M47 167v96h163v28l-24 49h-139v96h92l-137 279h201l53 -143l43 -133h2q19 67 43 133l53 143h201l-138 -279h93v-96h-140l-24 -49v-28h164v-96h-164v-167h-179v167h-163z" />
    <glyph glyph-name="section" unicode="&#xa7;" horiz-adv-x="529" 
d="M143 179l-76 273q-10 37 -10 75q0 89 59.5 144.5t171.5 55.5q57 0 112.5 -20t94.5 -57l-74 -108q-55 47 -131 47q-98 0 -98 -83q0 -30 10 -67l72 -260h-131zM34 15l69 115q59 -55 137 -55q98 0 98 94q0 32 -13 77l-68 240h131l74 -273q10 -37 10 -75q0 -89 -59.5 -144.5
t-171.5 -55.5q-56 0 -112.5 20t-94.5 57z" />
    <glyph glyph-name="dieresis" unicode="&#xa8;" horiz-adv-x="485" 
d="M284 771v140h126v-140h-126zM75 771v140h126v-140h-126z" />
    <glyph glyph-name="copyright" unicode="&#xa9;" horiz-adv-x="807" 
d="M43 358q0 153 105 260.5t254 107.5q151 0 257 -107.5t106 -260.5t-106 -261.5t-257 -108.5q-148 0 -253.5 108.5t-105.5 261.5zM156 358q0 -112 71 -189.5t175 -77.5q106 0 178.5 77.5t72.5 189.5q0 111 -72.5 188t-178.5 77q-104 0 -175 -77t-71 -188zM232 355
q0 78 51 132.5t121 54.5q58 0 101 -31t61 -84l-100 -39q-4 19 -20.5 34t-37.5 15q-23 0 -41 -23t-18 -59q0 -39 16.5 -60.5t42.5 -21.5q20 0 36 14t22 35l100 -39q-13 -46 -56.5 -80.5t-105.5 -34.5q-70 0 -121 54.5t-51 132.5z" />
    <glyph glyph-name="ordfeminine" unicode="&#xaa;" horiz-adv-x="430" 
d="M163 383q-41 0 -73 28.5t-32 73.5q0 109 181 109h5v8q0 36 -47 36q-39 0 -80 -27l-38 75q53 39 138 39q70 0 107.5 -36t37.5 -99v-200h-108v39h-2q-24 -46 -89 -46zM198 472q18 0 31.5 14t13.5 31v5h-10q-58 0 -58 -30q0 -20 23 -20zM61 268v85h305v-85h-305z" />
    <glyph glyph-name="guillemotleft" unicode="&#xab;" horiz-adv-x="654" 
d="M292 282l164 206h158l-164 -206l164 -205h-158zM196 77l-164 205l164 206h158l-164 -206l164 -205h-158z" />
    <glyph glyph-name="logicalnot" unicode="&#xac;" horiz-adv-x="621" 
d="M47 337v130h506v-335h-135v205h-371z" />
    <glyph glyph-name="uni00AD" unicode="&#xad;" horiz-adv-x="432" 
d="M59 212v150h314v-150h-314z" />
    <glyph glyph-name="registered" unicode="&#xae;" horiz-adv-x="807" 
d="M43 358q0 153 105 260.5t254 107.5q151 0 257 -107.5t106 -260.5t-106 -261.5t-257 -108.5q-148 0 -253.5 108.5t-105.5 261.5zM156 358q0 -112 71 -189.5t175 -77.5q106 0 178.5 77.5t72.5 189.5q0 111 -72.5 188t-178.5 77q-104 0 -175 -77t-71 -188zM272 187v347h163
q56 0 89 -31t33 -84q0 -37 -19.5 -60.5t-38.5 -28.5v-2q4 -3 13 -20l63 -121h-118l-49 118h-28v-118h-108zM380 377h27q40 0 40 42q0 41 -38 41h-29v-83z" />
    <glyph glyph-name="macron" unicode="&#xaf;" horiz-adv-x="485" 
d="M105 782v112h275v-112h-275z" />
    <glyph glyph-name="degree" unicode="&#xb0;" horiz-adv-x="438" 
d="M219 385q-76 0 -128.5 50t-52.5 122q0 71 53 122t128 51t128 -51t53 -122q0 -72 -53 -122t-128 -50zM219 505q23 0 39 15.5t16 37.5q0 21 -16.5 36.5t-38.5 15.5t-38.5 -15.5t-16.5 -36.5q0 -22 16 -37.5t39 -15.5z" />
    <glyph glyph-name="plusminus" unicode="&#xb1;" 
d="M27 222v130h205v223h136v-223h205v-130h-205v-222h-136v222h-205zM37 -70h526v-130h-526v130z" />
    <glyph glyph-name="twosuperior" unicode="&#xb2;" horiz-adv-x="400" 
d="M37 423q-5 28 -5 49q0 50 20.5 88t50 59.5t58.5 38t49.5 33t20.5 34.5q0 16 -13 25t-32 9q-35 0 -71 -45l-83 71q24 40 68.5 64.5t94.5 24.5q64 0 113.5 -36.5t49.5 -106.5q0 -47 -27.5 -83.5t-61 -53t-63.5 -33.5t-33 -30h191v-108h-327z" />
    <glyph glyph-name="threesuperior" unicode="&#xb3;" horiz-adv-x="400" 
d="M187 413q-102 0 -160 68l61 90q35 -43 91 -43q25 0 39.5 12t14.5 30t-17.5 27t-44.5 9h-37l-24 57l62 69l24 23v2q-21 -2 -34 -2h-110v109h294v-79l-83 -91q97 -24 97 -126q0 -62 -46 -108.5t-127 -46.5z" />
    <glyph glyph-name="acute" unicode="&#xb4;" horiz-adv-x="484" 
d="M116 761l81 150h171l-118 -150h-134z" />
    <glyph glyph-name="mu" unicode="&#xb5;" horiz-adv-x="632" 
d="M208 -8q8 -48 8 -88v-104h-147v715h173v-302q0 -68 55 -68q53 0 81 40.5t28 101.5v228h173v-515h-166v50l2 27h-3q-2 -4 -5.5 -10t-17 -21t-30 -27t-45.5 -21.5t-62 -9.5q-23 0 -42 4h-2z" />
    <glyph glyph-name="mu" unicode="&#x3bc;" horiz-adv-x="632" 
d="M208 -8q8 -48 8 -88v-104h-147v715h173v-302q0 -68 55 -68q53 0 81 40.5t28 101.5v228h173v-515h-166v50l2 27h-3q-2 -4 -5.5 -10t-17 -21t-30 -27t-45.5 -21.5t-62 -9.5q-23 0 -42 4h-2z" />
    <glyph glyph-name="paragraph" unicode="&#xb6;" horiz-adv-x="671" 
d="M265 -50v291q-97 0 -165 69t-68 169t68 168t165 68h357v-150h-237v-615h-120zM447 -50v565h120v-565h-120z" />
    <glyph glyph-name="periodcentered" unicode="&#xb7;" horiz-adv-x="276" 
d="M59 213v164h158v-164h-158z" />
    <glyph glyph-name="cedilla" unicode="&#xb8;" horiz-adv-x="484" 
d="M164 -82l35 111l72 -17v-7l-10 -41q75 -8 75 -80q0 -50 -34 -72t-83 -22q-37 0 -71 9v87q18 -10 45 -10q38 0 38 23q0 21 -41 21z" />
    <glyph glyph-name="onesuperior" unicode="&#xb9;" horiz-adv-x="400" 
d="M57 423v108h89v143l3 32h-2q-5 -10 -11 -15l-24 -22l-72 79l124 116h108v-333h90v-108h-305z" />
    <glyph glyph-name="ordmasculine" unicode="&#xba;" horiz-adv-x="476" 
d="M238 385q-77 0 -129.5 47.5t-52.5 122.5t52.5 122.5t128.5 47.5q78 0 131 -47.5t53 -122.5t-53 -122.5t-130 -47.5zM238 488q26 0 44.5 18t18.5 49q0 30 -18.5 49t-44.5 19t-44.5 -19t-18.5 -49q0 -31 18.5 -49t44.5 -18zM69 268v85h338v-85h-338z" />
    <glyph glyph-name="guillemotright" unicode="&#xbb;" horiz-adv-x="654" 
d="M300 77l164 205l-164 206h158l164 -206l-164 -205h-158zM40 77l164 205l-164 206h158l164 -206l-164 -205h-158z" />
    <glyph glyph-name="onequarter" unicode="&#xbc;" horiz-adv-x="1013" 
d="M802 0v87h-197v84l171 270h150v-247h53v-107h-53v-87h-124zM724 194h78v90l4 50h-2q-9 -27 -21 -46l-59 -92v-2zM394 0h-119l336 715h119zM53 274v108h89v143l3 32h-2q-5 -10 -11 -15l-24 -22l-72 79l124 116h108v-333h90v-108h-305z" />
    <glyph glyph-name="onehalf" unicode="&#xbd;" horiz-adv-x="1004" 
d="M396 0h-119l336 715h119zM51 274v108h89v143l3 32h-2q-5 -10 -11 -15l-24 -22l-72 79l124 116h108v-333h90v-108h-305zM640 0q-5 28 -5 49q0 50 20.5 88t49.5 59.5t58.5 38t50 33t20.5 34.5q0 16 -13 25t-32 9q-35 0 -71 -45l-83 71q24 40 68.5 64.5t94.5 24.5
q64 0 113.5 -36.5t49.5 -106.5q0 -47 -27.5 -83.5t-61 -53t-63.5 -33.5t-33 -30h191v-108h-327z" />
    <glyph glyph-name="threequarters" unicode="&#xbe;" horiz-adv-x="1020" 
d="M193 264q-102 0 -160 68l61 90q35 -43 91 -43q25 0 39.5 12t14.5 30t-17.5 27t-44.5 9h-37l-24 57l62 69l24 23v2q-21 -2 -34 -2h-110v109h294v-79l-83 -91q97 -24 97 -126q0 -62 -46 -108.5t-127 -46.5zM399 0h-119l336 715h119zM807 0v87h-197v84l171 270h150v-247h53
v-107h-53v-87h-124zM729 194h78v90l4 50h-2q-9 -27 -21 -46l-59 -92v-2z" />
    <glyph glyph-name="questiondown" unicode="&#xbf;" horiz-adv-x="503" 
d="M371 294v-50q0 -37 -16 -68.5t-39.5 -52l-46.5 -39t-39 -39.5t-16 -44q0 -25 21 -42t50 -17q46 0 95 43l96 -117q-83 -83 -209 -83q-92 0 -162.5 52.5t-70.5 143.5q0 45 17.5 82.5t43 61t50.5 44t42.5 43t17.5 46.5v36h166zM367 515v-150h-158v150h158z" />
    <glyph glyph-name="Agrave" unicode="&#xc0;" horiz-adv-x="664" 
d="M-3 0l243 715h184l243 -715h-180l-44 150h-223l-43 -150h-180zM261 290h141l-40 139l-29 123h-2q-16 -78 -29 -123zM270 761l-118 150h171l81 -150h-134z" />
    <glyph glyph-name="Aacute" unicode="&#xc1;" horiz-adv-x="664" 
d="M-3 0l243 715h184l243 -715h-180l-44 150h-223l-43 -150h-180zM261 290h141l-40 139l-29 123h-2q-16 -78 -29 -123zM260 761l81 150h171l-118 -150h-134z" />
    <glyph glyph-name="Acircumflex" unicode="&#xc2;" horiz-adv-x="664" 
d="M-3 0l243 715h184l243 -715h-180l-44 150h-223l-43 -150h-180zM261 290h141l-40 139l-29 123h-2q-16 -78 -29 -123zM149 761l99 150h168l99 -150h-135l-47 82h-2l-47 -82h-135z" />
    <glyph glyph-name="Atilde" unicode="&#xc3;" horiz-adv-x="664" 
d="M-3 0l243 715h184l243 -715h-180l-44 150h-223l-43 -150h-180zM261 290h141l-40 139l-29 123h-2q-16 -78 -29 -123zM131 761q0 153 128 153q29 0 52 -15t41 -30t33 -15q37 0 37 57h112q0 -153 -128 -153q-29 0 -52 15t-41 30t-33 15q-37 0 -37 -57h-112z" />
    <glyph glyph-name="Adieresis" unicode="&#xc4;" horiz-adv-x="664" 
d="M-3 0l243 715h184l243 -715h-180l-44 150h-223l-43 -150h-180zM261 290h141l-40 139l-29 123h-2q-16 -78 -29 -123zM374 771v140h126v-140h-126zM165 771v140h126v-140h-126z" />
    <glyph glyph-name="Aring" unicode="&#xc5;" horiz-adv-x="664" 
d="M-3 0l243 715h184l243 -715h-180l-44 150h-223l-43 -150h-180zM261 290h141l-40 139l-29 123h-2q-16 -78 -29 -123zM332 747q-44 0 -76.5 22t-32.5 63t32.5 63.5t76.5 22.5t77 -22.5t33 -63.5t-33 -63t-77 -22zM332 797q16 0 25.5 9.5t9.5 25.5t-9.5 26t-25.5 10
q-15 0 -24.5 -10t-9.5 -26t9 -25.5t25 -9.5z" />
    <glyph glyph-name="AE" unicode="&#xc6;" horiz-adv-x="949" 
d="M-10 0l299 715h610v-150h-273v-130h218v-150h-218v-135h286v-150h-461v288h-168l-111 -288h-182zM337 428h114v137h-61z" />
    <glyph glyph-name="Ccedilla" unicode="&#xc7;" horiz-adv-x="714" 
d="M334 -82l23 73q-147 17 -233.5 118.5t-86.5 249.5q0 158 105.5 263t269.5 105q75 0 146 -25.5t122 -75.5l-81 -132q-36 32 -84.5 52.5t-94.5 20.5q-100 0 -151 -59.5t-51 -144.5q0 -87 52.5 -151t149.5 -64q102 0 190 88l90 -128q-106 -110 -263 -119l-6 -25
q75 -8 75 -80q0 -50 -34 -72t-83 -22q-37 0 -71 9v87q18 -10 45 -10q38 0 38 23q0 21 -41 21z" />
    <glyph glyph-name="Egrave" unicode="&#xc8;" horiz-adv-x="574" 
d="M75 0v715h448v-150h-273v-130h218v-150h-218v-135h287v-150h-462zM245 761l-118 150h171l81 -150h-134z" />
    <glyph glyph-name="Eacute" unicode="&#xc9;" horiz-adv-x="574" 
d="M75 0v715h448v-150h-273v-130h218v-150h-218v-135h287v-150h-462zM235 761l81 150h171l-118 -150h-134z" />
    <glyph glyph-name="Ecircumflex" unicode="&#xca;" horiz-adv-x="574" 
d="M75 0v715h448v-150h-273v-130h218v-150h-218v-135h287v-150h-462zM124 761l99 150h168l99 -150h-135l-47 82h-2l-47 -82h-135z" />
    <glyph glyph-name="Edieresis" unicode="&#xcb;" horiz-adv-x="574" 
d="M75 0v715h448v-150h-273v-130h218v-150h-218v-135h287v-150h-462zM349 771v140h126v-140h-126zM140 771v140h126v-140h-126z" />
    <glyph glyph-name="Igrave" unicode="&#xcc;" horiz-adv-x="325" 
d="M75 0v715h175v-715h-175zM101 761l-118 150h171l81 -150h-134z" />
    <glyph glyph-name="Iacute" unicode="&#xcd;" horiz-adv-x="325" 
d="M75 0v715h175v-715h-175zM91 761l81 150h171l-118 -150h-134z" />
    <glyph glyph-name="Icircumflex" unicode="&#xce;" horiz-adv-x="325" 
d="M75 0v715h175v-715h-175zM-20 761l99 150h168l99 -150h-135l-47 82h-2l-47 -82h-135z" />
    <glyph glyph-name="Idieresis" unicode="&#xcf;" horiz-adv-x="325" 
d="M75 0v715h175v-715h-175zM205 771v140h126v-140h-126zM-4 771v140h126v-140h-126z" />
    <glyph glyph-name="Eth" unicode="&#xd0;" horiz-adv-x="742" 
d="M80 0v284h-57v140h57v291h254q170 0 269.5 -94.5t99.5 -261.5q0 -168 -99.5 -263.5t-269.5 -95.5h-254zM255 150h72q92 0 143.5 54t51.5 155q0 100 -52 153t-143 53h-72v-141h104v-140h-104v-134z" />
    <glyph glyph-name="Ntilde" unicode="&#xd1;" horiz-adv-x="754" 
d="M75 0v715h177l198 -334q12 -21 27 -51.5t24 -50.5l9 -20h2q-8 77 -8 122v334h175v-715h-176l-199 333q-12 21 -27 51.5t-24 50.5l-9 20h-2q8 -77 8 -122v-333h-175zM176 761q0 153 128 153q29 0 52 -15t41 -30t33 -15q37 0 37 57h112q0 -153 -128 -153q-29 0 -52 15
t-41 30t-33 15q-37 0 -37 -57h-112z" />
    <glyph glyph-name="Ograve" unicode="&#xd2;" horiz-adv-x="820" 
d="M36 362q0 156 105 260.5t269 104.5t269 -104.5t105 -260.5q0 -160 -105 -267t-269 -107t-269 107t-105 267zM217 362q0 -92 54.5 -153t138.5 -61t138.5 61t54.5 153q0 88 -54.5 146.5t-138.5 58.5t-138.5 -58.5t-54.5 -146.5zM348 761l-118 150h171l81 -150h-134z" />
    <glyph glyph-name="Oacute" unicode="&#xd3;" horiz-adv-x="820" 
d="M36 362q0 156 105 260.5t269 104.5t269 -104.5t105 -260.5q0 -160 -105 -267t-269 -107t-269 107t-105 267zM217 362q0 -92 54.5 -153t138.5 -61t138.5 61t54.5 153q0 88 -54.5 146.5t-138.5 58.5t-138.5 -58.5t-54.5 -146.5zM338 761l81 150h171l-118 -150h-134z" />
    <glyph glyph-name="Ocircumflex" unicode="&#xd4;" horiz-adv-x="820" 
d="M36 362q0 156 105 260.5t269 104.5t269 -104.5t105 -260.5q0 -160 -105 -267t-269 -107t-269 107t-105 267zM217 362q0 -92 54.5 -153t138.5 -61t138.5 61t54.5 153q0 88 -54.5 146.5t-138.5 58.5t-138.5 -58.5t-54.5 -146.5zM227 761l99 150h168l99 -150h-135l-47 82h-2
l-47 -82h-135z" />
    <glyph glyph-name="Otilde" unicode="&#xd5;" horiz-adv-x="820" 
d="M36 362q0 156 105 260.5t269 104.5t269 -104.5t105 -260.5q0 -160 -105 -267t-269 -107t-269 107t-105 267zM217 362q0 -92 54.5 -153t138.5 -61t138.5 61t54.5 153q0 88 -54.5 146.5t-138.5 58.5t-138.5 -58.5t-54.5 -146.5zM209 761q0 153 128 153q29 0 52 -15t41 -30
t33 -15q37 0 37 57h112q0 -153 -128 -153q-29 0 -52 15t-41 30t-33 15q-37 0 -37 -57h-112z" />
    <glyph glyph-name="Odieresis" unicode="&#xd6;" horiz-adv-x="820" 
d="M36 362q0 156 105 260.5t269 104.5t269 -104.5t105 -260.5q0 -160 -105 -267t-269 -107t-269 107t-105 267zM217 362q0 -92 54.5 -153t138.5 -61t138.5 61t54.5 153q0 88 -54.5 146.5t-138.5 58.5t-138.5 -58.5t-54.5 -146.5zM452 771v140h126v-140h-126zM243 771v140
h126v-140h-126z" />
    <glyph glyph-name="multiply" unicode="&#xd7;" 
d="M28 92l182 195l-182 196l92 92l179 -192l180 192l92 -92l-183 -196l183 -195l-92 -92l-180 192l-179 -192z" />
    <glyph glyph-name="Oslash" unicode="&#xd8;" horiz-adv-x="819" 
d="M104 20l48 66q-116 108 -116 276q0 155 106.5 260t267.5 105q98 0 176 -40l41 56l70 -47l-40 -55q127 -108 127 -279q0 -159 -106.5 -266.5t-267.5 -107.5q-105 0 -190 48l-46 -64zM256 230l232 320q-37 17 -78 17q-81 0 -137 -58.5t-56 -146.5q0 -77 39 -132zM318 172
q43 -24 92 -24q81 0 137 61t56 153q0 81 -48 137z" />
    <glyph glyph-name="Ugrave" unicode="&#xd9;" horiz-adv-x="732" 
d="M67 263v452h175v-452q0 -55 33.5 -85t90.5 -30t90.5 30t33.5 85v452h175v-452q0 -122 -82 -198.5t-216 -76.5q-135 0 -217.5 76.5t-82.5 198.5zM304 761l-118 150h171l81 -150h-134z" />
    <glyph glyph-name="Uacute" unicode="&#xda;" horiz-adv-x="732" 
d="M67 263v452h175v-452q0 -55 33.5 -85t90.5 -30t90.5 30t33.5 85v452h175v-452q0 -122 -82 -198.5t-216 -76.5q-135 0 -217.5 76.5t-82.5 198.5zM294 761l81 150h171l-118 -150h-134z" />
    <glyph glyph-name="Ucircumflex" unicode="&#xdb;" horiz-adv-x="732" 
d="M67 263v452h175v-452q0 -55 33.5 -85t90.5 -30t90.5 30t33.5 85v452h175v-452q0 -122 -82 -198.5t-216 -76.5q-135 0 -217.5 76.5t-82.5 198.5zM183 761l99 150h168l99 -150h-135l-47 82h-2l-47 -82h-135z" />
    <glyph glyph-name="Udieresis" unicode="&#xdc;" horiz-adv-x="732" 
d="M67 263v452h175v-452q0 -55 33.5 -85t90.5 -30t90.5 30t33.5 85v452h175v-452q0 -122 -82 -198.5t-216 -76.5q-135 0 -217.5 76.5t-82.5 198.5zM408 771v140h126v-140h-126zM199 771v140h126v-140h-126z" />
    <glyph glyph-name="Yacute" unicode="&#xdd;" horiz-adv-x="627" 
d="M226 0v293l-236 422h199l81 -172l43 -103h2q20 54 43 103l80 172h199l-236 -422v-293h-175zM242 761l81 150h171l-118 -150h-134z" />
    <glyph glyph-name="Thorn" unicode="&#xde;" horiz-adv-x="629" 
d="M75 0v715h175v-106h122q104 0 168.5 -69t64.5 -177q0 -109 -64.5 -178.5t-168.5 -69.5h-122v-115h-175zM250 265h86q44 0 67.5 27t23.5 71t-23 70t-65 26h-89v-194z" />
    <glyph glyph-name="germandbls" unicode="&#xdf;" horiz-adv-x="624" 
d="M58 0v527q0 94 75 147t180 53q94 0 162.5 -54.5t68.5 -138.5q0 -34 -18 -62.5t-36 -52t-18 -45.5q0 -16 21 -35.5t46 -38t46 -54t21 -78.5q0 -84 -56 -129.5t-138 -45.5q-78 0 -124 21v142q50 -19 95 -19q50 0 50 42q0 15 -21 34t-46.5 37t-46.5 50t-21 70q0 31 18 60
t36 54t18 46q0 24 -16.5 38.5t-45.5 14.5q-77 0 -77 -68v-515h-173z" />
    <glyph glyph-name="agrave" unicode="&#xe0;" horiz-adv-x="553" 
d="M22 145q0 49 27 85t71.5 55t92.5 27.5t100 8.5h15v9q0 57 -73 57q-68 0 -142 -49l-60 122q35 27 96.5 47t121.5 20q107 0 168.5 -56t61.5 -154v-317h-158v31l2 32h-2q-25 -35 -66.5 -55t-86.5 -20q-74 0 -121 45t-47 112zM193 161q0 -19 13 -31.5t36 -12.5q36 0 62 29
t26 62v14h-16q-48 0 -84.5 -14.5t-36.5 -46.5zM215 565l-118 150h171l81 -150h-134z" />
    <glyph glyph-name="aacute" unicode="&#xe1;" horiz-adv-x="553" 
d="M22 145q0 49 27 85t71.5 55t92.5 27.5t100 8.5h15v9q0 57 -73 57q-68 0 -142 -49l-60 122q35 27 96.5 47t121.5 20q107 0 168.5 -56t61.5 -154v-317h-158v31l2 32h-2q-25 -35 -66.5 -55t-86.5 -20q-74 0 -121 45t-47 112zM193 161q0 -19 13 -31.5t36 -12.5q36 0 62 29
t26 62v14h-16q-48 0 -84.5 -14.5t-36.5 -46.5zM204 565l81 150h171l-118 -150h-134z" />
    <glyph glyph-name="acircumflex" unicode="&#xe2;" horiz-adv-x="553" 
d="M22 145q0 49 27 85t71.5 55t92.5 27.5t100 8.5h15v9q0 57 -73 57q-68 0 -142 -49l-60 122q35 27 96.5 47t121.5 20q107 0 168.5 -56t61.5 -154v-317h-158v31l2 32h-2q-25 -35 -66.5 -55t-86.5 -20q-74 0 -121 45t-47 112zM193 161q0 -19 13 -31.5t36 -12.5q36 0 62 29
t26 62v14h-16q-48 0 -84.5 -14.5t-36.5 -46.5zM93 565l99 150h168l99 -150h-135l-47 82h-2l-47 -82h-135z" />
    <glyph glyph-name="atilde" unicode="&#xe3;" horiz-adv-x="553" 
d="M22 145q0 49 27 85t71.5 55t92.5 27.5t100 8.5h15v9q0 57 -73 57q-68 0 -142 -49l-60 122q35 27 96.5 47t121.5 20q107 0 168.5 -56t61.5 -154v-317h-158v31l2 32h-2q-25 -35 -66.5 -55t-86.5 -20q-74 0 -121 45t-47 112zM193 161q0 -19 13 -31.5t36 -12.5q36 0 62 29
t26 62v14h-16q-48 0 -84.5 -14.5t-36.5 -46.5zM75 565q0 153 128 153q29 0 52 -15t41 -30t33 -15q37 0 37 57h112q0 -153 -128 -153q-29 0 -52 15t-41 30t-33 15q-37 0 -37 -57h-112z" />
    <glyph glyph-name="adieresis" unicode="&#xe4;" horiz-adv-x="553" 
d="M22 145q0 49 27 85t71.5 55t92.5 27.5t100 8.5h15v9q0 57 -73 57q-68 0 -142 -49l-60 122q35 27 96.5 47t121.5 20q107 0 168.5 -56t61.5 -154v-317h-158v31l2 32h-2q-25 -35 -66.5 -55t-86.5 -20q-74 0 -121 45t-47 112zM193 161q0 -19 13 -31.5t36 -12.5q36 0 62 29
t26 62v14h-16q-48 0 -84.5 -14.5t-36.5 -46.5zM318 575v140h126v-140h-126zM109 575v140h126v-140h-126z" />
    <glyph glyph-name="aring" unicode="&#xe5;" horiz-adv-x="553" 
d="M22 145q0 49 27 85t71.5 55t92.5 27.5t100 8.5h15v9q0 57 -73 57q-68 0 -142 -49l-60 122q35 27 96.5 47t121.5 20q107 0 168.5 -56t61.5 -154v-317h-158v31l2 32h-2q-25 -35 -66.5 -55t-86.5 -20q-74 0 -121 45t-47 112zM193 161q0 -19 13 -31.5t36 -12.5q36 0 62 29
t26 62v14h-16q-48 0 -84.5 -14.5t-36.5 -46.5zM276 551q-44 0 -76.5 22t-32.5 63t32.5 63.5t76.5 22.5t77 -22.5t33 -63.5t-33 -63t-77 -22zM276 601q16 0 25.5 9.5t9.5 25.5t-9.5 26t-25.5 10q-15 0 -24.5 -10t-9.5 -26t9 -25.5t25 -9.5z" />
    <glyph glyph-name="ae" unicode="&#xe6;" horiz-adv-x="853" 
d="M22 154q0 44 24 76.5t57.5 49.5t79 27.5t77.5 13t64 2.5h4v7q0 57 -76 57q-65 0 -140 -49l-60 121q36 29 96 48.5t117 19.5q106 0 163 -51h2q62 51 154 51q108 0 173 -71.5t65 -182.5q0 -13 -4 -49h-325q9 -46 42.5 -69t77.5 -23q72 0 142 51l64 -120q-38 -34 -99 -54.5
t-121 -20.5q-133 0 -207 90h-2q-16 -29 -65 -59t-128 -30q-74 0 -124.5 45.5t-50.5 119.5zM497 323h151q0 29 -18 51.5t-46 22.5q-68 0 -87 -74zM196 163q0 -43 51 -43q34 0 59 29.5t25 62.5v12h-17q-46 0 -82 -16t-36 -45z" />
    <glyph glyph-name="ccedilla" unicode="&#xe7;" horiz-adv-x="552" 
d="M235 -82l23 75q-107 17 -168 91.5t-61 173.5q0 110 77.5 189.5t209.5 79.5q58 0 113.5 -19.5t91.5 -58.5l-73 -116q-52 50 -121 50q-58 0 -90.5 -36.5t-32.5 -86.5q0 -51 34 -89.5t95 -38.5q69 0 141 62l63 -121q-74 -76 -199 -84l-6 -25q75 -8 75 -80q0 -50 -34 -72
t-83 -22q-37 0 -71 9v87q18 -10 45 -10q38 0 38 23q0 21 -41 21z" />
    <glyph glyph-name="egrave" unicode="&#xe8;" horiz-adv-x="567" 
d="M29 258q0 116 73 192.5t195 76.5q111 0 174.5 -69.5t63.5 -179.5q0 -18 -4 -54h-325q9 -45 42.5 -68.5t77.5 -23.5q64 0 142 52l64 -121q-41 -35 -100.5 -55t-119.5 -20q-131 0 -207 80t-76 190zM210 323h154q0 33 -19.5 55t-51.5 22q-66 0 -83 -77zM232 565l-118 150
h171l81 -150h-134z" />
    <glyph glyph-name="eacute" unicode="&#xe9;" horiz-adv-x="567" 
d="M29 258q0 116 73 192.5t195 76.5q111 0 174.5 -69.5t63.5 -179.5q0 -18 -4 -54h-325q9 -45 42.5 -68.5t77.5 -23.5q64 0 142 52l64 -121q-41 -35 -100.5 -55t-119.5 -20q-131 0 -207 80t-76 190zM210 323h154q0 33 -19.5 55t-51.5 22q-66 0 -83 -77zM221 565l81 150h171
l-118 -150h-134z" />
    <glyph glyph-name="ecircumflex" unicode="&#xea;" horiz-adv-x="567" 
d="M29 258q0 116 73 192.5t195 76.5q111 0 174.5 -69.5t63.5 -179.5q0 -18 -4 -54h-325q9 -45 42.5 -68.5t77.5 -23.5q64 0 142 52l64 -121q-41 -35 -100.5 -55t-119.5 -20q-131 0 -207 80t-76 190zM210 323h154q0 33 -19.5 55t-51.5 22q-66 0 -83 -77zM110 565l99 150h168
l99 -150h-135l-47 82h-2l-47 -82h-135z" />
    <glyph glyph-name="edieresis" unicode="&#xeb;" horiz-adv-x="567" 
d="M29 258q0 116 73 192.5t195 76.5q111 0 174.5 -69.5t63.5 -179.5q0 -18 -4 -54h-325q9 -45 42.5 -68.5t77.5 -23.5q64 0 142 52l64 -121q-41 -35 -100.5 -55t-119.5 -20q-131 0 -207 80t-76 190zM210 323h154q0 33 -19.5 55t-51.5 22q-66 0 -83 -77zM335 575v140h126
v-140h-126zM126 575v140h126v-140h-126z" />
    <glyph glyph-name="igrave" unicode="&#xec;" horiz-adv-x="289" 
d="M58 0v515h173v-515h-173zM82 565l-118 150h171l81 -150h-134z" />
    <glyph glyph-name="iacute" unicode="&#xed;" horiz-adv-x="289" 
d="M58 0v515h173v-515h-173zM72 565l81 150h171l-118 -150h-134z" />
    <glyph glyph-name="icircumflex" unicode="&#xee;" horiz-adv-x="289" 
d="M58 0v515h173v-515h-173zM-39 565l99 150h168l99 -150h-135l-47 82h-2l-47 -82h-135z" />
    <glyph glyph-name="idieresis" unicode="&#xef;" horiz-adv-x="289" 
d="M58 0v515h173v-515h-173zM186 575v140h126v-140h-126zM-23 575v140h126v-140h-126z" />
    <glyph glyph-name="eth" unicode="&#xf0;" horiz-adv-x="587" 
d="M30 241q0 91 63.5 157t167.5 66q17 0 34.5 -2t26.5 -4l8 -3h2q-25 38 -70 63l-192 -79v95l92 39q-52 22 -95 30l48 135q132 -28 232 -89l161 67v-95l-81 -34q127 -122 127 -304q0 -43 -8.5 -83.5t-29 -79.5t-50.5 -68t-77 -46.5t-105 -17.5q-116 0 -185 75t-69 178z
M204 236q0 -44 20 -74t63 -30q48 0 70.5 34.5t22.5 83.5q0 37 -22 59.5t-61 22.5q-45 0 -69 -27.5t-24 -68.5z" />
    <glyph glyph-name="ntilde" unicode="&#xf1;" horiz-adv-x="626" 
d="M58 0v515h166v-45l-2 -32h2q53 89 164 89q185 0 185 -193v-334h-173v302q0 68 -57 68q-55 0 -83.5 -39t-28.5 -98v-233h-173zM118 565q0 153 128 153q29 0 52 -15t41 -30t33 -15q37 0 37 57h112q0 -153 -128 -153q-29 0 -52 15t-41 30t-33 15q-37 0 -37 -57h-112z" />
    <glyph glyph-name="ograve" unicode="&#xf2;" horiz-adv-x="642" 
d="M29 256q0 119 84 195t207 76q124 0 208.5 -75.5t84.5 -195.5q0 -119 -84 -193.5t-208 -74.5t-208 74.5t-84 193.5zM204 256q0 -56 34 -90t83 -34t83 34t34 90q0 57 -34 92t-83 35t-83 -35t-34 -92zM259 565l-118 150h171l81 -150h-134z" />
    <glyph glyph-name="oacute" unicode="&#xf3;" horiz-adv-x="642" 
d="M29 256q0 119 84 195t207 76q124 0 208.5 -75.5t84.5 -195.5q0 -119 -84 -193.5t-208 -74.5t-208 74.5t-84 193.5zM204 256q0 -56 34 -90t83 -34t83 34t34 90q0 57 -34 92t-83 35t-83 -35t-34 -92zM249 565l81 150h171l-118 -150h-134z" />
    <glyph glyph-name="ocircumflex" unicode="&#xf4;" horiz-adv-x="642" 
d="M29 256q0 119 84 195t207 76q124 0 208.5 -75.5t84.5 -195.5q0 -119 -84 -193.5t-208 -74.5t-208 74.5t-84 193.5zM204 256q0 -56 34 -90t83 -34t83 34t34 90q0 57 -34 92t-83 35t-83 -35t-34 -92zM138 565l99 150h168l99 -150h-135l-47 82h-2l-47 -82h-135z" />
    <glyph glyph-name="otilde" unicode="&#xf5;" horiz-adv-x="642" 
d="M29 256q0 119 84 195t207 76q124 0 208.5 -75.5t84.5 -195.5q0 -119 -84 -193.5t-208 -74.5t-208 74.5t-84 193.5zM204 256q0 -56 34 -90t83 -34t83 34t34 90q0 57 -34 92t-83 35t-83 -35t-34 -92zM120 565q0 153 128 153q29 0 52 -15t41 -30t33 -15q37 0 37 57h112
q0 -153 -128 -153q-29 0 -52 15t-41 30t-33 15q-37 0 -37 -57h-112z" />
    <glyph glyph-name="odieresis" unicode="&#xf6;" horiz-adv-x="642" 
d="M29 256q0 119 84 195t207 76q124 0 208.5 -75.5t84.5 -195.5q0 -119 -84 -193.5t-208 -74.5t-208 74.5t-84 193.5zM204 256q0 -56 34 -90t83 -34t83 34t34 90q0 57 -34 92t-83 35t-83 -35t-34 -92zM363 575v140h126v-140h-126zM154 575v140h126v-140h-126z" />
    <glyph glyph-name="divide" unicode="&#xf7;" 
d="M227 440v135h146v-135h-146zM27 222v130h546v-130h-546zM227 0v135h146v-135h-146z" />
    <glyph glyph-name="oslash" unicode="&#xf8;" horiz-adv-x="642" 
d="M87 -4l39 55q-97 76 -97 205q0 119 84 195t207 76q70 0 131 -26l42 58l66 -45l-40 -55q94 -78 94 -203q0 -119 -84 -193.5t-208 -74.5q-67 0 -124 23l-44 -61zM223 185l138 191q-23 7 -40 7q-49 0 -83 -35t-34 -92q0 -41 19 -71zM287 136q15 -4 34 -4q49 0 83 34t34 90
q0 37 -16 67z" />
    <glyph glyph-name="ugrave" unicode="&#xf9;" horiz-adv-x="621" 
d="M53 181v334h173v-302q0 -68 55 -68q53 0 81 40.5t28 101.5v228h173v-515h-166v45l2 32h-2q-21 -41 -65 -65t-96 -24q-84 0 -133.5 45.5t-49.5 147.5zM246 565l-118 150h171l81 -150h-134z" />
    <glyph glyph-name="uacute" unicode="&#xfa;" horiz-adv-x="621" 
d="M53 181v334h173v-302q0 -68 55 -68q53 0 81 40.5t28 101.5v228h173v-515h-166v45l2 32h-2q-21 -41 -65 -65t-96 -24q-84 0 -133.5 45.5t-49.5 147.5zM236 565l81 150h171l-118 -150h-134z" />
    <glyph glyph-name="ucircumflex" unicode="&#xfb;" horiz-adv-x="621" 
d="M53 181v334h173v-302q0 -68 55 -68q53 0 81 40.5t28 101.5v228h173v-515h-166v45l2 32h-2q-21 -41 -65 -65t-96 -24q-84 0 -133.5 45.5t-49.5 147.5zM125 565l99 150h168l99 -150h-135l-47 82h-2l-47 -82h-135z" />
    <glyph glyph-name="udieresis" unicode="&#xfc;" horiz-adv-x="621" 
d="M53 181v334h173v-302q0 -68 55 -68q53 0 81 40.5t28 101.5v228h173v-515h-166v45l2 32h-2q-21 -41 -65 -65t-96 -24q-84 0 -133.5 45.5t-49.5 147.5zM350 575v140h126v-140h-126zM141 575v140h126v-140h-126z" />
    <glyph glyph-name="yacute" unicode="&#xfd;" horiz-adv-x="561" 
d="M63 -47q28 -19 53 -19q62 0 83 52l10 24l-219 505h196l76 -237l19 -80h2q10 49 17 77l65 240h189l-211 -570q-30 -80 -88.5 -117.5t-126.5 -37.5q-30 0 -60 9t-45 18l-15 9zM210 564l81 150h171l-118 -150h-134z" />
    <glyph glyph-name="thorn" unicode="&#xfe;" horiz-adv-x="631" 
d="M58 -200v915h173v-197l-2 -44h2q48 53 134 53q105 0 170.5 -76.5t65.5 -192.5t-65.5 -193t-170.5 -77q-91 0 -134 48h-2q2 -18 2 -44v-192h-173zM226 257q0 -125 104 -125q44 0 70.5 36.5t26.5 89.5t-26.5 89t-70.5 36q-104 0 -104 -126z" />
    <glyph glyph-name="ydieresis" unicode="&#xff;" horiz-adv-x="561" 
d="M63 -47q28 -19 53 -19q62 0 83 52l10 24l-219 505h196l76 -237l19 -80h2q10 49 17 77l65 240h189l-211 -570q-30 -80 -88.5 -117.5t-126.5 -37.5q-30 0 -60 9t-45 18l-15 9zM324 574v140h126v-140h-126zM115 574v140h126v-140h-126z" />
    <glyph glyph-name="Amacron" unicode="&#x100;" horiz-adv-x="664" 
d="M-3 0l243 715h184l243 -715h-180l-44 150h-223l-43 -150h-180zM261 290h141l-40 139l-29 123h-2q-16 -78 -29 -123zM195 782v112h275v-112h-275z" />
    <glyph glyph-name="amacron" unicode="&#x101;" horiz-adv-x="553" 
d="M22 145q0 49 27 85t71.5 55t92.5 27.5t100 8.5h15v9q0 57 -73 57q-68 0 -142 -49l-60 122q35 27 96.5 47t121.5 20q107 0 168.5 -56t61.5 -154v-317h-158v31l2 32h-2q-25 -35 -66.5 -55t-86.5 -20q-74 0 -121 45t-47 112zM193 161q0 -19 13 -31.5t36 -12.5q36 0 62 29
t26 62v14h-16q-48 0 -84.5 -14.5t-36.5 -46.5zM139 586v112h275v-112h-275z" />
    <glyph glyph-name="Abreve" unicode="&#x102;" horiz-adv-x="664" 
d="M-3 0l243 715h184l243 -715h-180l-44 150h-223l-43 -150h-180zM261 290h141l-40 139l-29 123h-2q-16 -78 -29 -123zM332 756q-73 0 -123.5 39t-50.5 106v10h117v-11q0 -28 17 -43t40 -15t40 15t17 43v11h117v-10q0 -67 -50.5 -106t-123.5 -39z" />
    <glyph glyph-name="abreve" unicode="&#x103;" horiz-adv-x="553" 
d="M22 145q0 49 27 85t71.5 55t92.5 27.5t100 8.5h15v9q0 57 -73 57q-68 0 -142 -49l-60 122q35 27 96.5 47t121.5 20q107 0 168.5 -56t61.5 -154v-317h-158v31l2 32h-2q-25 -35 -66.5 -55t-86.5 -20q-74 0 -121 45t-47 112zM193 161q0 -19 13 -31.5t36 -12.5q36 0 62 29
t26 62v14h-16q-48 0 -84.5 -14.5t-36.5 -46.5zM276 560q-73 0 -123.5 39t-50.5 106v10h117v-11q0 -28 17 -43t40 -15t40 15t17 43v11h117v-10q0 -67 -50.5 -106t-123.5 -39z" />
    <glyph glyph-name="Aogonek" unicode="&#x104;" horiz-adv-x="664" 
d="M-3 0l243 715h184l243 -715q-43 -40 -43 -61q0 -10 9.5 -16t18.5 -7l10 -2l-42 -124q-5 1 -14 2t-32 8t-40.5 17t-32 29t-14.5 43q0 56 64 111h-64l-44 150h-223l-43 -150h-180zM261 290h141l-40 139l-29 123h-2q-16 -78 -29 -123z" />
    <glyph glyph-name="aogonek" unicode="&#x105;" horiz-adv-x="553" 
d="M22 145q0 49 27 85t71.5 55t92.5 27.5t100 8.5h15v9q0 57 -73 57q-68 0 -142 -49l-60 122q35 27 96.5 47t121.5 20q107 0 168.5 -56t61.5 -154v-317q-43 -40 -43 -61q0 -10 9.5 -16t18.5 -7l10 -2l-42 -124q-5 1 -14 2t-32 8t-40.5 17t-32 29t-14.5 43q0 56 64 111h-42
v31l2 32h-2q-25 -35 -66.5 -55t-86.5 -20q-74 0 -121 45t-47 112zM193 161q0 -19 13 -31.5t36 -12.5q36 0 62 29t26 62v14h-16q-48 0 -84.5 -14.5t-36.5 -46.5z" />
    <glyph glyph-name="Cacute" unicode="&#x106;" horiz-adv-x="714" 
d="M37 359q0 158 105.5 263t269.5 105q75 0 146 -25.5t122 -75.5l-81 -132q-36 32 -84.5 52.5t-94.5 20.5q-100 0 -151 -59.5t-51 -144.5q0 -87 52.5 -151t149.5 -64q102 0 190 88l90 -128q-116 -120 -288 -120q-170 0 -272.5 104.5t-102.5 266.5zM330 761l81 150h171
l-118 -150h-134z" />
    <glyph glyph-name="cacute" unicode="&#x107;" horiz-adv-x="552" 
d="M29 258q0 110 77.5 189.5t209.5 79.5q58 0 113.5 -19.5t91.5 -58.5l-73 -116q-52 50 -121 50q-58 0 -90.5 -36.5t-32.5 -86.5q0 -51 34 -89.5t95 -38.5q69 0 141 62l63 -121q-38 -39 -97.5 -62t-123.5 -23q-132 0 -209.5 79t-77.5 191zM224 565l81 150h171l-118 -150
h-134z" />
    <glyph glyph-name="Ccircumflex" unicode="&#x108;" horiz-adv-x="714" 
d="M37 359q0 158 105.5 263t269.5 105q75 0 146 -25.5t122 -75.5l-81 -132q-36 32 -84.5 52.5t-94.5 20.5q-100 0 -151 -59.5t-51 -144.5q0 -87 52.5 -151t149.5 -64q102 0 190 88l90 -128q-116 -120 -288 -120q-170 0 -272.5 104.5t-102.5 266.5zM219 761l99 150h168
l99 -150h-135l-47 82h-2l-47 -82h-135z" />
    <glyph glyph-name="ccircumflex" unicode="&#x109;" horiz-adv-x="552" 
d="M29 258q0 110 77.5 189.5t209.5 79.5q58 0 113.5 -19.5t91.5 -58.5l-73 -116q-52 50 -121 50q-58 0 -90.5 -36.5t-32.5 -86.5q0 -51 34 -89.5t95 -38.5q69 0 141 62l63 -121q-38 -39 -97.5 -62t-123.5 -23q-132 0 -209.5 79t-77.5 191zM113 565l99 150h168l99 -150h-135
l-47 82h-2l-47 -82h-135z" />
    <glyph glyph-name="Cdotaccent" unicode="&#x10a;" horiz-adv-x="714" 
d="M37 359q0 158 105.5 263t269.5 105q75 0 146 -25.5t122 -75.5l-81 -132q-36 32 -84.5 52.5t-94.5 20.5q-100 0 -151 -59.5t-51 -144.5q0 -87 52.5 -151t149.5 -64q102 0 190 88l90 -128q-116 -120 -288 -120q-170 0 -272.5 104.5t-102.5 266.5zM331 779v132h143v-132
h-143z" />
    <glyph glyph-name="cdotaccent" unicode="&#x10b;" horiz-adv-x="552" 
d="M29 258q0 110 77.5 189.5t209.5 79.5q58 0 113.5 -19.5t91.5 -58.5l-73 -116q-52 50 -121 50q-58 0 -90.5 -36.5t-32.5 -86.5q0 -51 34 -89.5t95 -38.5q69 0 141 62l63 -121q-38 -39 -97.5 -62t-123.5 -23q-132 0 -209.5 79t-77.5 191zM225 583v132h143v-132h-143z" />
    <glyph glyph-name="Ccaron" unicode="&#x10c;" horiz-adv-x="714" 
d="M37 359q0 158 105.5 263t269.5 105q75 0 146 -25.5t122 -75.5l-81 -132q-36 32 -84.5 52.5t-94.5 20.5q-100 0 -151 -59.5t-51 -144.5q0 -87 52.5 -151t149.5 -64q102 0 190 88l90 -128q-116 -120 -288 -120q-170 0 -272.5 104.5t-102.5 266.5zM318 761l-99 150h135
l47 -82h2l47 82h135l-99 -150h-168z" />
    <glyph glyph-name="ccaron" unicode="&#x10d;" horiz-adv-x="552" 
d="M29 258q0 110 77.5 189.5t209.5 79.5q58 0 113.5 -19.5t91.5 -58.5l-73 -116q-52 50 -121 50q-58 0 -90.5 -36.5t-32.5 -86.5q0 -51 34 -89.5t95 -38.5q69 0 141 62l63 -121q-38 -39 -97.5 -62t-123.5 -23q-132 0 -209.5 79t-77.5 191zM212 565l-99 150h135l47 -82h2
l47 82h135l-99 -150h-168z" />
    <glyph glyph-name="Dcaron" unicode="&#x10e;" horiz-adv-x="737" 
d="M75 0v715h254q170 0 269.5 -94.5t99.5 -261.5q0 -168 -99.5 -263.5t-269.5 -95.5h-254zM250 150h72q92 0 143.5 54t51.5 155q0 100 -52 153t-143 53h-72v-415zM259 761l-99 150h135l47 -82h2l47 82h135l-99 -150h-168z" />
    <glyph glyph-name="dcaron" unicode="&#x10f;" horiz-adv-x="653" 
d="M31 258q0 121 65.5 195t169.5 74q94 0 135 -41h2q-1 10 -1 23v206h173v-715h-162v34l1 29h-2q-49 -75 -149 -75q-105 0 -168.5 74.5t-63.5 195.5zM205 258q0 -57 28 -92t73 -35q43 0 72 32t29 95q0 50 -26.5 86.5t-74.5 36.5q-43 0 -72 -33t-29 -90zM621 715h136
q7 -29 7 -58q0 -47 -28 -103h-123q20 58 20 93q0 33 -12 68z" />
    <glyph glyph-name="Dcroat" unicode="&#x110;" horiz-adv-x="742" 
d="M80 0v284h-57v140h57v291h254q170 0 269.5 -94.5t99.5 -261.5q0 -168 -99.5 -263.5t-269.5 -95.5h-254zM255 150h72q92 0 143.5 54t51.5 155q0 100 -52 153t-143 53h-72v-141h104v-140h-104v-134z" />
    <glyph glyph-name="dcroat" unicode="&#x111;" horiz-adv-x="633" 
d="M31 258q0 121 65.5 195t169.5 74q95 0 135 -41h2q-1 10 -1 23v45h-126v95h126v66h173v-66h66v-95h-66v-554h-162v34l1 29h-2q-53 -75 -149 -75q-105 0 -168.5 74.5t-63.5 195.5zM205 258q0 -57 28 -92t73 -35q43 0 72 32t29 95q0 50 -26.5 86.5t-74.5 36.5q-43 0 -72 -33
t-29 -90z" />
    <glyph glyph-name="Emacron" unicode="&#x112;" horiz-adv-x="574" 
d="M75 0v715h448v-150h-273v-130h218v-150h-218v-135h287v-150h-462zM170 782v112h275v-112h-275z" />
    <glyph glyph-name="emacron" unicode="&#x113;" horiz-adv-x="567" 
d="M29 258q0 116 73 192.5t195 76.5q111 0 174.5 -69.5t63.5 -179.5q0 -18 -4 -54h-325q9 -45 42.5 -68.5t77.5 -23.5q64 0 142 52l64 -121q-41 -35 -100.5 -55t-119.5 -20q-131 0 -207 80t-76 190zM210 323h154q0 33 -19.5 55t-51.5 22q-66 0 -83 -77zM156 586v112h275
v-112h-275z" />
    <glyph glyph-name="Ebreve" unicode="&#x114;" horiz-adv-x="574" 
d="M75 0v715h448v-150h-273v-130h218v-150h-218v-135h287v-150h-462zM307 756q-73 0 -123.5 39t-50.5 106v10h117v-11q0 -28 17 -43t40 -15t40 15t17 43v11h117v-10q0 -67 -50.5 -106t-123.5 -39z" />
    <glyph glyph-name="ebreve" unicode="&#x115;" horiz-adv-x="567" 
d="M29 258q0 116 73 192.5t195 76.5q111 0 174.5 -69.5t63.5 -179.5q0 -18 -4 -54h-325q9 -45 42.5 -68.5t77.5 -23.5q64 0 142 52l64 -121q-41 -35 -100.5 -55t-119.5 -20q-131 0 -207 80t-76 190zM210 323h154q0 33 -19.5 55t-51.5 22q-66 0 -83 -77zM293 560
q-73 0 -123.5 39t-50.5 106v10h117v-11q0 -28 17 -43t40 -15t40 15t17 43v11h117v-10q0 -67 -50.5 -106t-123.5 -39z" />
    <glyph glyph-name="Edotaccent" unicode="&#x116;" horiz-adv-x="574" 
d="M75 0v715h448v-150h-273v-130h218v-150h-218v-135h287v-150h-462zM236 779v132h143v-132h-143z" />
    <glyph glyph-name="edotaccent" unicode="&#x117;" horiz-adv-x="567" 
d="M29 258q0 116 73 192.5t195 76.5q111 0 174.5 -69.5t63.5 -179.5q0 -18 -4 -54h-325q9 -45 42.5 -68.5t77.5 -23.5q64 0 142 52l64 -121q-41 -35 -100.5 -55t-119.5 -20q-131 0 -207 80t-76 190zM210 323h154q0 33 -19.5 55t-51.5 22q-66 0 -83 -77zM222 583v132h143
v-132h-143z" />
    <glyph glyph-name="Eogonek" unicode="&#x118;" horiz-adv-x="574" 
d="M75 0v715h448v-150h-273v-130h218v-150h-218v-135h287v-150q-43 -40 -43 -61q0 -10 9.5 -16t18.5 -7l10 -2l-42 -124q-5 1 -14 2t-32 8t-40.5 17t-32 29t-14.5 43q0 57 69 111h-351z" />
    <glyph glyph-name="eogonek" unicode="&#x119;" horiz-adv-x="567" 
d="M29 258q0 116 73 192.5t195 76.5q111 0 174.5 -69.5t63.5 -179.5l-4 -54h-325q9 -45 42.5 -68.5t77.5 -23.5q68 0 142 52l63 -120q-8 -8 -39 -31.5t-49.5 -46t-18.5 -47.5q0 -10 9.5 -16t18.5 -7l10 -2l-42 -124q-5 1 -14 2t-32 8t-40.5 17t-32 29t-14.5 43q0 54 66 103
q-26 -4 -41 -4q-131 0 -207 80t-76 190zM210 323h154q0 31 -19 54t-52 23q-65 0 -83 -77z" />
    <glyph glyph-name="Ecaron" unicode="&#x11a;" horiz-adv-x="574" 
d="M75 0v715h448v-150h-273v-130h218v-150h-218v-135h287v-150h-462zM223 761l-99 150h135l47 -82h2l47 82h135l-99 -150h-168z" />
    <glyph glyph-name="ecaron" unicode="&#x11b;" horiz-adv-x="567" 
d="M29 258q0 116 73 192.5t195 76.5q111 0 174.5 -69.5t63.5 -179.5q0 -18 -4 -54h-325q9 -45 42.5 -68.5t77.5 -23.5q64 0 142 52l64 -121q-41 -35 -100.5 -55t-119.5 -20q-131 0 -207 80t-76 190zM210 323h154q0 33 -19.5 55t-51.5 22q-66 0 -83 -77zM209 565l-99 150h135
l47 -82h2l47 82h135l-99 -150h-168z" />
    <glyph glyph-name="Gcircumflex" unicode="&#x11c;" horiz-adv-x="773" 
d="M37 359q0 157 106.5 262.5t268.5 105.5q167 0 275 -95l-84 -131q-31 28 -80 47t-94 19q-106 0 -158.5 -57.5t-52.5 -144.5q0 -99 59.5 -158t145.5 -59q78 0 145 52v55h-101v149h256v-404h-146v20l1 30h-2q-32 -28 -83.5 -45t-104.5 -17q-144 0 -247.5 101t-103.5 270z
M219 761l99 150h168l99 -150h-135l-47 82h-2l-47 -82h-135z" />
    <glyph glyph-name="gcircumflex" unicode="&#x11d;" horiz-adv-x="625" 
d="M130 -33q68 -33 145 -33q119 0 119 99v17l1 19h-2q-45 -54 -129 -54q-110 0 -171 76t-61 183q0 106 60 179.5t171 73.5q90 0 140 -50h3q-1 6 -1 12v26h162v-468q0 -68 -25 -119t-68 -80.5t-92.5 -43.5t-105.5 -14q-107 0 -195 46zM206 280q0 -52 25 -86.5t74 -34.5
q40 0 66.5 25.5t26.5 87.5q0 111 -100 111q-44 0 -68 -28.5t-24 -74.5zM121 565l99 150h168l99 -150h-135l-47 82h-2l-47 -82h-135z" />
    <glyph glyph-name="Gbreve" unicode="&#x11e;" horiz-adv-x="773" 
d="M37 359q0 157 106.5 262.5t268.5 105.5q167 0 275 -95l-84 -131q-31 28 -80 47t-94 19q-106 0 -158.5 -57.5t-52.5 -144.5q0 -99 59.5 -158t145.5 -59q78 0 145 52v55h-101v149h256v-404h-146v20l1 30h-2q-32 -28 -83.5 -45t-104.5 -17q-144 0 -247.5 101t-103.5 270z
M402 756q-73 0 -123.5 39t-50.5 106v10h117v-11q0 -28 17 -43t40 -15t40 15t17 43v11h117v-10q0 -67 -50.5 -106t-123.5 -39z" />
    <glyph glyph-name="gbreve" unicode="&#x11f;" horiz-adv-x="625" 
d="M130 -33q68 -33 145 -33q119 0 119 99v17l1 19h-2q-45 -54 -129 -54q-110 0 -171 76t-61 183q0 106 60 179.5t171 73.5q90 0 140 -50h3q-1 6 -1 12v26h162v-468q0 -68 -25 -119t-68 -80.5t-92.5 -43.5t-105.5 -14q-107 0 -195 46zM206 280q0 -52 25 -86.5t74 -34.5
q40 0 66.5 25.5t26.5 87.5q0 111 -100 111q-44 0 -68 -28.5t-24 -74.5zM304 560q-73 0 -123.5 39t-50.5 106v10h117v-11q0 -28 17 -43t40 -15t40 15t17 43v11h117v-10q0 -67 -50.5 -106t-123.5 -39z" />
    <glyph glyph-name="Gdotaccent" unicode="&#x120;" horiz-adv-x="773" 
d="M37 359q0 157 106.5 262.5t268.5 105.5q167 0 275 -95l-84 -131q-31 28 -80 47t-94 19q-106 0 -158.5 -57.5t-52.5 -144.5q0 -99 59.5 -158t145.5 -59q78 0 145 52v55h-101v149h256v-404h-146v20l1 30h-2q-32 -28 -83.5 -45t-104.5 -17q-144 0 -247.5 101t-103.5 270z
M331 779v132h143v-132h-143z" />
    <glyph glyph-name="gdotaccent" unicode="&#x121;" horiz-adv-x="625" 
d="M130 -33q68 -33 145 -33q119 0 119 99v17l1 19h-2q-45 -54 -129 -54q-110 0 -171 76t-61 183q0 106 60 179.5t171 73.5q90 0 140 -50h3q-1 6 -1 12v26h162v-468q0 -68 -25 -119t-68 -80.5t-92.5 -43.5t-105.5 -14q-107 0 -195 46zM206 280q0 -52 25 -86.5t74 -34.5
q40 0 66.5 25.5t26.5 87.5q0 111 -100 111q-44 0 -68 -28.5t-24 -74.5zM233 583v132h143v-132h-143z" />
    <glyph glyph-name="Gcommaaccent" unicode="&#x122;" horiz-adv-x="773" 
d="M37 359q0 157 106.5 262.5t268.5 105.5q167 0 275 -95l-84 -131q-31 28 -80 47t-94 19q-106 0 -158.5 -57.5t-52.5 -144.5q0 -99 59.5 -158t145.5 -59q78 0 145 52v55h-101v149h256v-404h-146v20l1 30h-2q-32 -28 -83.5 -45t-104.5 -17q-144 0 -247.5 101t-103.5 270z
M317 -49h136q7 -29 7 -58q0 -47 -28 -103h-123q20 58 20 93q0 33 -12 68z" />
    <glyph glyph-name="gcommaaccent" unicode="&#x123;" horiz-adv-x="625" 
d="M130 -33q68 -33 145 -33q119 0 119 99v17l1 19h-2q-45 -54 -129 -54q-110 0 -171 76t-61 183q0 106 60 179.5t171 73.5q90 0 140 -50h3q-1 6 -1 12v26h162v-468q0 -68 -25 -119t-68 -80.5t-92.5 -43.5t-105.5 -14q-107 0 -195 46zM206 280q0 -52 25 -86.5t74 -34.5
q40 0 66.5 25.5t26.5 87.5q0 111 -100 111q-44 0 -68 -28.5t-24 -74.5zM375 560h-135q-7 28 -7 56q0 45 27 99h123q-20 -57 -20 -89q0 -33 12 -66z" />
    <glyph glyph-name="Hcircumflex" unicode="&#x124;" horiz-adv-x="760" 
d="M75 0v715h175v-286h260v286h175v-715h-175v280h-260v-280h-175zM197 761l99 150h168l99 -150h-135l-47 82h-2l-47 -82h-135z" />
    <glyph glyph-name="hcircumflex" unicode="&#x125;" horiz-adv-x="626" 
d="M58 0v715h173v-226l-2 -44h2q22 38 64 60t93 22q185 0 185 -193v-334h-173v302q0 68 -57 68q-54 0 -83 -38t-29 -100v-232h-173zM-38 761l99 150h168l99 -150h-135l-47 82h-2l-47 -82h-135z" />
    <glyph glyph-name="Hbar" unicode="&#x126;" horiz-adv-x="764" 
d="M82 0v517h-66v107h66v91h179v-91h242v91h179v-91h65v-107h-65v-517h-179v280h-242v-280h-179zM261 429h242v88h-242v-88z" />
    <glyph glyph-name="hbar" unicode="&#x127;" horiz-adv-x="626" 
d="M58 0v554h-58v95h58v66h173v-66h134v-95h-134v-65l-2 -44h2q22 38 64 60t93 22q185 0 185 -193v-334h-173v302q0 68 -57 68q-54 0 -83 -39t-29 -98v-233h-173z" />
    <glyph glyph-name="Itilde" unicode="&#x128;" horiz-adv-x="325" 
d="M75 0v715h175v-715h-175zM-38 761q0 153 128 153q29 0 52 -15t41 -30t33 -15q37 0 37 57h112q0 -153 -128 -153q-29 0 -52 15t-41 30t-33 15q-37 0 -37 -57h-112z" />
    <glyph glyph-name="itilde" unicode="&#x129;" horiz-adv-x="289" 
d="M58 0v515h173v-515h-173zM-57 565q0 153 128 153q29 0 52 -15t41 -30t33 -15q37 0 37 57h112q0 -153 -128 -153q-29 0 -52 15t-41 30t-33 15q-37 0 -37 -57h-112z" />
    <glyph glyph-name="Imacron" unicode="&#x12a;" horiz-adv-x="325" 
d="M75 0v715h175v-715h-175zM26 782v112h275v-112h-275z" />
    <glyph glyph-name="imacron" unicode="&#x12b;" horiz-adv-x="289" 
d="M58 0v515h173v-515h-173zM7 586v112h275v-112h-275z" />
    <glyph glyph-name="Ibreve" unicode="&#x12c;" horiz-adv-x="325" 
d="M75 0v715h175v-715h-175zM163 756q-73 0 -123.5 39t-50.5 106v10h117v-11q0 -28 17 -43t40 -15t40 15t17 43v11h117v-10q0 -67 -50.5 -106t-123.5 -39z" />
    <glyph glyph-name="ibreve" unicode="&#x12d;" horiz-adv-x="289" 
d="M58 0v515h173v-515h-173zM144 560q-73 0 -123.5 39t-50.5 106v10h117v-11q0 -28 17 -43t40 -15t40 15t17 43v11h117v-10q0 -67 -50.5 -106t-123.5 -39z" />
    <glyph glyph-name="Iogonek" unicode="&#x12e;" horiz-adv-x="325" 
d="M75 0v715h175v-715q-43 -40 -43 -61q0 -10 9.5 -16t19.5 -7l9 -2l-42 -124q-5 1 -14 2t-32 8t-40.5 17t-32 29t-14.5 43q0 56 64 111h-59z" />
    <glyph glyph-name="iogonek" unicode="&#x12f;" horiz-adv-x="289" 
d="M58 0v515h173v-515q-43 -40 -43 -61q0 -10 9.5 -16t18.5 -7l10 -2l-42 -124q-5 0 -14 1.5t-32 8.5t-40.5 17t-32 29t-14.5 44q0 55 64 110h-57zM60 580v135h169v-135h-169z" />
    <glyph glyph-name="Idotaccent" unicode="&#x130;" horiz-adv-x="325" 
d="M75 0v715h175v-715h-175zM92 779v132h143v-132h-143z" />
    <glyph glyph-name="dotlessi" unicode="&#x131;" horiz-adv-x="289" 
d="M58 0v515h173v-515h-173z" />
    <glyph glyph-name="IJ" unicode="&#x132;" horiz-adv-x="681" 
d="M318 -4v158q42 0 79 27.5t37 88.5v445h179v-447q0 -65 -18.5 -115t-47 -79t-69 -47.5t-78.5 -24.5t-82 -6zM75 0v715h175v-715h-175z" />
    <glyph glyph-name="ij" unicode="&#x133;" horiz-adv-x="578" 
d="M60 580v135h169v-135h-169zM58 0v515h173v-515h-173zM349 580v135h169v-135h-169zM347 4v511h173v-528q0 -49 -18 -86.5t-43.5 -57.5t-61 -32t-63 -15.5t-56.5 -3.5q-24 0 -46 3v144q8 -1 22 -1q93 0 93 66z" />
    <glyph glyph-name="Jcircumflex" unicode="&#x134;" horiz-adv-x="566" 
d="M18 220v52h175v-38q0 -86 65 -86q30 0 47 19t17 57v341h-192v150h367v-495q0 -111 -71 -171.5t-168 -60.5q-98 0 -169 61t-71 171zM126 761l99 150h168l99 -150h-135l-47 82h-2l-47 -82h-135z" />
    <glyph glyph-name="jcircumflex" unicode="&#x135;" horiz-adv-x="289" 
d="M-30 565l99 150h152l99 -150h-127l-47 82h-2l-47 -82h-127zM58 4v511h173v-528q0 -49 -18 -86.5t-43.5 -57.5t-61 -32t-63 -15.5t-56.5 -3.5q-23 0 -46 3v144q6 -1 22 -1q93 0 93 66z" />
    <glyph glyph-name="Kcommaaccent" unicode="&#x136;" horiz-adv-x="675" 
d="M75 0v715h175v-276h72l148 276h188l-193 -342v-2l204 -371h-196l-151 290h-72v-290h-175zM271 -49h136q7 -29 7 -58q0 -47 -28 -103h-123q20 58 20 93q0 33 -12 68z" />
    <glyph glyph-name="kcommaaccent" unicode="&#x137;" horiz-adv-x="591" 
d="M58 0v715h173v-370h49l102 170h188l-151 -234v-2l172 -279h-197l-109 200h-54v-200h-173zM233 -49h136q7 -29 7 -58q0 -47 -28 -103h-123q20 58 20 93q0 33 -12 68z" />
    <glyph glyph-name="kgreenlandic" unicode="&#x138;" horiz-adv-x="589" 
d="M58 0v515h173v-180h49l105 180h188l-154 -244v-2l166 -269h-200l-100 190h-54v-190h-173z" />
    <glyph glyph-name="Lacute" unicode="&#x139;" horiz-adv-x="552" 
d="M75 0v715h175v-565h292v-150h-467zM91 761l81 150h171l-118 -150h-134z" />
    <glyph glyph-name="lacute" unicode="&#x13a;" horiz-adv-x="322" 
d="M57 190v525h173v-502q0 -38 9.5 -52t38.5 -14q13 0 21 1v-150q-36 -3 -52 -3q-40 0 -69.5 6.5t-59 25.5t-45.5 60t-16 103zM72 761l81 150h171l-118 -150h-134z" />
    <glyph glyph-name="Lcommaaccent" unicode="&#x13b;" horiz-adv-x="552" 
d="M75 0v715h175v-565h292v-150h-467zM242 -49h136q7 -29 7 -58q0 -47 -28 -103h-123q20 58 20 93q0 33 -12 68z" />
    <glyph glyph-name="lcommaaccent" unicode="&#x13c;" horiz-adv-x="322" 
d="M57 190v525h173v-502q0 -38 9.5 -52t38.5 -14q13 0 21 1v-150q-36 -3 -52 -3q-40 0 -69.5 6.5t-59 25.5t-45.5 60t-16 103zM113 -49h136q7 -29 7 -58q0 -47 -28 -103h-123q20 58 20 93q0 33 -12 68z" />
    <glyph glyph-name="Lcaron" unicode="&#x13d;" horiz-adv-x="553" 
d="M75 0v715h175v-565h292v-150h-467zM320 715h136q7 -29 7 -58q0 -47 -28 -103h-123q20 58 20 93q0 33 -12 68z" />
    <glyph glyph-name="lcaron" unicode="&#x13e;" horiz-adv-x="342" 
d="M57 190v525h173v-502q0 -38 9.5 -52t38.5 -14q13 0 21 1v-150q-36 -3 -52 -3q-40 0 -69.5 6.5t-59 25.5t-45.5 60t-16 103zM277 715h136q7 -29 7 -58q0 -47 -28 -103h-123q20 58 20 93q0 33 -12 68z" />
    <glyph glyph-name="Ldot" unicode="&#x13f;" horiz-adv-x="554" 
d="M75 0v715h175v-565h292v-150h-467zM343 315v164h158v-164h-158z" />
    <glyph glyph-name="ldot" unicode="&#x140;" horiz-adv-x="495" 
d="M57 190v525h173v-502q0 -38 9.5 -52t38.5 -14q13 0 21 1v-150q-36 -3 -52 -3q-40 0 -69.5 6.5t-59 25.5t-45.5 60t-16 103zM312 315v164h158v-164h-158z" />
    <glyph glyph-name="Lslash" unicode="&#x141;" horiz-adv-x="556" 
d="M79 0v205l-52 -30v166l52 30v344h175v-244l101 58v-166l-101 -58v-155h292v-150h-467z" />
    <glyph glyph-name="lslash" unicode="&#x142;" horiz-adv-x="334" 
d="M18 195v166l50 29v325h173v-226l69 40v-166l-69 -40v-110q0 -38 9.5 -52t38.5 -14l21 1v-150q-24 -3 -52 -3q-40 0 -69.5 6.5t-59 25.5t-45.5 60t-16 103v34z" />
    <glyph glyph-name="Nacute" unicode="&#x143;" horiz-adv-x="754" 
d="M75 0v715h177l198 -334q12 -21 27 -51.5t24 -50.5l9 -20h2q-8 77 -8 122v334h175v-715h-176l-199 333q-12 21 -27 51.5t-24 50.5l-9 20h-2q8 -77 8 -122v-333h-175zM305 761l81 150h171l-118 -150h-134z" />
    <glyph glyph-name="nacute" unicode="&#x144;" horiz-adv-x="626" 
d="M58 0v515h166v-45l-2 -32h2q53 89 164 89q185 0 185 -193v-334h-173v302q0 68 -57 68q-55 0 -83.5 -39t-28.5 -98v-233h-173zM247 565l81 150h171l-118 -150h-134z" />
    <glyph glyph-name="Ncommaaccent" unicode="&#x145;" horiz-adv-x="754" 
d="M75 0v715h177l198 -334q12 -21 27 -51.5t24 -50.5l9 -20h2q-8 77 -8 122v334h175v-715h-176l-199 333q-12 21 -27 51.5t-24 50.5l-9 20h-2q8 -77 8 -122v-333h-175zM306 -49h136q7 -29 7 -58q0 -47 -28 -103h-123q20 58 20 93q0 33 -12 68z" />
    <glyph glyph-name="ncommaaccent" unicode="&#x146;" horiz-adv-x="626" 
d="M58 0v515h166v-45l-2 -32h2q53 89 164 89q185 0 185 -193v-334h-173v302q0 68 -57 68q-55 0 -83.5 -39t-28.5 -98v-233h-173zM241 -49h136q7 -29 7 -58q0 -47 -28 -103h-123q20 58 20 93q0 33 -12 68z" />
    <glyph glyph-name="Ncaron" unicode="&#x147;" horiz-adv-x="754" 
d="M75 0v715h177l198 -334q12 -21 27 -51.5t24 -50.5l9 -20h2q-8 77 -8 122v334h175v-715h-176l-199 333q-12 21 -27 51.5t-24 50.5l-9 20h-2q8 -77 8 -122v-333h-175zM293 761l-99 150h135l47 -82h2l47 82h135l-99 -150h-168z" />
    <glyph glyph-name="ncaron" unicode="&#x148;" horiz-adv-x="626" 
d="M58 0v515h166v-45l-2 -32h2q53 89 164 89q185 0 185 -193v-334h-173v302q0 68 -57 68q-55 0 -83.5 -39t-28.5 -98v-233h-173zM235 565l-99 150h135l47 -82h2l47 82h135l-99 -150h-168z" />
    <glyph glyph-name="napostrophe" unicode="&#x149;" horiz-adv-x="626" 
d="M58 0v515h166v-45l-2 -32h2q53 89 164 89q185 0 185 -193v-334h-173v302q0 68 -57 68q-55 0 -83.5 -39t-28.5 -98v-233h-173zM-36 715h136q7 -29 7 -58q0 -47 -28 -103h-123q20 58 20 93q0 33 -12 68z" />
    <glyph glyph-name="Eng" unicode="&#x14a;" horiz-adv-x="753" 
d="M75 0v715h177l198 -334q12 -21 27 -51.5t24 -50.5l9 -20h2q-8 77 -8 122v334h175v-648q0 -65 -18.5 -115t-47 -79t-69 -47.5t-78.5 -24.5t-82 -6v158q27 0 65 16t48 41l-193 323q-12 21 -27 51.5t-24 50.5l-9 20h-2q8 -77 8 -122v-333h-175z" />
    <glyph glyph-name="eng" unicode="&#x14b;" horiz-adv-x="626" 
d="M58 0v515h166v-65l-1 -12h2q53 89 163 89q185 0 185 -193v-347q0 -49 -18 -86.5t-43.5 -57.5t-61 -32t-63 -15.5t-56.5 -3.5l-46 3v144q9 -1 22 -1q93 0 93 66v298q0 68 -57 68q-55 0 -83.5 -39t-28.5 -98v-233h-173z" />
    <glyph glyph-name="Omacron" unicode="&#x14c;" horiz-adv-x="820" 
d="M36 362q0 156 105 260.5t269 104.5t269 -104.5t105 -260.5q0 -160 -105 -267t-269 -107t-269 107t-105 267zM217 362q0 -92 54.5 -153t138.5 -61t138.5 61t54.5 153q0 88 -54.5 146.5t-138.5 58.5t-138.5 -58.5t-54.5 -146.5zM273 782v112h275v-112h-275z" />
    <glyph glyph-name="omacron" unicode="&#x14d;" horiz-adv-x="642" 
d="M29 256q0 119 84 195t207 76q124 0 208.5 -75.5t84.5 -195.5q0 -119 -84 -193.5t-208 -74.5t-208 74.5t-84 193.5zM204 256q0 -56 34 -90t83 -34t83 34t34 90q0 57 -34 92t-83 35t-83 -35t-34 -92zM184 586v112h275v-112h-275z" />
    <glyph glyph-name="Obreve" unicode="&#x14e;" horiz-adv-x="820" 
d="M36 362q0 156 105 260.5t269 104.5t269 -104.5t105 -260.5q0 -160 -105 -267t-269 -107t-269 107t-105 267zM217 362q0 -92 54.5 -153t138.5 -61t138.5 61t54.5 153q0 88 -54.5 146.5t-138.5 58.5t-138.5 -58.5t-54.5 -146.5zM410 756q-73 0 -123.5 39t-50.5 106v10h117
v-11q0 -28 17 -43t40 -15t40 15t17 43v11h117v-10q0 -67 -50.5 -106t-123.5 -39z" />
    <glyph glyph-name="obreve" unicode="&#x14f;" horiz-adv-x="642" 
d="M29 256q0 119 84 195t207 76q124 0 208.5 -75.5t84.5 -195.5q0 -119 -84 -193.5t-208 -74.5t-208 74.5t-84 193.5zM204 256q0 -56 34 -90t83 -34t83 34t34 90q0 57 -34 92t-83 35t-83 -35t-34 -92zM321 560q-73 0 -123.5 39t-50.5 106v10h117v-11q0 -28 17 -43t40 -15
t40 15t17 43v11h117v-10q0 -67 -50.5 -106t-123.5 -39z" />
    <glyph glyph-name="Ohungarumlaut" unicode="&#x150;" horiz-adv-x="820" 
d="M36 362q0 156 105 260.5t269 104.5t269 -104.5t105 -260.5q0 -160 -105 -267t-269 -107t-269 107t-105 267zM217 362q0 -92 54.5 -153t138.5 -61t138.5 61t54.5 153q0 88 -54.5 146.5t-138.5 58.5t-138.5 -58.5t-54.5 -146.5zM436 761l81 150h163l-118 -150h-126z
M228 761l76 150h139l-79 -150h-136z" />
    <glyph glyph-name="ohungarumlaut" unicode="&#x151;" horiz-adv-x="642" 
d="M29 256q0 119 84 195t207 76q124 0 208.5 -75.5t84.5 -195.5q0 -119 -84 -193.5t-208 -74.5t-208 74.5t-84 193.5zM204 256q0 -56 34 -90t83 -34t83 34t34 90q0 57 -34 92t-83 35t-83 -35t-34 -92zM347 565l81 150h163l-118 -150h-126zM139 565l76 150h139l-79 -150h-136
z" />
    <glyph glyph-name="OE" unicode="&#x152;" horiz-adv-x="990" 
d="M35 359q0 153 112.5 258.5t271.5 105.5q37 0 75 -4t57 -4h388v-150h-273v-130h218v-150h-218v-135h288v-150h-403q-19 0 -57 -4t-75 -4q-159 0 -271.5 107t-112.5 260zM216 359q0 -90 59 -154t144 -64q20 0 38 1.5t26 3.5l8 2v419q-28 7 -72 7q-85 0 -144 -62.5
t-59 -152.5z" />
    <glyph glyph-name="oe" unicode="&#x153;" horiz-adv-x="975" 
d="M29 256q0 119 82 195t203 76q68 0 113.5 -20.5t85.5 -59.5h2q35 39 78 59.5t112 20.5q111 0 174.5 -69.5t63.5 -179.5l-4 -54h-324q9 -43 42.5 -67.5t76.5 -24.5q70 0 142 52l64 -121q-42 -36 -101 -55.5t-119 -19.5q-73 0 -118.5 22t-82.5 63h-2q-40 -41 -86.5 -63
t-115.5 -22q-122 0 -204 74.5t-82 193.5zM618 323h151q-1 29 -19 51.5t-47 22.5q-67 0 -85 -74zM203 256q0 -56 34 -90t83 -34t83 34t34 90q0 57 -34 92t-83 35t-83 -35t-34 -92z" />
    <glyph glyph-name="Racute" unicode="&#x154;" horiz-adv-x="658" 
d="M75 0v715h249q95 0 139 -17q62 -24 97 -77.5t35 -130.5q0 -60 -28 -114.5t-79 -80.5v-2q10 -13 27 -43l139 -250h-195l-127 241h-82v-241h-175zM250 391h76q43 0 67 23t24 65q0 59 -42 76q-23 10 -66 10h-59v-174zM245 761l81 150h171l-118 -150h-134z" />
    <glyph glyph-name="racute" unicode="&#x155;" horiz-adv-x="426" 
d="M58 0v515h166v-87l-2 -32h2q17 54 62.5 91t101.5 37q8 0 20 -2v-170q-9 3 -35 3q-70 0 -106 -41t-36 -114v-200h-173zM178 564l81 150h171l-118 -150h-134z" />
    <glyph glyph-name="Rcommaaccent" unicode="&#x156;" horiz-adv-x="658" 
d="M75 0v715h249q95 0 139 -17q62 -24 97 -77.5t35 -130.5q0 -60 -28 -114.5t-79 -80.5v-2q10 -13 27 -43l139 -250h-195l-127 241h-82v-241h-175zM250 391h76q43 0 67 23t24 65q0 59 -42 76q-23 10 -66 10h-59v-174zM267 -49h136q7 -29 7 -58q0 -47 -28 -103h-123
q20 58 20 93q0 33 -12 68z" />
    <glyph glyph-name="rcommaaccent" unicode="&#x157;" horiz-adv-x="426" 
d="M58 0v515h166v-87l-2 -32h2q17 54 62.5 91t101.5 37q8 0 20 -2v-170q-9 3 -35 3q-70 0 -106 -41t-36 -114v-200h-173zM74 -49h136q7 -29 7 -58q0 -47 -28 -103h-123q20 58 20 93q0 33 -12 68z" />
    <glyph glyph-name="Rcaron" unicode="&#x158;" horiz-adv-x="658" 
d="M75 0v715h249q95 0 139 -17q62 -24 97 -77.5t35 -130.5q0 -60 -28 -114.5t-79 -80.5v-2q10 -13 27 -43l139 -250h-195l-127 241h-82v-241h-175zM250 391h76q43 0 67 23t24 65q0 59 -42 76q-23 10 -66 10h-59v-174zM233 761l-99 150h135l47 -82h2l47 82h135l-99 -150h-168
z" />
    <glyph glyph-name="rcaron" unicode="&#x159;" horiz-adv-x="426" 
d="M58 0v515h166v-87l-2 -32h2q17 54 62.5 91t101.5 37q8 0 20 -2v-170q-9 3 -35 3q-70 0 -106 -41t-36 -114v-200h-173zM166 564l-99 150h135l47 -82h2l47 82h135l-99 -150h-168z" />
    <glyph glyph-name="Sacute" unicode="&#x15a;" horiz-adv-x="575" 
d="M26 90l92 133q34 -30 81 -52t91 -22q35 0 54.5 14t19.5 36q0 23 -23.5 42.5t-58.5 32.5t-76 33.5t-76 43.5t-58.5 63.5t-23.5 93.5q0 98 72.5 158.5t186.5 60.5q133 0 224 -81l-74 -143q-31 27 -74 45t-84 18q-38 0 -57 -14t-19 -37t23.5 -42t58.5 -31.5t76 -32t76 -42
t58.5 -63t23.5 -93.5q0 -95 -67.5 -159t-186.5 -64q-72 0 -140.5 26t-118.5 76zM216 761l81 150h171l-118 -150h-134z" />
    <glyph glyph-name="sacute" unicode="&#x15b;" horiz-adv-x="471" 
d="M19 64l74 113q62 -52 140 -52q47 0 47 27q0 15 -25 26.5t-60 23.5t-70.5 29.5t-60.5 51.5t-25 81q0 77 60.5 120t153.5 43q111 0 184 -59l-59 -120q-22 18 -59.5 30t-70.5 12q-48 0 -48 -25q0 -12 18 -22.5t44.5 -18t58 -21t58 -30t44.5 -47t18 -69.5q0 -74 -57.5 -121.5
t-154.5 -47.5q-125 0 -210 76zM157 565l81 150h171l-118 -150h-134z" />
    <glyph glyph-name="Scircumflex" unicode="&#x15c;" horiz-adv-x="575" 
d="M26 90l92 133q34 -30 81 -52t91 -22q35 0 54.5 14t19.5 36q0 23 -23.5 42.5t-58.5 32.5t-76 33.5t-76 43.5t-58.5 63.5t-23.5 93.5q0 98 72.5 158.5t186.5 60.5q133 0 224 -81l-74 -143q-31 27 -74 45t-84 18q-38 0 -57 -14t-19 -37t23.5 -42t58.5 -31.5t76 -32t76 -42
t58.5 -63t23.5 -93.5q0 -95 -67.5 -159t-186.5 -64q-72 0 -140.5 26t-118.5 76zM105 761l99 150h168l99 -150h-135l-47 82h-2l-47 -82h-135z" />
    <glyph glyph-name="scircumflex" unicode="&#x15d;" horiz-adv-x="471" 
d="M19 64l74 113q62 -52 140 -52q47 0 47 27q0 15 -25 26.5t-60 23.5t-70.5 29.5t-60.5 51.5t-25 81q0 77 60.5 120t153.5 43q111 0 184 -59l-59 -120q-22 18 -59.5 30t-70.5 12q-48 0 -48 -25q0 -12 18 -22.5t44.5 -18t58 -21t58 -30t44.5 -47t18 -69.5q0 -74 -57.5 -121.5
t-154.5 -47.5q-125 0 -210 76zM47 565l99 150h168l99 -150h-135l-47 82h-2l-47 -82h-135z" />
    <glyph glyph-name="Scedilla" unicode="&#x15e;" horiz-adv-x="576" 
d="M225 -82l22 72q-134 13 -221 100l92 133q34 -30 81 -52t91 -22q35 0 54.5 14t19.5 36q0 23 -23.5 42.5t-58.5 32.5t-76 33.5t-76 43.5t-58.5 63.5t-23.5 93.5q0 98 72.5 158.5t186.5 60.5q133 0 224 -81l-74 -143q-31 27 -74 45t-84 18q-38 0 -57 -14t-19 -37t23.5 -42
t58.5 -31.5t76 -32t76 -42t58.5 -63t23.5 -93.5q0 -85 -56 -146.5t-155 -73.5l-6 -27q75 -8 75 -80q0 -50 -34 -72t-83 -22q-36 0 -71 9v87q18 -10 45 -10q38 0 38 23q0 21 -41 21z" />
    <glyph glyph-name="scedilla" unicode="&#x15f;" horiz-adv-x="473" 
d="M160 -82l23 74q-96 13 -162 72l74 113q62 -52 140 -52q47 0 47 27q0 15 -25 26.5t-60 23.5t-70.5 29.5t-60.5 51.5t-25 81q0 77 60.5 120t153.5 43q111 0 184 -59l-59 -120q-22 18 -59.5 30t-70.5 12q-48 0 -48 -25q0 -12 18 -22.5t44.5 -18t58 -21t58 -30t44.5 -47
t18 -69.5q0 -67 -48.5 -113.5t-131.5 -53.5l-6 -26q75 -8 75 -80q0 -50 -34 -72t-83 -22q-37 0 -71 9v87q18 -10 45 -10q38 0 38 23q0 21 -41 21z" />
    <glyph glyph-name="Scaron" unicode="&#x160;" horiz-adv-x="575" 
d="M26 90l92 133q34 -30 81 -52t91 -22q35 0 54.5 14t19.5 36q0 23 -23.5 42.5t-58.5 32.5t-76 33.5t-76 43.5t-58.5 63.5t-23.5 93.5q0 98 72.5 158.5t186.5 60.5q133 0 224 -81l-74 -143q-31 27 -74 45t-84 18q-38 0 -57 -14t-19 -37t23.5 -42t58.5 -31.5t76 -32t76 -42
t58.5 -63t23.5 -93.5q0 -95 -67.5 -159t-186.5 -64q-72 0 -140.5 26t-118.5 76zM204 761l-99 150h135l47 -82h2l47 82h135l-99 -150h-168z" />
    <glyph glyph-name="scaron" unicode="&#x161;" horiz-adv-x="471" 
d="M19 64l74 113q62 -52 140 -52q47 0 47 27q0 15 -25 26.5t-60 23.5t-70.5 29.5t-60.5 51.5t-25 81q0 77 60.5 120t153.5 43q111 0 184 -59l-59 -120q-22 18 -59.5 30t-70.5 12q-48 0 -48 -25q0 -12 18 -22.5t44.5 -18t58 -21t58 -30t44.5 -47t18 -69.5q0 -74 -57.5 -121.5
t-154.5 -47.5q-125 0 -210 76zM146 565l-99 150h135l47 -82h2l47 82h135l-99 -150h-168z" />
    <glyph glyph-name="Tcommaaccent" unicode="&#x162;" horiz-adv-x="633" 
d="M229 0v565h-217v150h609v-150h-217v-565h-50l-9 -36q75 -8 75 -80q0 -50 -34 -72t-83 -22q-36 0 -71 9v87q18 -10 45 -10q38 0 38 23q0 21 -41 21l-26 -2l26 82h-45z" />
    <glyph glyph-name="tcommaaccent" unicode="&#x163;" horiz-adv-x="411" 
d="M156 -82l33 104q-101 48 -101 168v181h-66v135h71v148h168v-148h108v-135h-108v-158q0 -66 92 -66q12 0 23 1v-150q-39 -3 -47 -3q-37 0 -67 5l-9 -36q75 -8 75 -80q0 -50 -34 -72t-83 -22q-37 0 -71 9v87q18 -10 45 -10q38 0 38 23q0 21 -41 21z" />
    <glyph glyph-name="Tcaron" unicode="&#x164;" horiz-adv-x="633" 
d="M229 0v565h-217v150h609v-150h-217v-565h-175zM232 761l-99 150h135l47 -82h2l47 82h135l-99 -150h-168z" />
    <glyph glyph-name="tcaron" unicode="&#x165;" horiz-adv-x="411" 
d="M88 190v181h-66v135h71v148h168v-148h108v-135h-108v-158q0 -66 92 -66q12 0 23 1v-150q-39 -3 -47 -3q-24 0 -46.5 2.5t-52 9.5t-53 21t-44.5 34.5t-33 53.5t-12 74zM303 715h136q7 -28 7 -54q0 -44 -28 -97h-123q20 55 20 87t-12 64z" />
    <glyph glyph-name="Tbar" unicode="&#x166;" horiz-adv-x="644" 
d="M234 0v272h-142v127h142v166h-217v150h609v-150h-217v-166h148v-127h-148v-272h-175z" />
    <glyph glyph-name="tbar" unicode="&#x167;" horiz-adv-x="414" 
d="M14 209v107h77v55h-66v135h71v148h168v-148h108v-135h-108v-55h97v-107h-97v-5q0 -32 29 -44.5t63 -12.5l23 1v-150q-19 -3 -47 -3q-24 0 -46.5 2.5t-52 9.5t-53 21t-44.5 34.5t-33 53.5t-12 74v19h-77z" />
    <glyph glyph-name="Utilde" unicode="&#x168;" horiz-adv-x="732" 
d="M67 263v452h175v-452q0 -55 33.5 -85t90.5 -30t90.5 30t33.5 85v452h175v-452q0 -122 -82 -198.5t-216 -76.5q-135 0 -217.5 76.5t-82.5 198.5zM165 761q0 153 128 153q29 0 52 -15t41 -30t33 -15q37 0 37 57h112q0 -153 -128 -153q-29 0 -52 15t-41 30t-33 15
q-37 0 -37 -57h-112z" />
    <glyph glyph-name="utilde" unicode="&#x169;" horiz-adv-x="621" 
d="M53 181v334h173v-302q0 -68 55 -68q53 0 81 40.5t28 101.5v228h173v-515h-166v45l2 32h-2q-21 -41 -65 -65t-96 -24q-84 0 -133.5 45.5t-49.5 147.5zM107 565q0 153 128 153q29 0 52 -15t41 -30t33 -15q37 0 37 57h112q0 -153 -128 -153q-29 0 -52 15t-41 30t-33 15
q-37 0 -37 -57h-112z" />
    <glyph glyph-name="Umacron" unicode="&#x16a;" horiz-adv-x="732" 
d="M67 263v452h175v-452q0 -55 33.5 -85t90.5 -30t90.5 30t33.5 85v452h175v-452q0 -122 -82 -198.5t-216 -76.5q-135 0 -217.5 76.5t-82.5 198.5zM229 782v112h275v-112h-275z" />
    <glyph glyph-name="umacron" unicode="&#x16b;" horiz-adv-x="621" 
d="M53 181v334h173v-302q0 -68 55 -68q53 0 81 40.5t28 101.5v228h173v-515h-166v45l2 32h-2q-21 -41 -65 -65t-96 -24q-84 0 -133.5 45.5t-49.5 147.5zM171 586v112h275v-112h-275z" />
    <glyph glyph-name="Ubreve" unicode="&#x16c;" horiz-adv-x="732" 
d="M67 263v452h175v-452q0 -55 33.5 -85t90.5 -30t90.5 30t33.5 85v452h175v-452q0 -122 -82 -198.5t-216 -76.5q-135 0 -217.5 76.5t-82.5 198.5zM366 756q-73 0 -123.5 39t-50.5 106v10h117v-11q0 -28 17 -43t40 -15t40 15t17 43v11h117v-10q0 -67 -50.5 -106t-123.5 -39z
" />
    <glyph glyph-name="ubreve" unicode="&#x16d;" horiz-adv-x="621" 
d="M53 181v334h173v-302q0 -68 55 -68q53 0 81 40.5t28 101.5v228h173v-515h-166v45l2 32h-2q-21 -41 -65 -65t-96 -24q-84 0 -133.5 45.5t-49.5 147.5zM308 560q-73 0 -123.5 39t-50.5 106v10h117v-11q0 -28 17 -43t40 -15t40 15t17 43v11h117v-10q0 -67 -50.5 -106
t-123.5 -39z" />
    <glyph glyph-name="Uring" unicode="&#x16e;" horiz-adv-x="732" 
d="M67 263v452h175v-452q0 -55 33.5 -85t90.5 -30t90.5 30t33.5 85v452h175v-452q0 -122 -82 -198.5t-216 -76.5q-135 0 -217.5 76.5t-82.5 198.5zM366 747q-44 0 -76.5 22t-32.5 63t32.5 63.5t76.5 22.5t77 -22.5t33 -63.5t-33 -63t-77 -22zM366 797q16 0 25.5 9.5
t9.5 25.5t-9.5 26t-25.5 10q-15 0 -24.5 -10t-9.5 -26t9 -25.5t25 -9.5z" />
    <glyph glyph-name="uring" unicode="&#x16f;" horiz-adv-x="621" 
d="M53 181v334h173v-302q0 -68 55 -68q53 0 81 40.5t28 101.5v228h173v-515h-166v45l2 32h-2q-21 -41 -65 -65t-96 -24q-84 0 -133.5 45.5t-49.5 147.5zM308 551q-44 0 -76.5 22t-32.5 63t32.5 63.5t76.5 22.5t77 -22.5t33 -63.5t-33 -63t-77 -22zM308 601q16 0 25.5 9.5
t9.5 25.5t-9.5 26t-25.5 10q-15 0 -24.5 -10t-9.5 -26t9 -25.5t25 -9.5z" />
    <glyph glyph-name="Uhungarumlaut" unicode="&#x170;" horiz-adv-x="732" 
d="M67 263v452h175v-452q0 -55 33.5 -85t90.5 -30t90.5 30t33.5 85v452h175v-452q0 -122 -82 -198.5t-216 -76.5q-135 0 -217.5 76.5t-82.5 198.5zM392 761l81 150h163l-118 -150h-126zM184 761l76 150h139l-79 -150h-136z" />
    <glyph glyph-name="uhungarumlaut" unicode="&#x171;" horiz-adv-x="621" 
d="M53 181v334h173v-302q0 -68 55 -68q53 0 81 40.5t28 101.5v228h173v-515h-166v45l2 32h-2q-21 -41 -65 -65t-96 -24q-84 0 -133.5 45.5t-49.5 147.5zM334 565l81 150h163l-118 -150h-126zM126 565l76 150h139l-79 -150h-136z" />
    <glyph glyph-name="Uogonek" unicode="&#x172;" horiz-adv-x="734" 
d="M68 263v452h175v-452q0 -55 33.5 -85t90.5 -30t90.5 30t33.5 85v452h175v-452q0 -47 -11 -85t-34 -67.5t-40.5 -45.5t-47.5 -39q-5 -4 -18.5 -14t-18.5 -14l-15 -12t-14 -12.5l-9.5 -11t-7.5 -12t-2 -11.5q0 -10 9.5 -16t18.5 -7l10 -2l-42 -124q-5 1 -14 2t-32 8
t-40.5 17t-32 29t-14.5 43q0 29 17 57t42 43q-8 -1 -15 -1q-40 0 -80 10t-77.5 32t-66 53.5t-46 78t-17.5 101.5z" />
    <glyph glyph-name="uogonek" unicode="&#x173;" horiz-adv-x="621" 
d="M53 181v334h173v-302q0 -68 55 -68q53 0 81 40.5t28 101.5v228h173v-515q-43 -40 -43 -61q0 -10 9.5 -16t18.5 -7l10 -2l-42 -124q-5 1 -14 2t-32 8t-40.5 17t-32 29t-14.5 43q0 56 64 111h-50v45l2 32h-2q-21 -41 -65 -65t-96 -24q-84 0 -133.5 45.5t-49.5 147.5z" />
    <glyph glyph-name="Wcircumflex" unicode="&#x174;" horiz-adv-x="979" 
d="M187 0l-174 715h184l90 -447q4 -20 6.5 -38.5t2.5 -27.5v-9h2q1 31 12 75l110 447h141l107 -447q5 -20 8 -38.5t4 -27.5v-9h2q0 31 9 75l98 447h181l-181 -715h-195l-90 361l-14 84h-2q-3 -38 -14 -84l-90 -361h-197zM305 761l99 150h168l99 -150h-135l-47 82h-2l-47 -82
h-135z" />
    <glyph glyph-name="wcircumflex" unicode="&#x175;" horiz-adv-x="836" 
d="M155 0l-144 515h182l64 -304l6 -54h2q2 26 9 54l71 304h148l71 -304l8 -54h2q1 26 7 54l64 304h180l-144 -515h-193l-58 238l-10 55h-2q-3 -27 -10 -55l-58 -238h-195zM236 565l99 150h168l99 -150h-135l-47 82h-2l-47 -82h-135z" />
    <glyph glyph-name="Ycircumflex" unicode="&#x176;" horiz-adv-x="627" 
d="M226 0v293l-236 422h199l81 -172l43 -103h2q20 54 43 103l80 172h199l-236 -422v-293h-175zM131 761l99 150h168l99 -150h-135l-47 82h-2l-47 -82h-135z" />
    <glyph glyph-name="ycircumflex" unicode="&#x177;" horiz-adv-x="561" 
d="M63 -47q28 -19 53 -19q62 0 83 52l10 24l-219 505h196l76 -237l19 -80h2q10 49 17 77l65 240h189l-211 -570q-30 -80 -88.5 -117.5t-126.5 -37.5q-30 0 -60 9t-45 18l-15 9zM99 564l99 150h168l99 -150h-135l-47 82h-2l-47 -82h-135z" />
    <glyph glyph-name="Ydieresis" unicode="&#x178;" horiz-adv-x="627" 
d="M226 0v293l-236 422h199l81 -172l43 -103h2q20 54 43 103l80 172h199l-236 -422v-293h-175zM356 771v140h126v-140h-126zM147 771v140h126v-140h-126z" />
    <glyph glyph-name="Zacute" unicode="&#x179;" horiz-adv-x="635" 
d="M37 0v110l276 391q14 20 27.5 36t20.5 23l7 6v2q-23 -3 -55 -3h-263v150h540v-108l-277 -393q-14 -20 -27.5 -36t-20.5 -22l-7 -7v-2q23 3 55 3h282v-150h-558zM256 761l81 150h171l-118 -150h-134z" />
    <glyph glyph-name="zacute" unicode="&#x17a;" horiz-adv-x="544" 
d="M34 0v86l189 237l23 26t16 17l6 4v2q-13 -2 -45 -2h-181v145h460v-87l-188 -237q-11 -14 -22.5 -25.5t-17.5 -16.5l-6 -5v-2q13 3 46 3h193v-145h-473zM194 565l81 150h171l-118 -150h-134z" />
    <glyph glyph-name="Zdotaccent" unicode="&#x17b;" horiz-adv-x="635" 
d="M37 0v110l276 391q14 20 27.5 36t20.5 23l7 6v2q-23 -3 -55 -3h-263v150h540v-108l-277 -393q-14 -20 -27.5 -36t-20.5 -22l-7 -7v-2q23 3 55 3h282v-150h-558zM257 779v132h143v-132h-143z" />
    <glyph glyph-name="zdotaccent" unicode="&#x17c;" horiz-adv-x="544" 
d="M34 0v86l189 237l23 26t16 17l6 4v2q-13 -2 -45 -2h-181v145h460v-87l-188 -237q-11 -14 -22.5 -25.5t-17.5 -16.5l-6 -5v-2q13 3 46 3h193v-145h-473zM195 583v132h143v-132h-143z" />
    <glyph glyph-name="Zcaron" unicode="&#x17d;" horiz-adv-x="635" 
d="M37 0v110l276 391q14 20 27.5 36t20.5 23l7 6v2q-23 -3 -55 -3h-263v150h540v-108l-277 -393q-14 -20 -27.5 -36t-20.5 -22l-7 -7v-2q23 3 55 3h282v-150h-558zM244 761l-99 150h135l47 -82h2l47 82h135l-99 -150h-168z" />
    <glyph glyph-name="zcaron" unicode="&#x17e;" horiz-adv-x="544" 
d="M34 0v86l189 237l23 26t16 17l6 4v2q-13 -2 -45 -2h-181v145h460v-87l-188 -237q-11 -14 -22.5 -25.5t-17.5 -16.5l-6 -5v-2q13 3 46 3h193v-145h-473zM182 565l-99 150h135l47 -82h2l47 82h135l-99 -150h-168z" />
    <glyph glyph-name="longs" unicode="&#x17f;" horiz-adv-x="346" 
d="M95 0v371h-63v135h63v21q0 48 17 84.5t41.5 56.5t59 32t62 15.5t56.5 3.5l52 -3v-146q-12 2 -28 2q-34 0 -60.5 -12t-26.5 -41v-519h-173z" />
    <glyph glyph-name="florin" unicode="&#x192;" 
d="M29 28q54 -7 70 -7q86 0 92 64l19 225h-62v135h74l9 90q5 48 25 84.5t46 56.5t60.5 32t62.5 15.5t58 3.5l88 -8v-146q-60 7 -76 7q-87 0 -93 -64l-7 -71h95v-135h-107l-21 -244q-4 -48 -24 -84.5t-46.5 -56.5t-61 -32t-62.5 -15.5t-57 -3.5l-82 8v146z" />
    <glyph glyph-name="Scommaaccent" unicode="&#x218;" horiz-adv-x="575" 
d="M26 90l92 133q34 -30 81 -52t91 -22q35 0 54.5 14t19.5 36q0 23 -23.5 42.5t-58.5 32.5t-76 33.5t-76 43.5t-58.5 63.5t-23.5 93.5q0 98 72.5 158.5t186.5 60.5q133 0 224 -81l-74 -143q-31 27 -74 45t-84 18q-38 0 -57 -14t-19 -37t23.5 -42t58.5 -31.5t76 -32t76 -42
t58.5 -63t23.5 -93.5q0 -95 -67.5 -159t-186.5 -64q-72 0 -140.5 26t-118.5 76zM208 -49h136q7 -29 7 -58q0 -47 -28 -103h-123q20 58 20 93q0 33 -12 68z" />
    <glyph glyph-name="scommaaccent" unicode="&#x219;" horiz-adv-x="471" 
d="M19 64l74 113q62 -52 140 -52q47 0 47 27q0 15 -25 26.5t-60 23.5t-70.5 29.5t-60.5 51.5t-25 81q0 77 60.5 120t153.5 43q111 0 184 -59l-59 -120q-22 18 -59.5 30t-70.5 12q-48 0 -48 -25q0 -12 18 -22.5t44.5 -18t58 -21t58 -30t44.5 -47t18 -69.5q0 -74 -57.5 -121.5
t-154.5 -47.5q-125 0 -210 76zM154 -49h136q7 -29 7 -58q0 -47 -28 -103h-123q20 58 20 93q0 33 -12 68z" />
    <glyph glyph-name="uni021A" unicode="&#x21a;" horiz-adv-x="633" 
d="M229 0v565h-217v150h609v-150h-217v-565h-175zM239 -49h136q7 -29 7 -58q0 -47 -28 -103h-123q20 58 20 93q0 33 -12 68z" />
    <glyph glyph-name="uni021B" unicode="&#x21b;" horiz-adv-x="411" 
d="M88 190v181h-66v135h71v148h168v-148h108v-135h-108v-158q0 -66 92 -66q12 0 23 1v-150q-39 -3 -47 -3q-24 0 -46.5 2.5t-52 9.5t-53 21t-44.5 34.5t-33 53.5t-12 74zM160 -49h136q7 -29 7 -58q0 -47 -28 -103h-123q20 58 20 93q0 33 -12 68z" />
    <glyph glyph-name="circumflex" unicode="&#x2c6;" horiz-adv-x="486" 
d="M60 761l99 150h168l99 -150h-135l-47 82h-2l-47 -82h-135z" />
    <glyph glyph-name="caron" unicode="&#x2c7;" horiz-adv-x="486" 
d="M159 761l-99 150h135l47 -82h2l47 82h135l-99 -150h-168z" />
    <glyph glyph-name="breve" unicode="&#x2d8;" horiz-adv-x="484" 
d="M242 756q-73 0 -123.5 39t-50.5 106v10h117v-11q0 -28 17 -43t40 -15t40 15t17 43v11h117v-10q0 -67 -50.5 -106t-123.5 -39z" />
    <glyph glyph-name="dotaccent" unicode="&#x2d9;" horiz-adv-x="485" 
d="M171 779v132h143v-132h-143z" />
    <glyph glyph-name="ring" unicode="&#x2da;" horiz-adv-x="485" 
d="M242 747q-44 0 -76.5 22t-32.5 63t32.5 63.5t76.5 22.5t77 -22.5t33 -63.5t-33 -63t-77 -22zM242 797q16 0 25.5 9.5t9.5 25.5t-9.5 26t-25.5 10q-15 0 -24.5 -10t-9.5 -26t9 -25.5t25 -9.5z" />
    <glyph glyph-name="ogonek" unicode="&#x2db;" horiz-adv-x="486" 
d="M146 -111q0 36 26 70.5t52 51.5l26 17l90 -14q-57 -49 -57 -75q0 -10 9.5 -16t19.5 -7l9 -2l-42 -124q-5 1 -14 2t-32 8t-40.5 17t-32 29t-14.5 43z" />
    <glyph glyph-name="tilde" unicode="&#x2dc;" horiz-adv-x="485" 
d="M41 761q0 153 128 153q29 0 52 -15t41 -30t33 -15q37 0 37 57h112q0 -153 -128 -153q-29 0 -52 15t-41 30t-33 15q-37 0 -37 -57h-112z" />
    <glyph glyph-name="hungarumlaut" unicode="&#x2dd;" horiz-adv-x="485" 
d="M225 761l81 150h163l-118 -150h-126zM17 761l76 150h139l-79 -150h-136z" />
    <glyph glyph-name="uni0400" unicode="&#x400;" horiz-adv-x="576" 
d="M75 0v715h448v-150h-273v-130h218v-150h-218v-135h287v-150h-462zM264 761l-118 150h171l81 -150h-134z" />
    <glyph glyph-name="uni0401" unicode="&#x401;" horiz-adv-x="576" 
d="M75 0v715h448v-150h-273v-130h218v-150h-218v-135h287v-150h-462zM346 771v140h126v-140h-126zM137 771v140h126v-140h-126z" />
    <glyph glyph-name="uni0402" unicode="&#x402;" horiz-adv-x="761" 
d="M188 0v565h-176v150h567v-150h-216v-111l-2 -32h2q72 34 164 34q96 0 156 -62.5t60 -159.5q0 -103 -60 -174.5t-168 -71.5q-23 0 -48 3v145q14 -2 23 -2q27 0 52 20t25 64q0 39 -24 61.5t-62 22.5q-32 0 -61.5 -6.5t-43.5 -13.5l-13 -6v-276h-175z" />
    <glyph glyph-name="uni0403" unicode="&#x403;" horiz-adv-x="523" 
d="M75 0v715h438v-150h-263v-565h-175zM197 761l81 150h171l-118 -150h-134z" />
    <glyph glyph-name="uni0404" unicode="&#x404;" horiz-adv-x="716" 
d="M37 359q0 157 101.5 262.5t273.5 105.5q50 0 95.5 -10.5t75.5 -25.5t53 -29.5t34 -25.5l10 -10l-81 -132q-9 8 -25 20.5t-63 33.5t-91 21q-79 0 -128.5 -39.5t-67.5 -101.5h295v-140h-295q35 -142 196 -142q48 0 97 20t74 40l25 21l85 -124q-4 -5 -12 -12.5t-36 -27.5
t-59 -35t-80.5 -27.5t-101.5 -12.5q-166 0 -270.5 105t-104.5 266z" />
    <glyph glyph-name="uni0405" unicode="&#x405;" horiz-adv-x="575" 
d="M26 90l92 133q34 -30 81 -52t91 -22q35 0 54.5 14t19.5 36q0 23 -23.5 42.5t-58.5 32.5t-76 33.5t-76 43.5t-58.5 63.5t-23.5 93.5q0 98 72.5 158.5t186.5 60.5q133 0 224 -81l-74 -143q-31 27 -74 45t-84 18q-38 0 -57 -14t-19 -37t23.5 -42t58.5 -31.5t76 -32t76 -42
t58.5 -63t23.5 -93.5q0 -95 -67.5 -159t-186.5 -64q-72 0 -140.5 26t-118.5 76z" />
    <glyph glyph-name="uni0406" unicode="&#x406;" horiz-adv-x="325" 
d="M75 0v715h175v-715h-175z" />
    <glyph glyph-name="uni0407" unicode="&#x407;" horiz-adv-x="325" 
d="M75 0v715h175v-715h-175zM205 771v140h126v-140h-126zM-4 771v140h126v-140h-126z" />
    <glyph glyph-name="uni0408" unicode="&#x408;" horiz-adv-x="566" 
d="M18 220v52h175v-38q0 -86 65 -86q30 0 47 19t17 57v341h-192v150h367v-495q0 -111 -71 -171.5t-168 -60.5q-98 0 -169 61t-71 171z" />
    <glyph glyph-name="uni0409" unicode="&#x409;" horiz-adv-x="995" 
d="M18 -5v159q47 2 74.5 24t44 84.5t16.5 173.5v279h471v-261h122q104 0 168.5 -64t64.5 -164t-64.5 -163t-168.5 -63h-297v565h-118v-129q0 -87 -8.5 -152.5t-29.5 -121t-56.5 -90.5t-90 -55.5t-128.5 -21.5zM624 150h89q42 0 65 20.5t23 55.5t-23.5 56.5t-67.5 21.5h-86
v-154z" />
    <glyph glyph-name="uni040A" unicode="&#x40a;" horiz-adv-x="1036" 
d="M75 0v715h175v-266h240v266h175v-266h122q103 0 168 -63.5t65 -161.5q0 -99 -64.5 -161.5t-168.5 -62.5h-297v299h-240v-299h-175zM665 150h89q42 0 65 20t23 54t-23.5 54.5t-67.5 20.5h-86v-149z" />
    <glyph glyph-name="uni040B" unicode="&#x40b;" horiz-adv-x="767" 
d="M188 0v565h-176v150h567v-150h-216v-111l-2 -32h2q83 34 161 34q106 0 157.5 -63.5t51.5 -169.5v-223h-179v197q0 105 -93 105q-53 0 -98 -26v-276h-175z" />
    <glyph glyph-name="uni040C" unicode="&#x40c;" horiz-adv-x="675" 
d="M75 0v715h175v-276h72l148 276h188l-193 -342v-2l204 -371h-196l-151 290h-72v-290h-175zM281 761l81 150h171l-118 -150h-134z" />
    <glyph glyph-name="uni040D" unicode="&#x40d;" horiz-adv-x="754" 
d="M75 0v715h175v-334l-8 -122h2q32 75 60 122l198 334h177v-715h-175v333l8 122h-2q-32 -75 -60 -122l-199 -333h-176zM325 761l-118 150h171l81 -150h-134z" />
    <glyph glyph-name="uni040E" unicode="&#x40e;" horiz-adv-x="631" 
d="M54 42l76 131q43 -36 79 -36q42 0 57 37l-276 541h192l119 -257l39 -96h2q11 45 28 95l88 258h184l-211 -536q-15 -38 -30.5 -66.5t-41 -59.5t-61.5 -48t-81 -17q-86 0 -163 54zM325 747q-80 0 -135 41t-55 112v11h128v-12q0 -29 18.5 -44t43.5 -15q24 0 43 15t19 44v12
h127v-11q0 -71 -55 -112t-134 -41z" />
    <glyph glyph-name="uni040F" unicode="&#x40f;" horiz-adv-x="748" 
d="M75 0v715h175v-566h248v566h175v-715h-221v-140h-155v140h-222z" />
    <glyph glyph-name="uni0410" unicode="&#x410;" horiz-adv-x="664" 
d="M-3 0l243 715h184l243 -715h-180l-44 150h-223l-43 -150h-180zM261 290h141l-40 139l-29 123h-2q-16 -78 -29 -123z" />
    <glyph glyph-name="uni0411" unicode="&#x411;" horiz-adv-x="633" 
d="M75 0v715h465v-150h-290v-111h122q104 0 168.5 -64t64.5 -164t-64.5 -163t-168.5 -63h-297zM250 150h89q42 0 65 20.5t23 55.5t-23.5 56.5t-67.5 21.5h-86v-154z" />
    <glyph glyph-name="uni0412" unicode="&#x412;" horiz-adv-x="647" 
d="M75 0v715h263q110 0 176.5 -48.5t66.5 -138.5q0 -46 -22 -87.5t-61 -64.5v-2q57 -17 84.5 -62.5t27.5 -98.5q0 -109 -77 -161t-195 -52h-263zM250 438h90q31 0 47 19t16 47q0 27 -16.5 44t-49.5 17h-87v-127zM250 150h105q36 0 56 21.5t20 53.5t-19 52.5t-56 20.5h-106
v-148z" />
    <glyph glyph-name="uni0413" unicode="&#x413;" horiz-adv-x="523" 
d="M75 0v715h438v-150h-263v-565h-175z" />
    <glyph glyph-name="uni0414" unicode="&#x414;" horiz-adv-x="772" 
d="M261 149h221v416h-143v-33q0 -99 -18.5 -203t-59.5 -180zM8 149h74q91 158 91 397v169h484v-566h80v-289h-155v140h-413v-140h-161v289z" />
    <glyph glyph-name="uni0415" unicode="&#x415;" horiz-adv-x="576" 
d="M75 0v715h448v-150h-273v-130h218v-150h-218v-135h287v-150h-462z" />
    <glyph glyph-name="uni0416" unicode="&#x416;" horiz-adv-x="993" 
d="M6 0l192 371v2l-177 342h188l132 -276h68v276h175v-276h68l132 276h188l-177 -342v-2l192 -371h-196l-139 290h-68v-290h-175v290h-68l-139 -290h-196z" />
    <glyph glyph-name="uni0417" unicode="&#x417;" horiz-adv-x="569" 
d="M15 97l91 115q73 -71 152 -71q94 0 94 80q0 70 -84 70h-86v139h70q38 0 60.5 21t22.5 51q0 34 -22.5 54.5t-61.5 20.5q-74 0 -148 -59l-67 125q101 84 248 84q56 0 106.5 -20.5t86.5 -68t36 -113.5q0 -101 -93 -156v-2q52 -18 82 -59.5t30 -99.5q0 -101 -74 -160.5
t-181 -59.5q-156 0 -262 109z" />
    <glyph glyph-name="uni0418" unicode="&#x418;" horiz-adv-x="754" 
d="M75 0v715h175v-334l-8 -122h2q32 75 60 122l198 334h177v-715h-175v333l8 122h-2q-32 -75 -60 -122l-199 -333h-176z" />
    <glyph glyph-name="uni0419" unicode="&#x419;" horiz-adv-x="754" 
d="M387 747q-80 0 -135 41t-55 112v11h128v-12q0 -29 18.5 -44t43.5 -15q24 0 43 15t19 44v12h127v-11q0 -71 -55 -112t-134 -41zM75 0v715h175v-334l-8 -122h2q32 75 60 122l198 334h177v-715h-175v333l8 122h-2q-32 -75 -60 -122l-199 -333h-176z" />
    <glyph glyph-name="uni041A" unicode="&#x41a;" horiz-adv-x="675" 
d="M75 0v715h175v-276h72l148 276h188l-193 -342v-2l204 -371h-196l-151 290h-72v-290h-175z" />
    <glyph glyph-name="uni041B" unicode="&#x41b;" horiz-adv-x="714" 
d="M16 151q46 6 75.5 33t48.5 100t19 196v235h480v-715h-175v565h-139v-87q0 -257 -77 -371.5t-232 -114.5v159z" />
    <glyph glyph-name="uni041C" unicode="&#x41c;" horiz-adv-x="874" 
d="M47 0l59 715h190l104 -302l36 -118h2q20 72 36 118l104 302h190l58 -715h-175l-22 322q-2 24 -2 54t1 48l1 18h-2q-24 -75 -40 -120l-75 -207h-150l-75 207l-40 120h-2q4 -66 0 -120l-22 -322h-176z" />
    <glyph glyph-name="uni041D" unicode="&#x41d;" horiz-adv-x="760" 
d="M75 0v715h175v-286h260v286h175v-715h-175v280h-260v-280h-175z" />
    <glyph glyph-name="uni041E" unicode="&#x41e;" horiz-adv-x="820" 
d="M36 362q0 155 106.5 260t267.5 105t267.5 -105t106.5 -260q0 -159 -106.5 -266.5t-267.5 -107.5t-267.5 107.5t-106.5 266.5zM217 362q0 -91 56 -152.5t137 -61.5t137 61.5t56 152.5q0 87 -56 146t-137 59t-137 -59t-56 -146z" />
    <glyph glyph-name="uni041F" unicode="&#x41f;" horiz-adv-x="754" 
d="M75 0v715h604v-715h-175v566h-254v-566h-175z" />
    <glyph glyph-name="uni0420" unicode="&#x420;" horiz-adv-x="625" 
d="M75 0v715h297q104 0 168.5 -69t64.5 -177q0 -109 -64.5 -178.5t-168.5 -69.5h-122v-221h-175zM250 371h86q44 0 67.5 27t23.5 71t-23 70t-65 26h-89v-194z" />
    <glyph glyph-name="uni0421" unicode="&#x421;" horiz-adv-x="714" 
d="M37 359q0 158 105.5 263t269.5 105q75 0 146 -25.5t122 -75.5l-81 -132q-36 32 -84.5 52.5t-94.5 20.5q-100 0 -151 -59.5t-51 -144.5q0 -87 52.5 -151t149.5 -64q102 0 190 88l90 -128q-116 -120 -288 -120q-170 0 -272.5 104.5t-102.5 266.5z" />
    <glyph glyph-name="uni0422" unicode="&#x422;" horiz-adv-x="635" 
d="M230 0v565h-217v150h609v-150h-217v-565h-175z" />
    <glyph glyph-name="uni0423" unicode="&#x423;" horiz-adv-x="631" 
d="M54 42l76 131q43 -36 79 -36q42 0 57 37l-276 541h192l119 -257l39 -96h2q11 45 28 95l88 258h184l-211 -536q-15 -38 -30.5 -66.5t-41 -59.5t-61.5 -48t-81 -17q-86 0 -163 54z" />
    <glyph glyph-name="uni0424" unicode="&#x424;" horiz-adv-x="865" 
d="M25 382q0 127 89 211t231 84v73h175v-73q142 0 231 -84t89 -211q0 -131 -89 -217.5t-231 -86.5v-90h-175v90q-142 0 -231 86.5t-89 217.5zM520 224q60 0 101 46t41 112q0 62 -41 105.5t-101 43.5v-307zM203 382q0 -66 41 -112t101 -46v307q-60 0 -101 -43.5t-41 -105.5z
" />
    <glyph glyph-name="uni0425" unicode="&#x425;" horiz-adv-x="659" 
d="M8 0l217 355l-218 360h199l78 -147l44 -92h2q19 46 44 92l79 147h199l-219 -360l218 -355h-195l-82 150l-44 89h-2q-19 -44 -44 -89l-82 -150h-194z" />
    <glyph glyph-name="uni0426" unicode="&#x426;" horiz-adv-x="793" 
d="M75 0v715h175v-566h248v566h175v-566h88v-289h-155v140h-531z" />
    <glyph glyph-name="uni0427" unicode="&#x427;" horiz-adv-x="692" 
d="M262 253q-111 0 -167.5 59t-56.5 165v238h179v-197q0 -106 95 -106q71 0 126 33v270h179v-715h-179v259l2 32h-2q-89 -38 -176 -38z" />
    <glyph glyph-name="uni0428" unicode="&#x428;" horiz-adv-x="1035" 
d="M75 0v715h175v-566h180v566h175v-566h180v566h175v-715h-885z" />
    <glyph glyph-name="uni0429" unicode="&#x429;" horiz-adv-x="1080" 
d="M75 0v715h175v-566h180v566h175v-566h180v566h175v-566h88v-289h-155v140h-818z" />
    <glyph glyph-name="uni042A" unicode="&#x42a;" horiz-adv-x="735" 
d="M185 0v565h-180v150h355v-221h122q104 0 168.5 -69.5t64.5 -178.5q0 -108 -64.5 -177t-168.5 -69h-297zM360 150h89q42 0 65 26t23 70t-23.5 71t-67.5 27h-86v-194z" />
    <glyph glyph-name="uni042B" unicode="&#x42b;" horiz-adv-x="925" 
d="M675 0v715h175v-715h-175zM75 0v715h175v-221h112q104 0 168.5 -69.5t64.5 -178.5q0 -108 -64.5 -177t-168.5 -69h-287zM250 150h79q42 0 65 26t23 70t-23.5 71t-67.5 27h-76v-194z" />
    <glyph glyph-name="uni042C" unicode="&#x42c;" horiz-adv-x="625" 
d="M75 0v715h175v-221h122q104 0 168.5 -69.5t64.5 -178.5q0 -108 -64.5 -177t-168.5 -69h-297zM250 150h89q42 0 65 26t23 70t-23.5 71t-67.5 27h-86v-194z" />
    <glyph glyph-name="uni042D" unicode="&#x42d;" horiz-adv-x="716" 
d="M20 98l86 125q87 -77 197 -77q77 0 126 39.5t64 102.5h-295v140h296q-15 63 -65 102t-126 39q-99 0 -191 -80l-81 132q102 106 279 106q170 0 270 -105t100 -261q0 -162 -106 -267.5t-272 -105.5q-156 0 -282 110z" />
    <glyph glyph-name="uni042E" unicode="&#x42e;" horiz-adv-x="1109" 
d="M75 0v715h175v-286h95q22 131 120.5 214.5t239.5 83.5q159 0 263.5 -105t104.5 -260q0 -159 -104.5 -266.5t-263.5 -107.5q-137 0 -234 81.5t-123 210.5h-98v-280h-175zM518 362q0 -91 54 -152.5t133 -61.5t133 61.5t54 152.5q0 87 -54 146t-133 59t-133 -59t-54 -146z
" />
    <glyph glyph-name="uni042F" unicode="&#x42f;" horiz-adv-x="652" 
d="M8 0l137 230l27 43v2q-115 64 -115 212q0 79 36 133.5t96 77.5q44 17 139 17h249v-715h-175v241h-64l-135 -241h-195zM326 386h76v179h-59q-59 0 -84 -20q-24 -20 -24 -67q0 -92 91 -92z" />
    <glyph glyph-name="uni0430" unicode="&#x430;" horiz-adv-x="552" 
d="M21 145q0 49 27 85t71.5 55t92.5 27.5t100 8.5h15v9q0 57 -73 57q-68 0 -142 -49l-60 122q35 27 96.5 47t121.5 20q107 0 168.5 -56t61.5 -154v-317h-158v31l2 32h-2q-25 -35 -66.5 -55t-86.5 -20q-74 0 -121 45t-47 112zM192 161q0 -19 13 -31.5t36 -12.5q36 0 62 29
t26 62v14h-16q-48 0 -84.5 -14.5t-36.5 -46.5z" />
    <glyph glyph-name="uni0431" unicode="&#x431;" horiz-adv-x="612" 
d="M35 308q0 156 67.5 245t219.5 141l167 56l49 -139l-194 -62q-41 -14 -66.5 -26t-48.5 -37.5t-24 -60.5h2q58 49 151 49q102 0 162 -65.5t60 -170.5q0 -109 -73 -179.5t-193 -70.5q-136 0 -207.5 87t-71.5 233zM207 235q0 -48 29 -77t71 -29t71 29t29 77q0 49 -29 79
t-71 30t-71 -30t-29 -79z" />
    <glyph glyph-name="uni0432" unicode="&#x432;" horiz-adv-x="566" 
d="M58 0v515h281q80 0 127.5 -35t47.5 -100q0 -34 -16 -64.5t-44 -47.5v-1q41 -13 61 -44.5t20 -69.5q0 -79 -55.5 -116t-140.5 -37h-281zM231 312h65q23 0 34.5 14.5t11.5 36.5q0 20 -12 32.5t-36 12.5h-63v-96zM231 108h76q26 0 40.5 15t14.5 36q0 22 -14 37t-40 15h-77
v-103z" />
    <glyph glyph-name="uni0433" unicode="&#x433;" horiz-adv-x="436" 
d="M58 0v515h363v-145h-190v-370h-173z" />
    <glyph glyph-name="uni0434" unicode="&#x434;" horiz-adv-x="651" 
d="M248 137h135v241h-89v-19q0 -134 -46 -222zM14 137h64q53 90 53 254v124h425v-378h74v-257h-154v120h-302v-120h-160v257z" />
    <glyph glyph-name="uni0435" unicode="&#x435;" horiz-adv-x="567" 
d="M29 258q0 116 73 192.5t195 76.5q111 0 174.5 -69.5t63.5 -179.5q0 -18 -4 -54h-325q9 -45 42.5 -68.5t77.5 -23.5q64 0 142 52l64 -121q-41 -35 -100.5 -55t-119.5 -20q-131 0 -207 80t-76 190zM210 323h154q0 33 -19.5 55t-51.5 22q-66 0 -83 -77z" />
    <glyph glyph-name="uni0436" unicode="&#x436;" horiz-adv-x="836" 
d="M7 0l145 266v2l-134 247h178l95 -183h46v183h161v-183h47l95 183h178l-134 -247v-2l145 -266h-187l-92 187h-52v-187h-161v187h-51l-92 -187h-187z" />
    <glyph glyph-name="uni0437" unicode="&#x437;" horiz-adv-x="473" 
d="M15 64l69 108q25 -23 59.5 -38.5t64.5 -15.5q62 0 62 45q0 21 -11.5 32t-44.5 11h-63v114h52q52 0 52 40q0 41 -54 41q-56 0 -122 -39l-50 107q84 58 208 58q82 0 136 -39t54 -104q0 -81 -64 -116v-2q80 -37 80 -114q0 -79 -59 -121.5t-154 -42.5q-59 0 -116.5 19.5
t-98.5 56.5z" />
    <glyph glyph-name="uni0438" unicode="&#x438;" horiz-adv-x="618" 
d="M58 0v515h163v-227q0 -25 -2 -51h2q6 15 28 51l143 227h168v-515h-163v225q0 32 2 52h-2q-3 -8 -28 -51l-143 -226h-168z" />
    <glyph glyph-name="uni0439" unicode="&#x439;" horiz-adv-x="618" 
d="M310 551q-80 0 -135 41t-55 112v11h128v-12q0 -29 18.5 -44t43.5 -15q24 0 43 15t19 44v12h127v-11q0 -71 -55 -112t-134 -41zM58 0v515h163v-227q0 -25 -2 -51h2q6 15 28 51l143 227h168v-515h-163v225q0 32 2 52h-2q-3 -8 -28 -51l-143 -226h-168z" />
    <glyph glyph-name="uni043A" unicode="&#x43a;" horiz-adv-x="591" 
d="M58 0v515h173v-181h49l102 181h188l-151 -245v-2l172 -268h-197l-109 189h-54v-189h-173z" />
    <glyph glyph-name="uni043B" unicode="&#x43b;" horiz-adv-x="597" 
d="M20 -5v151q16 2 28 6.5t26 17t22.5 33.5t14.5 58.5t6 88.5v165h422v-515h-173v378h-86v-29q0 -170 -59 -262t-201 -92z" />
    <glyph glyph-name="uni043C" unicode="&#x43c;" horiz-adv-x="763" 
d="M36 0l49 515h200l76 -226l20 -60h1l21 60l76 226h199l49 -515h-166l-12 237l1 88h-2q-15 -44 -28 -76l-68 -180h-140l-68 180l-30 76h-2l1 -88l-12 -237h-165z" />
    <glyph glyph-name="uni043D" unicode="&#x43d;" horiz-adv-x="621" 
d="M58 0v515h173v-182h159v182h173v-515h-173v188h-159v-188h-173z" />
    <glyph glyph-name="uni043E" unicode="&#x43e;" horiz-adv-x="642" 
d="M29 256q0 119 84 195t207 76q124 0 208.5 -75.5t84.5 -195.5q0 -119 -84 -193.5t-208 -74.5t-208 74.5t-84 193.5zM204 256q0 -56 34 -90t83 -34t83 34t34 90q0 57 -34 92t-83 35t-83 -35t-34 -92z" />
    <glyph glyph-name="uni043F" unicode="&#x43f;" horiz-adv-x="615" 
d="M58 0v515h499v-515h-173v370h-153v-370h-173z" />
    <glyph glyph-name="uni0440" unicode="&#x440;" horiz-adv-x="633" 
d="M58 -200v715h156v-26l-2 -33h2q53 71 156 71q105 0 168.5 -74.5t63.5 -195.5t-68 -195t-172 -74q-74 0 -131 49h-2q2 -18 2 -44v-193h-173zM226 254q0 -50 26.5 -86.5t74.5 -36.5q43 0 72 33t29 90t-28 92t-73 35q-43 0 -72 -32t-29 -95z" />
    <glyph glyph-name="uni0441" unicode="&#x441;" horiz-adv-x="552" 
d="M29 258q0 110 77.5 189.5t209.5 79.5q58 0 113.5 -19.5t91.5 -58.5l-73 -116q-52 50 -121 50q-58 0 -90.5 -36.5t-32.5 -86.5q0 -51 34 -89.5t95 -38.5q69 0 141 62l63 -121q-38 -39 -97.5 -62t-123.5 -23q-132 0 -209.5 79t-77.5 191z" />
    <glyph glyph-name="uni0442" unicode="&#x442;" horiz-adv-x="516" 
d="M171 0v370h-156v145h486v-145h-157v-370h-173z" />
    <glyph glyph-name="uni0443" unicode="&#x443;" horiz-adv-x="561" 
d="M63 -47q28 -19 53 -19q62 0 83 52l10 24l-219 505h196l76 -237l19 -80h2q10 49 17 77l65 240h189l-211 -570q-30 -80 -88.5 -117.5t-126.5 -37.5q-30 0 -60 9t-45 18l-15 9z" />
    <glyph glyph-name="uni0444" unicode="&#x444;" horiz-adv-x="785" 
d="M30 256q0 117 80.5 192.5t200.5 78.5v173h163v-173q120 -3 200.5 -78.5t80.5 -192.5q0 -116 -80.5 -190t-200.5 -78v-188h-163v188q-120 4 -200.5 78t-80.5 190zM474 124q49 4 81.5 39.5t32.5 92.5q0 58 -32.5 94.5t-81.5 40.5v-267zM197 256q0 -57 32.5 -92.5
t81.5 -39.5v267q-49 -4 -81.5 -40.5t-32.5 -94.5z" />
    <glyph glyph-name="uni0445" unicode="&#x445;" horiz-adv-x="550" 
d="M11 0l162 255l-166 260h195l56 -115l16 -34h2l16 34l56 115h195l-165 -260l162 -255h-190l-62 116l-12 26h-2q-7 -17 -12 -26l-61 -116h-190z" />
    <glyph glyph-name="uni0446" unicode="&#x446;" horiz-adv-x="646" 
d="M58 0v515h173v-370h146v370h173v-370h74v-265h-154v120h-412z" />
    <glyph glyph-name="uni0447" unicode="&#x447;" horiz-adv-x="576" 
d="M206 158q-72 0 -123.5 42t-51.5 135v180h170v-147q0 -69 66 -69q43 0 78 25v191h173v-515h-173v161l1 24h-2q-60 -27 -138 -27z" />
    <glyph glyph-name="uni0448" unicode="&#x448;" horiz-adv-x="837" 
d="M58 0v515h163v-370h116v370h163v-370h116v370h163v-515h-721z" />
    <glyph glyph-name="uni0449" unicode="&#x449;" horiz-adv-x="875" 
d="M58 0v515h163v-370h116v370h163v-370h116v370h163v-370h74v-265h-154v120h-641z" />
    <glyph glyph-name="uni044A" unicode="&#x44a;" horiz-adv-x="615" 
d="M137 0v370h-130v145h303v-161h84q104 0 154 -48t50 -130t-50 -129t-154 -47h-257zM310 113h52q30 0 46.5 18t16.5 46t-17 46.5t-49 18.5h-49v-129z" />
    <glyph glyph-name="uni044B" unicode="&#x44b;" horiz-adv-x="803" 
d="M572 0v515h173v-515h-173zM58 0v515h173v-161h78q104 0 154 -48t50 -130t-50 -129t-154 -47h-251zM231 113h46q30 0 46.5 18t16.5 46t-17 46.5t-49 18.5h-43v-129z" />
    <glyph glyph-name="uni044C" unicode="&#x44c;" horiz-adv-x="537" 
d="M58 0v515h173v-161h84q104 0 154 -48t50 -130t-50 -129t-154 -47h-257zM231 113h52q30 0 46.5 18t16.5 46t-17 46.5t-49 18.5h-49v-129z" />
    <glyph glyph-name="uni044D" unicode="&#x44d;" horiz-adv-x="550" 
d="M16 62l60 116q68 -56 146 -56q51 0 85.5 22t47.5 58h-194v114h195q-14 36 -47 56.5t-80 20.5q-77 0 -134 -49l-70 112q37 35 94.5 53t118.5 18q132 0 207.5 -79t75.5 -190q0 -112 -77.5 -191t-209.5 -79q-129 0 -218 74z" />
    <glyph glyph-name="uni044E" unicode="&#x44e;" horiz-adv-x="887" 
d="M58 0v515h173v-186h72q22 91 95.5 144.5t174.5 53.5q122 0 203.5 -75.5t81.5 -195.5q0 -119 -81 -193.5t-203 -74.5q-104 0 -178.5 55.5t-94.5 148.5h-70v-192h-173zM465 256q0 -56 31 -90t78 -34t78 34t31 90q0 57 -31 92t-78 35t-78 -35t-31 -92z" />
    <glyph glyph-name="uni044F" unicode="&#x44f;" horiz-adv-x="558" 
d="M9 0l104 156l24 31v1q-42 21 -67.5 62.5t-25.5 90.5q0 81 50 127.5t136 46.5h270v-515h-173v157h-36l-99 -157h-183zM286 272h41v136h-42q-69 0 -69 -66q0 -70 70 -70z" />
    <glyph glyph-name="uni0450" unicode="&#x450;" horiz-adv-x="567" 
d="M29 258q0 116 73 192.5t195 76.5q111 0 174.5 -69.5t63.5 -179.5q0 -18 -4 -54h-325q9 -45 42.5 -68.5t77.5 -23.5q64 0 142 52l64 -121q-41 -35 -100.5 -55t-119.5 -20q-131 0 -207 80t-76 190zM210 323h154q0 33 -19.5 55t-51.5 22q-66 0 -83 -77zM244 565l-118 150
h171l81 -150h-134z" />
    <glyph glyph-name="uni0451" unicode="&#x451;" horiz-adv-x="567" 
d="M29 258q0 116 73 192.5t195 76.5q111 0 174.5 -69.5t63.5 -179.5q0 -18 -4 -54h-325q9 -45 42.5 -68.5t77.5 -23.5q64 0 142 52l64 -121q-41 -35 -100.5 -55t-119.5 -20q-131 0 -207 80t-76 190zM210 323h154q0 33 -19.5 55t-51.5 22q-66 0 -83 -77zM336 575v140h126
v-140h-126zM127 575v140h126v-140h-126z" />
    <glyph glyph-name="uni0452" unicode="&#x452;" horiz-adv-x="627" 
d="M58 0v522h-59v115h59v78h173v-78h163v-115h-163v-100l-2 -44h2q22 38 64 60t93 22q185 0 185 -193v-240q0 -68 -23.5 -117.5t-61 -73t-72.5 -34t-70 -10.5l-61 3v145q17 -2 37 -2q78 0 78 91v206q0 68 -57 68q-78 0 -103 -76q-9 -26 -9 -66v-161h-173z" />
    <glyph glyph-name="uni0453" unicode="&#x453;" horiz-adv-x="436" 
d="M58 0v515h363v-145h-190v-370h-173zM148 565l81 150h171l-118 -150h-134z" />
    <glyph glyph-name="uni0454" unicode="&#x454;" horiz-adv-x="554" 
d="M29 258q0 110 77.5 189.5t209.5 79.5q40 0 76.5 -7.5t59.5 -18t40.5 -20.5t25.5 -17l7 -8l-72 -115l-16.5 13.5t-44.5 22t-68 13.5q-101 0 -130 -74h195v-114h-194q30 -80 136 -80q37 0 74 16t55 32l19 16l61 -119q-3 -3 -9.5 -8.5t-28 -19t-45.5 -24t-62.5 -19
t-78.5 -8.5q-132 0 -209.5 79t-77.5 191z" />
    <glyph glyph-name="uni0455" unicode="&#x455;" horiz-adv-x="471" 
d="M19 64l74 113q62 -52 140 -52q47 0 47 27q0 15 -25 26.5t-60 23.5t-70.5 29.5t-60.5 51.5t-25 81q0 77 60.5 120t153.5 43q111 0 184 -59l-59 -120q-22 18 -59.5 30t-70.5 12q-48 0 -48 -25q0 -12 18 -22.5t44.5 -18t58 -21t58 -30t44.5 -47t18 -69.5q0 -74 -57.5 -121.5
t-154.5 -47.5q-125 0 -210 76z" />
    <glyph glyph-name="uni0456" unicode="&#x456;" horiz-adv-x="289" 
d="M60 580v135h169v-135h-169zM58 0v515h173v-515h-173z" />
    <glyph glyph-name="uni0457" unicode="&#x457;" horiz-adv-x="289" 
d="M58 0v515h173v-515h-173zM187 575v140h126v-140h-126zM-22 575v140h126v-140h-126z" />
    <glyph glyph-name="uni0458" unicode="&#x458;" horiz-adv-x="289" 
d="M60 580v135h169v-135h-169zM58 4v511h173v-528q0 -49 -18 -86.5t-43.5 -57.5t-61 -32t-63 -15.5t-56.5 -3.5q-23 0 -46 3v144q8 -1 22 -1q93 0 93 66z" />
    <glyph glyph-name="uni0459" unicode="&#x459;" horiz-adv-x="820" 
d="M20 -5v151q22 3 37 10t31 25.5t24 58.5t8 100v175h400v-177h80q104 0 154 -46t50 -126q0 -78 -50 -122t-154 -44h-253v378h-65v-31q0 -180 -58 -266t-204 -86zM520 113h56q30 0 46.5 14.5t16.5 38.5q0 26 -17 42t-49 16h-53v-111z" />
    <glyph glyph-name="uni045A" unicode="&#x45a;" horiz-adv-x="869" 
d="M58 0v515h173v-175h165v175h173v-177h80q104 0 154 -46t50 -126q0 -78 -50 -122t-154 -44h-253v207h-165v-207h-173zM569 113h56q30 0 46.5 14.5t16.5 38.5q0 26 -17 42t-49 16h-53v-111z" />
    <glyph glyph-name="uni045B" unicode="&#x45b;" horiz-adv-x="627" 
d="M58 0v522h-59v115h59v78h173v-78h163v-115h-163v-99l-2 -44h2q22 38 64 60t93 22q185 0 185 -193v-268h-173v236q0 68 -57 68q-78 0 -103 -76q-9 -26 -9 -66v-162h-173z" />
    <glyph glyph-name="uni045C" unicode="&#x45c;" horiz-adv-x="591" 
d="M58 0v515h173v-181h49l102 181h188l-151 -245v-2l172 -268h-197l-109 189h-54v-189h-173zM223 565l81 150h171l-118 -150h-134z" />
    <glyph glyph-name="uni045D" unicode="&#x45d;" horiz-adv-x="618" 
d="M58 0v515h163v-227q0 -25 -2 -51h2q6 15 28 51l143 227h168v-515h-163v225q0 32 2 52h-2q-3 -8 -28 -51l-143 -226h-168zM256 565l-118 150h171l81 -150h-134z" />
    <glyph glyph-name="uni045E" unicode="&#x45e;" horiz-adv-x="561" 
d="M283 551q-80 0 -135 41t-55 112v11h128v-12q0 -29 18.5 -44t43.5 -15q24 0 43 15t19 44v12h127v-11q0 -71 -55 -112t-134 -41zM63 -47q28 -19 53 -19q62 0 83 52l10 24l-219 505h196l76 -237l19 -80h2q10 49 17 77l65 240h189l-211 -570q-30 -80 -88.5 -117.5
t-126.5 -37.5q-30 0 -60 9t-45 18l-15 9z" />
    <glyph glyph-name="uni045F" unicode="&#x45f;" horiz-adv-x="608" 
d="M58 0v515h173v-370h146v370h173v-515h-169v-120h-154v120h-169z" />
    <glyph glyph-name="uni0462" unicode="&#x462;" horiz-adv-x="717" 
d="M167 0v539h-160v130h164v81h171v-81h204v-130h-204v-85h122q104 0 168.5 -64t64.5 -164t-64.5 -163t-168.5 -63h-297zM342 150h89q42 0 65 20.5t23 55.5t-23.5 56.5t-67.5 21.5h-86v-154z" />
    <glyph glyph-name="uni0463" unicode="&#x463;" horiz-adv-x="598" 
d="M117 0v456h-122v121h121v138h173v-138h161v-121h-160v-102h90q104 0 154 -48t50 -130t-50 -129t-154 -47h-263zM290 113h58q30 0 46.5 18t16.5 46t-17 46.5t-49 18.5h-55v-129z" />
    <glyph glyph-name="uni0472" unicode="&#x472;" horiz-adv-x="820" 
d="M36 362q0 155 106.5 260t267.5 105t267.5 -105t106.5 -260q0 -159 -106.5 -266.5t-267.5 -107.5t-267.5 107.5t-106.5 266.5zM411 141q66 0 117.5 41.5t70.5 109.5h-378q20 -68 71.5 -109.5t118.5 -41.5zM411 572q-68 0 -120.5 -41t-70.5 -107h381q-19 66 -71 107
t-119 41z" />
    <glyph glyph-name="uni0473" unicode="&#x473;" horiz-adv-x="642" 
d="M29 256q0 119 84 195t207 76q124 0 208.5 -75.5t84.5 -195.5q0 -119 -84 -193.5t-208 -74.5t-208 74.5t-84 193.5zM323 111q46 0 82 27t48 75h-263q12 -48 48.5 -75t84.5 -27zM323 403q-46 0 -81.5 -25.5t-49.5 -70.5h258q-13 44 -48 70t-79 26z" />
    <glyph glyph-name="uni0474" unicode="&#x474;" horiz-adv-x="698" 
d="M247 0l-253 715h190l126 -407q6 -20 13 -49t11 -47l3 -19h2q13 70 27 115l110 349q11 33 29 45.5t55 12.5h125v-150h-25q-20 0 -29.5 -8.5t-17.5 -30.5l-184 -526h-182z" />
    <glyph glyph-name="uni0475" unicode="&#x475;" 
d="M180 0l-178 515h182l80 -274l19 -89h2q9 55 19 89l52 177q15 54 41.5 75.5t78.5 21.5h107v-145h-24q-25 0 -36.5 -9t-21.5 -38l-110 -323h-211z" />
    <glyph glyph-name="uni048A" unicode="&#x48a;" horiz-adv-x="823" 
d="M75 0v715h175v-334l-8 -122h2q32 75 60 122l198 334h177v-565h136v-91l-89 -199h-117l33 140h-138v333l8 122h-2q-32 -75 -60 -122l-199 -333h-176zM389 747q-80 0 -135 41t-55 112v11h128v-12q0 -29 18.5 -44t43.5 -15q24 0 43 15t19 44v12h127v-11q0 -71 -55 -112
t-134 -41z" />
    <glyph glyph-name="uni048B" unicode="&#x48b;" horiz-adv-x="697" 
d="M58 0v515h163v-227q0 -25 -2 -51h2q6 15 28 51l143 227h168v-370h125v-86l-79 -179h-111l28 120h-126v225q0 32 2 52h-2q-3 -8 -28 -51l-143 -226h-168zM316 551q-80 0 -135 41t-55 112v11h128v-12q0 -29 18.5 -44t43.5 -15q24 0 43 15t19 44v12h127v-11q0 -71 -55 -112
t-134 -41z" />
    <glyph glyph-name="uni048C" unicode="&#x48c;" horiz-adv-x="716" 
d="M166 0v547h-160v130h164v73h171v-73h204v-130h-204v-93h122q104 0 168.5 -64t64.5 -164t-64.5 -163t-168.5 -63h-297zM341 150h89q42 0 65 20.5t23 55.5t-23.5 56.5t-67.5 21.5h-86v-154z" />
    <glyph glyph-name="uni048D" unicode="&#x48d;" horiz-adv-x="598" 
d="M117 0v456h-122v121h121v138h173v-138h161v-121h-160v-102h90q104 0 154 -48t50 -130t-50 -129t-154 -47h-263zM290 113h58q30 0 46.5 18t16.5 46t-17 46.5t-49 18.5h-55v-129z" />
    <glyph glyph-name="uni048E" unicode="&#x48e;" horiz-adv-x="640" 
d="M75 0v715h297q104 0 168.5 -69t64.5 -177q0 -112 -68 -182l54 -64l-77 -65l-64 75q-36 -12 -78 -12h-122v-221h-175zM296 417l77 65l62 -74q9 22 9 51q0 49 -24.5 77.5t-71.5 28.5h-98v-213h95h5z" />
    <glyph glyph-name="uni048F" unicode="&#x48f;" horiz-adv-x="638" 
d="M58 -200v715h156v-26l-2 -33h2q2 3 6 7.5t18 17t30 22t43.5 17t58.5 7.5q105 0 168.5 -74.5t63.5 -195.5q0 -118 -65 -191l52 -62l-77 -63l-55 66q-46 -19 -95 -19q-37 0 -70 12.5t-47 24.5l-14 12h-2q2 -18 2 -44v-193h-173zM297 198l77 63l59 -71q11 25 11 58
q0 61 -29.5 97t-79.5 36q-49 0 -79 -33t-30 -100q0 -52 28 -88.5t81 -36.5q8 0 22 2z" />
    <glyph glyph-name="uni0490" unicode="&#x490;" horiz-adv-x="539" 
d="M75 0v715h314v120h140v-270h-279v-565h-175z" />
    <glyph glyph-name="uni0491" unicode="&#x491;" horiz-adv-x="451" 
d="M58 0v515h248v120h131v-265h-206v-370h-173z" />
    <glyph glyph-name="uni0492" unicode="&#x492;" horiz-adv-x="532" 
d="M79 0v281h-56v120h56v314h438v-150h-263v-164h155v-120h-155v-281h-175z" />
    <glyph glyph-name="uni0493" unicode="&#x493;" horiz-adv-x="448" 
d="M66 0v177h-60v105h60v233h363v-145h-190v-88h121v-105h-121v-177h-173z" />
    <glyph glyph-name="uni0494" unicode="&#x494;" horiz-adv-x="650" 
d="M75 0v715h439v-150h-264v-154q50 16 116 16q130 0 195 -82t65 -211q0 -324 -294 -324v140q55 0 82 39.5t27 144.5q0 69 -27.5 106t-93.5 37q-34 0 -70 -12v-265h-175z" />
    <glyph glyph-name="uni0495" unicode="&#x495;" horiz-adv-x="544" 
d="M58 0v515h381v-136h-208v-95q39 15 92 15q97 0 150 -62t53 -161q0 -179 -170 -286l-81 117q33 19 59.5 58.5t26.5 97.5q0 98 -82 98q-28 0 -48 -12v-149h-173z" />
    <glyph glyph-name="uni0496" unicode="&#x496;" horiz-adv-x="1042" 
d="M6 0l192 371v2l-177 342h188l132 -276h68v276h175v-276h68l132 276h188l-177 -342v-2l115 -222h115v-289h-155v140h-79l-139 290h-68v-290h-175v290h-68l-139 -290h-196z" />
    <glyph glyph-name="uni0497" unicode="&#x497;" horiz-adv-x="887" 
d="M7 0l145 266v2l-134 247h178l95 -183h46v183h161v-183h47l95 183h178l-134 -247v-2l66 -121h118v-265h-153v120h-73l-92 187h-52v-187h-161v187h-51l-92 -187h-187z" />
    <glyph glyph-name="uni0498" unicode="&#x498;" horiz-adv-x="570" 
d="M15 97l91 115q73 -71 152 -71q94 0 94 80q0 70 -84 70h-86v139h70q38 0 60.5 21t22.5 51q0 34 -22.5 54.5t-61.5 20.5q-74 0 -148 -59l-67 125q101 84 248 84q56 0 106.5 -20.5t86.5 -68t36 -113.5q0 -101 -93 -156v-2q52 -18 82 -59.5t30 -99.5q0 -80 -48 -135t-126 -75
v-138h-155v136q-110 20 -188 101z" />
    <glyph glyph-name="uni0499" unicode="&#x499;" horiz-adv-x="474" 
d="M15 64l69 108q25 -23 59.5 -38.5t64.5 -15.5q62 0 62 45q0 21 -11.5 32t-44.5 11h-63v114h52q52 0 52 40q0 41 -54 41q-56 0 -122 -39l-50 107q84 58 208 58q82 0 136 -39t54 -104q0 -81 -64 -116v-2q80 -37 80 -114q0 -60 -35 -99.5t-96 -54.5v-118h-150v115
q-90 16 -147 69z" />
    <glyph glyph-name="uni049A" unicode="&#x49a;" horiz-adv-x="719" 
d="M75 0v715h175v-276h72l148 276h188l-193 -342v-2l122 -222h114v-289h-155v140h-73l-151 290h-72v-290h-175z" />
    <glyph glyph-name="uni049B" unicode="&#x49b;" horiz-adv-x="635" 
d="M58 0v515h173v-181h49l102 181h188l-151 -245v-2l79 -123h118v-265h-153v120h-69l-109 189h-54v-189h-173z" />
    <glyph glyph-name="uni049C" unicode="&#x49c;" horiz-adv-x="804" 
d="M75 0v715h175v-276h51v106h120v-106h30l148 276h188l-193 -342v-2l204 -371h-196l-151 290h-30v-109h-120v109h-51v-290h-175z" />
    <glyph glyph-name="uni049D" unicode="&#x49d;" horiz-adv-x="691" 
d="M58 0v515h173v-181h33v93h100v-93h16l102 181h188l-151 -245v-2l172 -268h-197l-109 189h-21v-94h-100v94h-33v-189h-173z" />
    <glyph glyph-name="uni049E" unicode="&#x49e;" horiz-adv-x="678" 
d="M30 515v112h48v88h175v-88h70v-112h-70v-76h72l148 276h188l-193 -342v-2l204 -371h-196l-151 290h-72v-290h-175v515h-48z" />
    <glyph glyph-name="uni049F" unicode="&#x49f;" horiz-adv-x="591" 
d="M58 0v527h-60v110h60v78h173v-78h82v-110h-82v-193h49l102 181h188l-151 -245v-2l172 -268h-197l-109 189h-54v-189h-173z" />
    <glyph glyph-name="uni04A0" unicode="&#x4a0;" horiz-adv-x="800" 
d="M200 0v565h-185v150h360v-276h72l148 276h188l-193 -342v-2l204 -371h-196l-151 290h-72v-290h-175z" />
    <glyph glyph-name="uni04A1" unicode="&#x4a1;" horiz-adv-x="670" 
d="M137 0v370h-130v145h303v-181h49l102 181h188l-151 -245v-2l172 -268h-197l-109 189h-54v-189h-173z" />
    <glyph glyph-name="uni04A2" unicode="&#x4a2;" horiz-adv-x="813" 
d="M75 0v715h175v-286h260v286h175v-566h114v-289h-155v140h-134v280h-260v-280h-175z" />
    <glyph glyph-name="uni04A3" unicode="&#x4a3;" horiz-adv-x="679" 
d="M58 0v515h173v-182h159v182h173v-370h98v-265h-153v120h-118v188h-159v-188h-173z" />
    <glyph glyph-name="uni04A4" unicode="&#x4a4;" horiz-adv-x="958" 
d="M75 0v715h175v-286h260v286h438v-150h-263v-565h-175v280h-260v-280h-175z" />
    <glyph glyph-name="uni04A5" unicode="&#x4a5;" horiz-adv-x="760" 
d="M58 0v515h173v-182h159v182h355v-145h-182v-370h-173v188h-159v-188h-173z" />
    <glyph glyph-name="uni04A6" unicode="&#x4a6;" horiz-adv-x="1005" 
d="M75 0v715h534v-294q50 16 116 16q130 0 195 -84.5t65 -218.5q0 -165 -71 -244.5t-223 -79.5v140q55 0 82 39.5t27 144.5q0 79 -27.5 121t-93.5 42q-22 0 -70 -12v-285h-175v567h-184v-567h-175z" />
    <glyph glyph-name="uni04A7" unicode="&#x4a7;" horiz-adv-x="864" 
d="M58 0v515h475v-190q41 18 94 18q93 0 156 -65t63 -180q0 -96 -45.5 -176.5t-124.5 -131.5l-81 117q34 21 60 68t26 114q0 113 -91 113q-31 0 -57 -13v-189h-173v370h-129v-370h-173z" />
    <glyph glyph-name="uni04A8" unicode="&#x4a8;" horiz-adv-x="946" 
d="M37 373q0 73 21 135.5t55.5 105t67 69t68.5 45.5l81 -158q-117 -75 -117 -205q0 -88 54 -152.5t162 -64.5q14 0 40 2q-109 112 -109 265q0 129 73.5 214.5t197.5 85.5t195.5 -84t71.5 -199q0 -75 -32.5 -150.5t-90.5 -137.5q25 -4 58 -4h57v-140h-60q-97 0 -193 40
q-101 -52 -213 -52q-165 0 -276 105.5t-111 279.5zM541 418q0 -125 78 -200q46 41 72 97t26 114q0 53 -21.5 90t-66.5 37q-42 0 -65 -35.5t-23 -102.5z" />
    <glyph glyph-name="uni04A9" unicode="&#x4a9;" horiz-adv-x="818" 
d="M29 269q0 100 53.5 165t124.5 93l62 -137q-38 -19 -60 -53t-22 -72q0 -54 40.5 -99t118.5 -45q22 0 33 2q-76 74 -76 178q0 98 65.5 162t174.5 64q106 0 167 -59t61 -140q0 -103 -95 -201q12 -1 38 -1h71v-126h-61q-94 0 -186 31q-92 -43 -193 -43q-139 0 -227.5 77.5
t-88.5 203.5zM463 305q0 -80 63 -127q85 57 85 138q0 36 -18 59t-55 23q-39 0 -57 -26t-18 -67z" />
    <glyph glyph-name="uni04AA" unicode="&#x4aa;" horiz-adv-x="714" 
d="M37 359q0 158 105.5 263t269.5 105q75 0 146 -25.5t122 -75.5l-81 -132q-36 32 -84.5 52.5t-94.5 20.5q-100 0 -151 -59.5t-51 -144.5q0 -87 52.5 -151t149.5 -64q102 0 190 88l90 -128q-96 -100 -232 -116v-132h-155v139q-128 29 -202 126.5t-74 233.5z" />
    <glyph glyph-name="uni04AB" unicode="&#x4ab;" horiz-adv-x="552" 
d="M29 258q0 110 77.5 189.5t209.5 79.5q58 0 113.5 -19.5t91.5 -58.5l-73 -116q-52 50 -121 50q-58 0 -90.5 -36.5t-32.5 -86.5q0 -51 34 -89.5t95 -38.5q69 0 141 62l63 -121q-60 -62 -159 -79v-114h-150v119q-94 25 -146.5 96.5t-52.5 162.5z" />
    <glyph glyph-name="uni04AC" unicode="&#x4ac;" horiz-adv-x="640" 
d="M228 0v565h-217v150h609v-150h-217v-416h114v-289h-155v140h-134z" />
    <glyph glyph-name="uni04AD" unicode="&#x4ad;" horiz-adv-x="525" 
d="M171 0v370h-156v145h486v-145h-157v-225h98v-265h-153v120h-118z" />
    <glyph glyph-name="uni04AE" unicode="&#x4ae;" horiz-adv-x="613" 
d="M219 0v293l-236 422h199l81 -172l43 -103h2q20 54 43 103l80 172h199l-236 -422v-293h-175z" />
    <glyph glyph-name="uni04AF" unicode="&#x4af;" horiz-adv-x="565" 
d="M197 0l-197 515h182l80 -254l19 -87h2q9 53 19 87l79 254h183l-195 -515v-200h-172v200z" />
    <glyph glyph-name="uni04B0" unicode="&#x4b0;" horiz-adv-x="614" 
d="M116 189v120h95l-227 406h199l81 -172l43 -103h2q20 54 43 103l80 172h199l-227 -406h107v-120h-116v-189h-175v189h-104z" />
    <glyph glyph-name="uni04B1" unicode="&#x4b1;" horiz-adv-x="564" 
d="M77 0v110h78l-155 405h182l80 -254l19 -87h2q9 53 19 87l79 254h183l-154 -405h79v-110h-120v-200h-172v200h-120z" />
    <glyph glyph-name="uni04B2" unicode="&#x4b2;" horiz-adv-x="702" 
d="M8 0l217 355l-218 360h199l78 -147l44 -92h2q19 46 44 92l79 147h199l-219 -360l126 -206h123v-289h-155v140h-71l-82 150l-44 89h-2q-19 -44 -44 -89l-82 -150h-194z" />
    <glyph glyph-name="uni04B3" unicode="&#x4b3;" horiz-adv-x="589" 
d="M11 0l162 255l-166 260h195l56 -115l16 -34h2l16 34l56 115h195l-165 -260l70 -110h118v-265h-153v120h-63l-62 116l-12 26h-2q-7 -17 -12 -26l-61 -116h-190z" />
    <glyph glyph-name="uni04B4" unicode="&#x4b4;" horiz-adv-x="931" 
d="M200 0v565h-185v150h545v-150h-185v-416h264v566h175v-566h98v-289h-155v140h-557z" />
    <glyph glyph-name="uni04B5" unicode="&#x4b5;" horiz-adv-x="765" 
d="M131 0v370h-114v145h402v-145h-115v-225h186v370h173v-370h82v-264h-154v119h-460z" />
    <glyph glyph-name="uni04B6" unicode="&#x4b6;" horiz-adv-x="745" 
d="M262 253q-111 0 -167.5 59t-56.5 165v238h179v-197q0 -106 95 -106q71 0 126 33v270h179v-566h114v-289h-155v140h-138v259l2 32h-2q-89 -38 -176 -38z" />
    <glyph glyph-name="uni04B7" unicode="&#x4b7;" horiz-adv-x="633" 
d="M206 158q-72 0 -123.5 42t-51.5 135v180h170v-147q0 -69 66 -69q43 0 78 25v191h173v-370h97v-265h-153v120h-117v161l1 24h-2q-60 -27 -138 -27z" />
    <glyph glyph-name="uni04B8" unicode="&#x4b8;" horiz-adv-x="730" 
d="M280 261q-121 0 -182.5 59t-61.5 165v230h179v-197q0 -90 71 -103v130h120v-124q43 10 70 24v270h179v-715h-179v267l2 32h-2q-28 -11 -70 -22v-111h-120v95h-6z" />
    <glyph glyph-name="uni04B9" unicode="&#x4b9;" horiz-adv-x="636" 
d="M253 85v77h-27q-81 0 -138 41.5t-57 131.5v180h170v-147q0 -51 52 -64v113h100v-112q30 7 52 19v191h173v-515h-173v171l1 24h-1q-22 -10 -52 -17v-93h-100z" />
    <glyph glyph-name="uni04BA" unicode="&#x4ba;" horiz-adv-x="657" 
d="M75 0v715h175v-261l-2 -32h2q83 34 161 34q106 0 157.5 -63.5t51.5 -169.5v-223h-179v197q0 105 -93 105q-53 0 -98 -26v-276h-175z" />
    <glyph glyph-name="uni04BB" unicode="&#x4bb;" horiz-adv-x="626" 
d="M58 0v715h173v-226l-2 -44h2q22 38 64 60t93 22q185 0 185 -193v-334h-173v302q0 68 -57 68q-54 0 -83 -38t-29 -100v-232h-173z" />
    <glyph glyph-name="uni04BC" unicode="&#x4bc;" horiz-adv-x="918" 
d="M22 527q0 54 9 91l7 30h155l-8 -32q-8 -35 -8 -67q0 -45 12 -73.5t47 -32.5q24 136 117 210t212 74q150 0 232.5 -96.5t82.5 -248.5l-6 -72h-461q13 -72 63.5 -117t129.5 -45q53 0 104.5 23t80.5 50l81 -132q-112 -101 -290 -101q-139 0 -237 90.5t-114 232.5
q-97 2 -153 54.5t-56 161.5zM413 443h292q0 59 -36.5 95t-103.5 36q-65 0 -107 -42.5t-45 -88.5z" />
    <glyph glyph-name="uni04BD" unicode="&#x4bd;" horiz-adv-x="718" 
d="M18 408q0 31 8 68h133q-8 -32 -8 -59q0 -68 38 -82q22 87 90.5 139.5t168.5 52.5q111 0 174.5 -69.5t63.5 -179.5l-4 -54h-325q9 -45 42.5 -68.5t77.5 -23.5q33 0 68.5 13t54.5 26l19 13l64 -121q-9 -8 -26.5 -20.5t-75 -33.5t-118.5 -21q-121 0 -196 69t-86 169
q-163 7 -163 182zM361 323h151q0 30 -19 52t-49 22q-65 0 -83 -74z" />
    <glyph glyph-name="uni04BE" unicode="&#x4be;" horiz-adv-x="920" 
d="M23 527q0 54 9 91l7 30h155l-8 -32q-8 -35 -8 -67q0 -45 12 -73.5t47 -32.5q24 136 117 210t212 74q150 0 232.5 -96.5t82.5 -248.5l-6 -72h-461q13 -72 63.5 -117t129.5 -45q53 0 104.5 23t80.5 50l81 -132q-94 -83 -231 -98v-131h-155v141q-103 29 -172.5 112
t-82.5 198q-97 2 -153 54.5t-56 161.5zM414 443h292q0 59 -36.5 95t-103.5 36q-65 0 -107 -42.5t-45 -88.5z" />
    <glyph glyph-name="uni04BF" unicode="&#x4bf;" horiz-adv-x="718" 
d="M18 408q0 31 8 68h133q-8 -32 -8 -59q0 -68 38 -82q22 87 90.5 139.5t168.5 52.5q111 0 174.5 -69.5t63.5 -179.5l-4 -54h-325q9 -45 42.5 -68.5t77.5 -23.5q33 0 68.5 13t54.5 26l19 13l64 -121q-7 -6 -20.5 -16t-58 -29.5t-91.5 -26.5v-111h-150v123q-78 25 -125.5 86
t-56.5 137q-163 7 -163 182zM361 323h151q0 30 -19 52t-49 22q-65 0 -83 -74z" />
    <glyph glyph-name="uni04C0" unicode="&#x4c0;" horiz-adv-x="323" 
d="M75 0v715h173v-715h-173z" />
    <glyph glyph-name="uni04C1" unicode="&#x4c1;" horiz-adv-x="993" 
d="M6 0l192 371v2l-177 342h188l132 -276h68v276h175v-276h68l132 276h188l-177 -342v-2l192 -371h-196l-139 290h-68v-290h-175v290h-68l-139 -290h-196zM505 747q-80 0 -135 41t-55 112v11h128v-12q0 -29 18.5 -44t43.5 -15q24 0 43 15t19 44v12h127v-11q0 -71 -55 -112
t-134 -41z" />
    <glyph glyph-name="uni04C2" unicode="&#x4c2;" horiz-adv-x="836" 
d="M7 0l145 266v2l-134 247h178l95 -183h46v183h161v-183h47l95 183h178l-134 -247v-2l145 -266h-187l-92 187h-52v-187h-161v187h-51l-92 -187h-187zM419 551q-80 0 -135 41t-55 112v11h128v-12q0 -29 18.5 -44t43.5 -15q24 0 43 15t19 44v12h127v-11q0 -71 -55 -112
t-134 -41z" />
    <glyph glyph-name="uni04C3" unicode="&#x4c3;" horiz-adv-x="691" 
d="M75 0v715h175v-276h72l148 276h188l-172 -305q26 -9 51.5 -27t52 -49.5t43 -84t16.5 -117.5q0 -67 -16 -124t-48 -102t-85.5 -70.5t-122.5 -25.5v145q38 0 62.5 37.5t24.5 124.5q0 83 -32.5 130t-120.5 47h-61v-294h-175z" />
    <glyph glyph-name="uni04C4" unicode="&#x4c4;" horiz-adv-x="592" 
d="M58 0v515h173v-181h49l102 181h188l-139 -227v-2q64 -27 96.5 -85.5t32.5 -132.5q0 -96 -50.5 -168t-120.5 -110l-80 117q88 43 88 160q0 50 -29 86t-93 36h-44v-189h-173z" />
    <glyph glyph-name="uni04C5" unicode="&#x4c5;" horiz-adv-x="783" 
d="M16 151q46 6 75.5 33t48.5 100t19 196v235h480v-565h136v-91l-89 -199h-117l33 140h-138v565h-139v-87q0 -257 -77 -371.5t-232 -114.5v159z" />
    <glyph glyph-name="uni04C6" unicode="&#x4c6;" horiz-adv-x="667" 
d="M20 -5v151q16 2 28 6.5t26 17t22.5 33.5t14.5 58.5t6 88.5v165h422v-370h115v-86l-79 -179h-111l28 120h-126v378h-86v-29q0 -170 -59 -262t-201 -92z" />
    <glyph glyph-name="uni04C7" unicode="&#x4c7;" horiz-adv-x="760" 
d="M75 0v715h175v-286h260v286h175l1 -615q1 -73 -14.5 -127.5t-40.5 -86.5t-61 -51t-72.5 -24t-79.5 -2v147q44 0 68 28.5t24 111.5v184h-260v-280h-175z" />
    <glyph glyph-name="uni04C8" unicode="&#x4c8;" horiz-adv-x="621" 
d="M58 0v515h173v-182h159v182h173v-447q0 -100 -39.5 -161t-126.5 -117l-90 120q45 28 64 61t19 96v121h-159v-188h-173z" />
    <glyph glyph-name="uni04C9" unicode="&#x4c9;" horiz-adv-x="829" 
d="M75 0v715h175v-286h260v286h175v-565h136v-91l-89 -199h-117l33 140h-138v280h-260v-280h-175z" />
    <glyph glyph-name="uni04CA" unicode="&#x4ca;" horiz-adv-x="691" 
d="M58 0v515h173v-182h159v182h173v-370h115v-86l-79 -179h-111l28 120h-126v188h-159v-188h-173z" />
    <glyph glyph-name="uni04CB" unicode="&#x4cb;" horiz-adv-x="691" 
d="M261 253q-111 0 -167.5 59t-56.5 165v238h179v-197q0 -106 95 -106q71 0 126 33v270h179v-715h-138v-140h-155v289h114v110l2 32h-2q-89 -38 -176 -38z" />
    <glyph glyph-name="uni04CC" unicode="&#x4cc;" horiz-adv-x="574" 
d="M245 105h98v82l1 24h-1q-68 -33 -149 -33q-68 0 -116.5 41.5t-48.5 131.5v164h170v-131q0 -69 66 -69q43 0 78 25v175h173v-515h-118v-120h-153v225z" />
    <glyph glyph-name="uni04CD" unicode="&#x4cd;" horiz-adv-x="954" 
d="M47 0l59 715h190l104 -302l36 -118h2q20 72 36 118l104 302h190l46 -565h138v-91l-89 -199h-117l33 140h-128l-22 322q-2 24 -2 54t1 48l1 18h-2q-24 -75 -40 -120l-75 -207h-150l-75 207l-40 120h-2q4 -66 0 -120l-22 -322h-176z" />
    <glyph glyph-name="uni04CE" unicode="&#x4ce;" horiz-adv-x="847" 
d="M36 0l49 515h200l76 -226l20 -60h1l21 60l76 226h199l35 -370h126v-86l-79 -179h-111l28 120h-116l-12 237l1 88h-2q-15 -44 -28 -76l-68 -180h-140l-68 180l-30 76h-2l1 -88l-12 -237h-165z" />
    <glyph glyph-name="uni04CF" unicode="&#x4cf;" horiz-adv-x="289" 
d="M58 0v715h173v-715h-173z" />
    <glyph glyph-name="uni04D0" unicode="&#x4d0;" horiz-adv-x="664" 
d="M-3 0l243 715h184l243 -715h-180l-44 150h-223l-43 -150h-180zM261 290h141l-40 139l-29 123h-2q-16 -78 -29 -123zM330 747q-80 0 -135 41t-55 112v11h128v-12q0 -29 18.5 -44t43.5 -15q24 0 43 15t19 44v12h127v-11q0 -71 -55 -112t-134 -41z" />
    <glyph glyph-name="uni04D1" unicode="&#x4d1;" horiz-adv-x="553" 
d="M22 145q0 49 27 85t71.5 55t92.5 27.5t100 8.5h15v9q0 57 -73 57q-68 0 -142 -49l-60 122q35 27 96.5 47t121.5 20q107 0 168.5 -56t61.5 -154v-317h-158v31l2 32h-2q-25 -35 -66.5 -55t-86.5 -20q-74 0 -121 45t-47 112zM193 161q0 -19 13 -31.5t36 -12.5q36 0 62 29
t26 62v14h-16q-48 0 -84.5 -14.5t-36.5 -46.5zM289 551q-80 0 -135 41t-55 112v11h128v-12q0 -29 18.5 -44t43.5 -15q24 0 43 15t19 44v12h127v-11q0 -71 -55 -112t-134 -41z" />
    <glyph glyph-name="uni04D2" unicode="&#x4d2;" horiz-adv-x="664" 
d="M-3 0l243 715h184l243 -715h-180l-44 150h-223l-43 -150h-180zM261 290h141l-40 139l-29 123h-2q-16 -78 -29 -123zM374 771v140h126v-140h-126zM165 771v140h126v-140h-126z" />
    <glyph glyph-name="uni04D3" unicode="&#x4d3;" horiz-adv-x="553" 
d="M22 145q0 49 27 85t71.5 55t92.5 27.5t100 8.5h15v9q0 57 -73 57q-68 0 -142 -49l-60 122q35 27 96.5 47t121.5 20q107 0 168.5 -56t61.5 -154v-317h-158v31l2 32h-2q-25 -35 -66.5 -55t-86.5 -20q-74 0 -121 45t-47 112zM193 161q0 -19 13 -31.5t36 -12.5q36 0 62 29
t26 62v14h-16q-48 0 -84.5 -14.5t-36.5 -46.5zM318 575v140h126v-140h-126zM109 575v140h126v-140h-126z" />
    <glyph glyph-name="uni04D4" unicode="&#x4d4;" horiz-adv-x="950" 
d="M-11 0l299 715h610v-150h-273v-130h218v-150h-218v-135h286v-150h-461v288h-168l-111 -288h-182zM336 428h114v137h-61z" />
    <glyph glyph-name="uni04D5" unicode="&#x4d5;" horiz-adv-x="853" 
d="M22 154q0 44 24 76.5t57.5 49.5t79 27.5t77.5 13t64 2.5h4v7q0 57 -76 57q-65 0 -140 -49l-60 121q36 29 96 48.5t117 19.5q106 0 163 -51h2q62 51 154 51q108 0 173 -71.5t65 -182.5q0 -13 -4 -49h-325q9 -46 42.5 -69t77.5 -23q72 0 142 51l64 -120q-38 -34 -99 -54.5
t-121 -20.5q-133 0 -207 90h-2q-16 -29 -65 -59t-128 -30q-74 0 -124.5 45.5t-50.5 119.5zM497 323h151q0 29 -18 51.5t-46 22.5q-68 0 -87 -74zM196 163q0 -43 51 -43q34 0 59 29.5t25 62.5v12h-17q-46 0 -82 -16t-36 -45z" />
    <glyph glyph-name="uni04D6" unicode="&#x4d6;" horiz-adv-x="576" 
d="M75 0v715h448v-150h-273v-130h218v-150h-218v-135h287v-150h-462zM306 747q-80 0 -135 41t-55 112v11h128v-12q0 -29 18.5 -44t43.5 -15q24 0 43 15t19 44v12h127v-11q0 -71 -55 -112t-134 -41z" />
    <glyph glyph-name="uni04D7" unicode="&#x4d7;" horiz-adv-x="567" 
d="M29 258q0 116 73 192.5t195 76.5q111 0 174.5 -69.5t63.5 -179.5q0 -18 -4 -54h-325q9 -45 42.5 -68.5t77.5 -23.5q64 0 142 52l64 -121q-41 -35 -100.5 -55t-119.5 -20q-131 0 -207 80t-76 190zM210 323h154q0 33 -19.5 55t-51.5 22q-66 0 -83 -77zM295 551
q-80 0 -135 41t-55 112v11h128v-12q0 -29 18.5 -44t43.5 -15q24 0 43 15t19 44v12h127v-11q0 -71 -55 -112t-134 -41z" />
    <glyph glyph-name="uni04D8" unicode="&#x4d8;" horiz-adv-x="728" 
d="M39 333l6 82h461q-12 70 -59.5 111t-123.5 41q-55 0 -109.5 -23t-85.5 -50l-81 132q118 101 300 101q102 0 182.5 -54t121 -137.5t40.5 -178.5q0 -161 -95 -265t-242 -104q-150 0 -232.5 96.5t-82.5 248.5zM214 282q0 -64 36.5 -102.5t103.5 -38.5q69 0 109 38.5
t43 102.5h-292z" />
    <glyph glyph-name="uni04D9" unicode="&#x4d9;" horiz-adv-x="567" 
d="M30 238l4 62h327q-9 47 -42 69.5t-78 22.5q-32 0 -67.5 -12t-55.5 -24l-19 -13l-60 117q99 67 227 67t200 -78t72 -192q0 -116 -73 -192.5t-195 -76.5q-113 0 -176.5 70t-63.5 180zM209 205q0 -41 18 -64t47 -23q38 0 60.5 23.5t22.5 63.5h-148z" />
    <glyph glyph-name="uni04DA" unicode="&#x4da;" horiz-adv-x="728" 
d="M39 333l6 82h461q-12 70 -59.5 111t-123.5 41q-55 0 -109.5 -23t-85.5 -50l-81 132q118 101 300 101q102 0 182.5 -54t121 -137.5t40.5 -178.5q0 -161 -95 -265t-242 -104q-150 0 -232.5 96.5t-82.5 248.5zM214 282q0 -64 36.5 -102.5t103.5 -38.5q69 0 109 38.5
t43 102.5h-292zM391 771v140h126v-140h-126zM182 771v140h126v-140h-126z" />
    <glyph glyph-name="uni04DB" unicode="&#x4db;" horiz-adv-x="567" 
d="M304 575v140h126v-140h-126zM95 575v140h126v-140h-126zM30 238l4 62h327q-9 47 -42 69.5t-78 22.5q-32 0 -67.5 -12t-55.5 -24l-19 -13l-60 117q99 67 227 67t200 -78t72 -192q0 -116 -73 -192.5t-195 -76.5q-113 0 -176.5 70t-63.5 180zM209 205q0 -41 18 -64t47 -23
q38 0 60.5 23.5t22.5 63.5h-148z" />
    <glyph glyph-name="uni04DC" unicode="&#x4dc;" horiz-adv-x="993" 
d="M6 0l192 371v2l-177 342h188l132 -276h68v276h175v-276h68l132 276h188l-177 -342v-2l192 -371h-196l-139 290h-68v-290h-175v290h-68l-139 -290h-196zM545 771v140h126v-140h-126zM336 771v140h126v-140h-126z" />
    <glyph glyph-name="uni04DD" unicode="&#x4dd;" horiz-adv-x="836" 
d="M7 0l145 266v2l-134 247h178l95 -183h46v183h161v-183h47l95 183h178l-134 -247v-2l145 -266h-187l-92 187h-52v-187h-161v187h-51l-92 -187h-187zM460 575v140h126v-140h-126zM251 575v140h126v-140h-126z" />
    <glyph glyph-name="uni04DE" unicode="&#x4de;" horiz-adv-x="569" 
d="M15 97l91 115q73 -71 152 -71q94 0 94 80q0 70 -84 70h-86v139h70q38 0 60.5 21t22.5 51q0 34 -22.5 54.5t-61.5 20.5q-74 0 -148 -59l-67 125q101 84 248 84q56 0 106.5 -20.5t86.5 -68t36 -113.5q0 -101 -93 -156v-2q52 -18 82 -59.5t30 -99.5q0 -101 -74 -160.5
t-181 -59.5q-156 0 -262 109zM318 771v140h126v-140h-126zM109 771v140h126v-140h-126z" />
    <glyph glyph-name="uni04DF" unicode="&#x4df;" horiz-adv-x="473" 
d="M15 64l69 108q25 -23 59.5 -38.5t64.5 -15.5q62 0 62 45q0 21 -11.5 32t-44.5 11h-63v114h52q52 0 52 40q0 41 -54 41q-56 0 -122 -39l-50 107q84 58 208 58q82 0 136 -39t54 -104q0 -81 -64 -116v-2q80 -37 80 -114q0 -79 -59 -121.5t-154 -42.5q-59 0 -116.5 19.5
t-98.5 56.5zM263 575v140h126v-140h-126zM54 575v140h126v-140h-126z" />
    <glyph glyph-name="uni04E0" unicode="&#x4e0;" horiz-adv-x="543" 
d="M78 171q28 -17 71 -29t80 -12q50 0 79 23t29 61q0 59 -73 66q-16 2 -160 2v110l142 147q9 9 20 17t18 12l6 3v2q-28 -3 -60 -3h-187v145h436v-137l-150 -143l-30 -24v-2q46 -3 79 -12q128 -35 128 -181q0 -110 -77 -168t-189 -58q-120 0 -213 57z" />
    <glyph glyph-name="uni04E1" unicode="&#x4e1;" horiz-adv-x="506" 
d="M54 -29q28 -17 71 -29t80 -12q50 0 79 23t29 61q0 59 -73 66q-16 2 -160 2v110l142 147q9 9 20 17t18 12l6 3v2q-28 -3 -60 -3h-187v145h436v-137l-150 -143l-30 -24v-2q46 -3 79 -12q128 -35 128 -181q0 -110 -77 -168t-189 -58q-120 0 -213 57z" />
    <glyph glyph-name="uni04E2" unicode="&#x4e2;" horiz-adv-x="754" 
d="M75 0v715h175v-334l-8 -122h2q32 75 60 122l198 334h177v-715h-175v333l8 122h-2q-32 -75 -60 -122l-199 -333h-176zM258 782v112h275v-112h-275z" />
    <glyph glyph-name="uni04E3" unicode="&#x4e3;" horiz-adv-x="618" 
d="M58 0v515h163v-227q0 -25 -2 -51h2q6 15 28 51l143 227h168v-515h-163v225q0 32 2 52h-2q-3 -8 -28 -51l-143 -226h-168zM178 586v112h275v-112h-275z" />
    <glyph glyph-name="uni04E4" unicode="&#x4e4;" horiz-adv-x="754" 
d="M75 0v715h175v-334l-8 -122h2q32 75 60 122l198 334h177v-715h-175v333l8 122h-2q-32 -75 -60 -122l-199 -333h-176zM421 771v140h126v-140h-126zM212 771v140h126v-140h-126z" />
    <glyph glyph-name="uni04E5" unicode="&#x4e5;" horiz-adv-x="618" 
d="M58 0v515h163v-227q0 -25 -2 -51h2q6 15 28 51l143 227h168v-515h-163v225q0 32 2 52h-2q-3 -8 -28 -51l-143 -226h-168zM352 575v140h126v-140h-126zM143 575v140h126v-140h-126z" />
    <glyph glyph-name="uni04E6" unicode="&#x4e6;" horiz-adv-x="820" 
d="M36 362q0 156 105 260.5t269 104.5t269 -104.5t105 -260.5q0 -160 -105 -267t-269 -107t-269 107t-105 267zM217 362q0 -92 54.5 -153t138.5 -61t138.5 61t54.5 153q0 88 -54.5 146.5t-138.5 58.5t-138.5 -58.5t-54.5 -146.5zM451 771v140h126v-140h-126zM242 771v140
h126v-140h-126z" />
    <glyph glyph-name="uni04E7" unicode="&#x4e7;" horiz-adv-x="642" 
d="M29 256q0 119 84 195t207 76q124 0 208.5 -75.5t84.5 -195.5q0 -119 -84 -193.5t-208 -74.5t-208 74.5t-84 193.5zM204 256q0 -56 34 -90t83 -34t83 34t34 90q0 57 -34 92t-83 35t-83 -35t-34 -92zM363 575v140h126v-140h-126zM154 575v140h126v-140h-126z" />
    <glyph glyph-name="uni04E8" unicode="&#x4e8;" horiz-adv-x="820" 
d="M36 362q0 155 106.5 260t267.5 105t267.5 -105t106.5 -260q0 -159 -106.5 -266.5t-267.5 -107.5t-267.5 107.5t-106.5 266.5zM411 141q66 0 117.5 41.5t70.5 109.5h-378q20 -68 71.5 -109.5t118.5 -41.5zM411 572q-68 0 -120.5 -41t-70.5 -107h381q-19 66 -71 107
t-119 41z" />
    <glyph glyph-name="uni04E9" unicode="&#x4e9;" horiz-adv-x="642" 
d="M29 256q0 119 84 195t207 76q124 0 208.5 -75.5t84.5 -195.5q0 -119 -84 -193.5t-208 -74.5t-208 74.5t-84 193.5zM323 111q46 0 82 27t48 75h-263q12 -48 48.5 -75t84.5 -27zM323 403q-46 0 -81.5 -25.5t-49.5 -70.5h258q-13 44 -48 70t-79 26z" />
    <glyph glyph-name="uni04EA" unicode="&#x4ea;" horiz-adv-x="820" 
d="M36 362q0 155 106.5 260t267.5 105t267.5 -105t106.5 -260q0 -159 -106.5 -266.5t-267.5 -107.5t-267.5 107.5t-106.5 266.5zM411 141q66 0 117.5 41.5t70.5 109.5h-378q20 -68 71.5 -109.5t118.5 -41.5zM411 572q-68 0 -120.5 -41t-70.5 -107h381q-19 66 -71 107
t-119 41zM242 771v140h126v-140h-126zM451 771v140h126v-140h-126z" />
    <glyph glyph-name="uni04EB" unicode="&#x4eb;" horiz-adv-x="642" 
d="M29 256q0 119 84 195t207 76q124 0 208.5 -75.5t84.5 -195.5q0 -119 -84 -193.5t-208 -74.5t-208 74.5t-84 193.5zM323 111q46 0 82 27t48 75h-263q12 -48 48.5 -75t84.5 -27zM323 403q-46 0 -81.5 -25.5t-49.5 -70.5h258q-13 44 -48 70t-79 26zM154 575v140h126v-140
h-126zM363 575v140h126v-140h-126z" />
    <glyph glyph-name="uni04EC" unicode="&#x4ec;" horiz-adv-x="716" 
d="M20 98l86 125q87 -77 197 -77q77 0 126 39.5t64 102.5h-295v140h296q-15 63 -65 102t-126 39q-99 0 -191 -80l-81 132q102 106 279 106q170 0 270 -105t100 -261q0 -162 -106 -267.5t-272 -105.5q-156 0 -282 110zM367 771v140h126v-140h-126zM158 771v140h126v-140h-126
z" />
    <glyph glyph-name="uni04ED" unicode="&#x4ed;" horiz-adv-x="550" 
d="M16 62l60 116q68 -56 146 -56q51 0 85.5 22t47.5 58h-194v114h195q-14 36 -47 56.5t-80 20.5q-77 0 -134 -49l-70 112q37 35 94.5 53t118.5 18q132 0 207.5 -79t75.5 -190q0 -112 -77.5 -191t-209.5 -79q-129 0 -218 74zM298 575v140h126v-140h-126zM89 575v140h126v-140
h-126z" />
    <glyph glyph-name="uni04EE" unicode="&#x4ee;" horiz-adv-x="631" 
d="M181 782v112h275v-112h-275zM54 42l76 131q43 -36 79 -36q42 0 57 37l-276 541h192l119 -257l39 -96h2q11 45 28 95l88 258h184l-211 -536q-15 -38 -30.5 -66.5t-41 -59.5t-61.5 -48t-81 -17q-86 0 -163 54z" />
    <glyph glyph-name="uni04EF" unicode="&#x4ef;" horiz-adv-x="561" 
d="M63 -47q28 -19 53 -19q62 0 83 52l10 24l-219 505h196l76 -237l19 -80h2q10 49 17 77l65 240h189l-211 -570q-30 -80 -88.5 -117.5t-126.5 -37.5q-30 0 -60 9t-45 18l-15 9zM144 586v112h275v-112h-275z" />
    <glyph glyph-name="uni04F0" unicode="&#x4f0;" horiz-adv-x="631" 
d="M54 42l76 131q43 -36 79 -36q42 0 57 37l-276 541h192l119 -257l39 -96h2q11 45 28 95l88 258h184l-211 -536q-15 -38 -30.5 -66.5t-41 -59.5t-61.5 -48t-81 -17q-86 0 -163 54zM370 771v140h126v-140h-126zM161 771v140h126v-140h-126z" />
    <glyph glyph-name="uni04F1" unicode="&#x4f1;" horiz-adv-x="561" 
d="M63 -47q28 -19 53 -19q62 0 83 52l10 24l-219 505h196l76 -237l19 -80h2q10 49 17 77l65 240h189l-211 -570q-30 -80 -88.5 -117.5t-126.5 -37.5q-30 0 -60 9t-45 18l-15 9zM322 575v140h126v-140h-126zM113 575v140h126v-140h-126z" />
    <glyph glyph-name="uni04F2" unicode="&#x4f2;" horiz-adv-x="631" 
d="M54 42l76 131q43 -36 79 -36q42 0 57 37l-276 541h192l119 -257l39 -96h2q11 45 28 95l88 258h184l-211 -536q-15 -38 -30.5 -66.5t-41 -59.5t-61.5 -48t-81 -17q-86 0 -163 54zM361 761l81 150h163l-118 -150h-126zM153 761l76 150h139l-79 -150h-136z" />
    <glyph glyph-name="uni04F3" unicode="&#x4f3;" horiz-adv-x="561" 
d="M63 -47q28 -19 53 -19q62 0 83 52l10 24l-219 505h196l76 -237l19 -80h2q10 49 17 77l65 240h189l-211 -570q-30 -80 -88.5 -117.5t-126.5 -37.5q-30 0 -60 9t-45 18l-15 9zM312 565l81 150h163l-118 -150h-126zM104 565l76 150h139l-79 -150h-136z" />
    <glyph glyph-name="uni04F4" unicode="&#x4f4;" horiz-adv-x="692" 
d="M262 253q-111 0 -167.5 59t-56.5 165v238h179v-197q0 -106 95 -106q71 0 126 33v270h179v-715h-179v259l2 32h-2q-89 -38 -176 -38zM377 771v140h126v-140h-126zM168 771v140h126v-140h-126z" />
    <glyph glyph-name="uni04F5" unicode="&#x4f5;" horiz-adv-x="576" 
d="M206 158q-72 0 -123.5 42t-51.5 135v180h170v-147q0 -69 66 -69q43 0 78 25v191h173v-515h-173v161l1 24h-2q-60 -27 -138 -27zM318 575v140h126v-140h-126zM109 575v140h126v-140h-126z" />
    <glyph glyph-name="uni04F6" unicode="&#x4f6;" horiz-adv-x="528" 
d="M75 0v715h438v-150h-263v-416h114v-289h-155v140h-134z" />
    <glyph glyph-name="uni04F7" unicode="&#x4f7;" horiz-adv-x="441" 
d="M58 0v515h363v-145h-190v-225h98v-265h-153v120h-118z" />
    <glyph glyph-name="uni04F8" unicode="&#x4f8;" horiz-adv-x="925" 
d="M675 0v715h175v-715h-175zM75 0v715h175v-221h112q104 0 168.5 -69.5t64.5 -178.5q0 -108 -64.5 -177t-168.5 -69h-287zM250 150h79q42 0 65 26t23 70t-23.5 71t-67.5 27h-76v-194zM504 771v140h126v-140h-126zM295 771v140h126v-140h-126z" />
    <glyph glyph-name="uni04F9" unicode="&#x4f9;" horiz-adv-x="803" 
d="M572 0v515h173v-515h-173zM58 0v515h173v-161h78q104 0 154 -48t50 -130t-50 -129t-154 -47h-251zM231 113h46q30 0 46.5 18t16.5 46t-17 46.5t-49 18.5h-43v-129zM443 575v140h126v-140h-126zM234 575v140h126v-140h-126z" />
    <glyph glyph-name="uni0524" unicode="&#x524;" horiz-adv-x="807" 
d="M75 0v715h604v-566h114v-289h-155v140h-134v566h-254v-566h-175z" />
    <glyph glyph-name="uni0525" unicode="&#x525;" horiz-adv-x="673" 
d="M58 0v515h499v-370h98v-265h-154v120h-117v370h-153v-370h-173z" />
    <glyph glyph-name="uni1E9E" unicode="&#x1e9e;" horiz-adv-x="704" 
d="M69 0v480q0 106 66 170.5t175 64.5h326v-120l-92 -148l-20 -29v-2l9 -2q63 -14 98 -72t35 -124q0 -92 -67.5 -155t-163.5 -63h-118v150h105q31 0 47.5 20t16.5 48q0 27 -16 46.5t-48 19.5h-80v120l53 97q12 21 23 37.5t16 21.5l6 6v2q-9 -3 -45 -3h-84q-28 0 -45.5 -23
t-17.5 -58v-484h-179z" />
    <glyph glyph-name="thinspace" unicode="&#x2009;" horiz-adv-x="20" 
 />
    <glyph glyph-name="endash" unicode="&#x2013;" horiz-adv-x="720" 
d="M62 222v130h596v-130h-596z" />
    <glyph glyph-name="emdash" unicode="&#x2014;" horiz-adv-x="920" 
d="M62 222v130h796v-130h-796z" />
    <glyph glyph-name="quoteleft" unicode="&#x2018;" horiz-adv-x="280" 
d="M40 475l89 255h117l-54 -255h-152z" />
    <glyph glyph-name="quoteright" unicode="&#x2019;" horiz-adv-x="272" 
d="M46 475l54 255h152l-89 -255h-117z" />
    <glyph glyph-name="quotesinglbase" unicode="&#x201a;" horiz-adv-x="276" 
d="M26 -89l54 255h147l-89 -255h-112z" />
    <glyph glyph-name="quotedblleft" unicode="&#x201c;" horiz-adv-x="479" 
d="M238 475l89 255h118l-54 -255h-153zM40 475l89 255h118l-54 -255h-153z" />
    <glyph glyph-name="quotedblright" unicode="&#x201d;" horiz-adv-x="471" 
d="M244 475l54 255h153l-89 -255h-118zM46 475l54 255h153l-89 -255h-118z" />
    <glyph glyph-name="quotedblbase" unicode="&#x201e;" horiz-adv-x="468" 
d="M218 -89l54 255h147l-89 -255h-112zM26 -89l54 255h147l-89 -255h-112z" />
    <glyph glyph-name="dagger" unicode="&#x2020;" horiz-adv-x="492" 
d="M163 -50v435h-130v130h130v200h165v-200h131v-130h-131v-435h-165z" />
    <glyph glyph-name="daggerdbl" unicode="&#x2021;" horiz-adv-x="522" 
d="M48 150v130h130v105h-130v130h130v200h165v-200h131v-130h-131v-105h131v-130h-131v-200h-165v200h-130z" />
    <glyph glyph-name="bullet" unicode="&#x2022;" horiz-adv-x="522" 
d="M261 105q-77 0 -131.5 54.5t-54.5 131.5t54.5 131.5t131.5 54.5t131.5 -54.5t54.5 -131.5t-54.5 -131.5t-131.5 -54.5z" />
    <glyph glyph-name="ellipsis" unicode="&#x2026;" horiz-adv-x="924" 
d="M707 0v164h158v-164h-158zM383 0v164h158v-164h-158zM59 0v164h158v-164h-158z" />
    <glyph glyph-name="perthousand" unicode="&#x2030;" horiz-adv-x="1261" 
d="M220 382q-76 0 -128.5 50t-52.5 122q0 71 53 122t128 51t128 -51t53 -122q0 -72 -53 -122t-128 -50zM79 0l552 715h152l-552 -715h-152zM220 502q23 0 39 15.5t16 37.5q0 21 -16.5 36.5t-38.5 15.5t-38.5 -15.5t-16.5 -36.5q0 -22 16 -37.5t39 -15.5zM868 160
q0 71 53 122t128 51t128 -51t53 -122q0 -72 -53 -122t-128 -50q-76 0 -128.5 50t-52.5 122zM466 160q0 71 53 122t128 51t128 -51t53 -122q0 -72 -53 -122t-128 -50q-76 0 -128.5 50t-52.5 122zM994 161q0 -22 16 -37.5t39 -15.5t39 15.5t16 37.5q0 21 -16.5 36.5
t-38.5 15.5t-38.5 -15.5t-16.5 -36.5zM592 161q0 -22 16 -37.5t39 -15.5t39 15.5t16 37.5q0 21 -16.5 36.5t-38.5 15.5t-38.5 -15.5t-16.5 -36.5z" />
    <glyph glyph-name="guilsinglleft" unicode="&#x2039;" horiz-adv-x="394" 
d="M196 77l-164 205l164 206h158l-164 -206l164 -205h-158z" />
    <glyph glyph-name="guilsinglright" unicode="&#x203a;" horiz-adv-x="394" 
d="M40 77l164 205l-164 206h158l164 -206l-164 -205h-158z" />
    <glyph glyph-name="fraction" unicode="&#x2044;" horiz-adv-x="196" 
d="M-10 0h-119l336 715h119z" />
    <glyph glyph-name="zerosuperior" unicode="&#x2070;" horiz-adv-x="400" 
d="M200 413q-170 0 -170 231q0 230 170 230t170 -230q0 -231 -170 -231zM200 528q43 0 43 116q0 114 -43 114t-43 -114q0 -116 43 -116z" />
    <glyph glyph-name="foursuperior" unicode="&#x2074;" horiz-adv-x="400" 
d="M206 423v87h-197v84l171 270h150v-247h53v-107h-53v-87h-124zM128 617h78v90l4 50h-2q-9 -27 -21 -46l-59 -92v-2z" />
    <glyph glyph-name="fivesuperior" unicode="&#x2075;" horiz-adv-x="400" 
d="M193 413q-98 0 -163 65l63 93q15 -18 40 -30.5t50 -12.5q22 0 39.5 12.5t17.5 33.5q0 22 -17.5 34.5t-43.5 12.5q-38 0 -65 -13l-65 24l20 232h266v-109h-164l-2 -23l-3 -16l2 -1q16 4 43 4q69 0 112.5 -42.5t43.5 -103.5q0 -64 -46.5 -112t-127.5 -48z" />
    <glyph glyph-name="sixsuperior" unicode="&#x2076;" horiz-adv-x="400" 
d="M214 413q-75 0 -129 54t-54 155q0 99 57.5 175.5t155.5 76.5q61 0 106 -24l-32 -108q-30 16 -66 16q-58 0 -76 -52h2q18 6 37 6q74 0 115.5 -42t41.5 -104t-43 -107.5t-115 -45.5zM214 528q15 0 24 11.5t9 27.5q0 23 -13.5 40.5t-40.5 17.5q-34 0 -34 -19
q0 -35 16.5 -56.5t38.5 -21.5z" />
    <glyph glyph-name="sevensuperior" unicode="&#x2077;" horiz-adv-x="400" 
d="M39 423l176 308l16 24v2q-17 -2 -30 -2h-161v109h334v-85l-198 -356h-137z" />
    <glyph glyph-name="eightsuperior" unicode="&#x2078;" horiz-adv-x="400" 
d="M201 413q-71 0 -123 36.5t-52 102.5q0 54 64 106q-43 36 -43 88q0 61 45.5 94.5t109.5 33.5q63 0 111 -34.5t48 -94.5q0 -46 -49 -100q59 -38 59 -99q0 -62 -50.5 -97.5t-119.5 -35.5zM228 684q17 27 17 53q0 14 -13.5 22.5t-29.5 8.5q-35 0 -35 -28q0 -30 61 -56z
M200 519q18 0 31.5 9t13.5 25q0 12 -12 23.5t-24.5 18t-38.5 18.5q-23 -25 -23 -53q0 -19 15.5 -30t37.5 -11z" />
    <glyph glyph-name="ninesuperior" unicode="&#x2079;" horiz-adv-x="400" 
d="M49 437l32 108q43 -16 66 -16q58 0 76 52h-2q-18 -6 -37 -6q-73 0 -115 42.5t-42 104.5q0 61 43 106.5t115 45.5q75 0 129 -54t54 -155q0 -99 -57.5 -175.5t-155.5 -76.5q-62 0 -106 24zM206 662q34 0 34 19q0 35 -16.5 56.5t-38.5 21.5q-15 0 -24 -11t-9 -27
q0 -23 13.5 -41t40.5 -18z" />
    <glyph glyph-name="zeroinferior" unicode="&#x2080;" horiz-adv-x="400" 
d="M200 -167q-170 0 -170 231q0 230 170 230t170 -230q0 -231 -170 -231zM200 -52q43 0 43 116q0 114 -43 114t-43 -114q0 -116 43 -116z" />
    <glyph glyph-name="oneinferior" unicode="&#x2081;" horiz-adv-x="400" 
d="M57 -157v108h89v143l3 32h-2q-5 -10 -11 -15l-24 -22l-72 79l124 116h108v-333h90v-108h-305z" />
    <glyph glyph-name="twoinferior" unicode="&#x2082;" horiz-adv-x="400" 
d="M37 -157q-5 28 -5 49q0 50 20.5 88t50 59.5t58.5 38t49.5 33t20.5 34.5q0 16 -13 25t-32 9q-35 0 -71 -45l-83 71q24 40 68.5 64.5t94.5 24.5q64 0 113.5 -36.5t49.5 -106.5q0 -47 -27.5 -83.5t-61 -53t-63.5 -33.5t-33 -30h191v-108h-327z" />
    <glyph glyph-name="threeinferior" unicode="&#x2083;" horiz-adv-x="400" 
d="M187 -167q-102 0 -160 68l61 90q35 -43 91 -43q25 0 39.5 12t14.5 30t-17.5 27t-44.5 9h-37l-24 57l62 69l24 23v2q-21 -2 -34 -2h-110v109h294v-79l-83 -91q97 -24 97 -126q0 -62 -46 -108.5t-127 -46.5z" />
    <glyph glyph-name="fourinferior" unicode="&#x2084;" horiz-adv-x="400" 
d="M206 -157v87h-197v84l171 270h150v-247h53v-107h-53v-87h-124zM128 37h78v90l4 50h-2q-9 -27 -21 -46l-59 -92v-2z" />
    <glyph glyph-name="fiveinferior" unicode="&#x2085;" horiz-adv-x="400" 
d="M193 -167q-98 0 -163 65l63 93q15 -18 40 -30.5t50 -12.5q22 0 39.5 12.5t17.5 33.5q0 22 -17.5 34.5t-43.5 12.5q-38 0 -65 -13l-65 24l20 232h266v-109h-164l-2 -23l-3 -16l2 -1q16 4 43 4q69 0 112.5 -42.5t43.5 -103.5q0 -64 -46.5 -112t-127.5 -48z" />
    <glyph glyph-name="sixinferior" unicode="&#x2086;" horiz-adv-x="400" 
d="M214 -167q-75 0 -129 54t-54 155q0 99 57.5 175.5t155.5 76.5q61 0 106 -24l-32 -108q-30 16 -66 16q-58 0 -76 -52h2q18 6 37 6q74 0 115.5 -42t41.5 -104t-43 -107.5t-115 -45.5zM214 -52q15 0 24 11.5t9 27.5q0 23 -13.5 40.5t-40.5 17.5q-34 0 -34 -19
q0 -35 16.5 -56.5t38.5 -21.5z" />
    <glyph glyph-name="seveninferior" unicode="&#x2087;" horiz-adv-x="400" 
d="M39 -157l176 308l16 24v2q-17 -2 -30 -2h-161v109h334v-85l-198 -356h-137z" />
    <glyph glyph-name="eightinferior" unicode="&#x2088;" horiz-adv-x="400" 
d="M201 -167q-71 0 -123 36.5t-52 102.5q0 54 64 106q-43 36 -43 88q0 61 45.5 94.5t109.5 33.5q63 0 111 -34.5t48 -94.5q0 -46 -49 -100q59 -38 59 -99q0 -62 -50.5 -97.5t-119.5 -35.5zM228 104q17 27 17 53q0 14 -13.5 22.5t-29.5 8.5q-35 0 -35 -28q0 -30 61 -56z
M200 -61q18 0 31.5 9t13.5 25q0 12 -12 23.5t-24.5 18t-38.5 18.5q-23 -25 -23 -53q0 -19 15.5 -30t37.5 -11z" />
    <glyph glyph-name="nineinferior" unicode="&#x2089;" horiz-adv-x="400" 
d="M49 -143l32 108q43 -16 66 -16q58 0 76 52h-2q-18 -6 -37 -6q-73 0 -115 42.5t-42 104.5q0 61 43 106.5t115 45.5q75 0 129 -54t54 -155q0 -99 -57.5 -175.5t-155.5 -76.5q-62 0 -106 24zM206 82q34 0 34 19q0 35 -16.5 56.5t-38.5 21.5q-15 0 -24 -11t-9 -27
q0 -23 13.5 -41t40.5 -18z" />
    <glyph glyph-name="Euro" unicode="&#x20ac;" 
d="M26 237v96h56q-3 26 -1 48h-55v96h72q35 111 129.5 180.5t217.5 69.5q49 0 117 -14l-43 -158q-30 10 -79 10q-107 0 -154 -88h216l-20 -96h-219q-3 -22 2 -48h207l-20 -96h-155q24 -40 64 -62t87 -22q43 0 95 15l30 -160q-57 -20 -128 -20q-127 0 -218.5 68t-126.5 181
h-74z" />
    <glyph glyph-name="numero" unicode="&#x2116;" horiz-adv-x="1123" 
d="M72 0v715h177l198 -334q12 -21 27 -51.5t24 -50.5l9 -20h2q-8 77 -8 122v334h175v-715h-176l-199 333q-12 21 -27 51.5t-24 50.5l-9 20h-2q8 -77 8 -122v-333h-175zM741 456q0 69 49 118t122 49q71 0 120.5 -49t49.5 -118q0 -70 -49 -118t-121 -48q-73 0 -122 48t-49 118
zM863 457q0 -22 13.5 -36.5t35.5 -14.5t35.5 14.5t13.5 36.5q0 21 -14 35.5t-35 14.5t-35 -14.5t-14 -35.5zM750 132v115h319v-115h-319z" />
    <glyph glyph-name="trademark" unicode="&#x2122;" horiz-adv-x="1023" 
d="M481 268l35 447h118l73 -175l13 -44h2q7 29 13 44l73 175h118l33 -447h-127l-10 174l1 32h-2l-51 -125h-98l-51 125h-2l1 -32l-12 -174h-127zM196 268v338h-142v109h408v-109h-140v-338h-126z" />
    <glyph glyph-name="minus" unicode="&#x2212;" 
d="M27 222v130h546v-130h-546z" />
    <glyph glyph-name="infinity" unicode="&#x221e;" horiz-adv-x="513" 
d="M257 143q-85 0 -145.5 60.5t-60.5 145.5t60.5 145t145.5 60t145 -60t60 -145t-60 -145.5t-145 -60.5z" />
    <glyph glyph-name="approxequal" unicode="&#x2248;" 
d="M99 322l-63 99q81 81 165 81q50 0 107.5 -35t90.5 -35q55 0 102 54l63 -99q-81 -81 -165 -81q-50 0 -107.5 35t-90.5 35q-52 0 -102 -54zM99 93l-63 99q81 81 165 81q50 0 107.5 -35t90.5 -35q55 0 102 54l63 -99q-81 -81 -165 -81q-50 0 -107.5 35t-90.5 35
q-52 0 -102 -54z" />
    <glyph glyph-name="notequal" unicode="&#x2260;" 
d="M97 47l38 60h-88v130h171l64 100h-235v130h319l69 108l76 -49l-38 -59h80v-130h-163l-64 -100h227v-130h-310l-68 -107z" />
    <glyph glyph-name="lessequal" unicode="&#x2264;" 
d="M40 234v107l504 223v-145l-330 -131v-2l330 -130v-145zM43 -70h501v-130h-501v130z" />
    <glyph glyph-name="greaterequal" unicode="&#x2265;" 
d="M56 11v145l330 130v2l-330 131v145l504 -223v-107zM57 -70h501v-130h-501v130z" />
    <glyph glyph-name="commaaccent" unicode="&#xf6c3;" horiz-adv-x="335" 
d="M105 -49h136q7 -29 7 -58q0 -47 -28 -103h-123q20 58 20 93q0 33 -12 68z" />
    <glyph glyph-name="cyrbreve" unicode="&#xf6d4;" horiz-adv-x="419" 
d="M208 747q-80 0 -135 41t-55 112v11h128v-12q0 -29 18.5 -44t43.5 -15q24 0 43 15t19 44v12h127v-11q0 -71 -55 -112t-134 -41z" />
    <glyph glyph-name="apple" unicode="&#xf8ff;" horiz-adv-x="1130" 
d="M168 -5v152l-126 72v278l126 71v151l265 142l134 -71l132 71l265 -142v-151l124 -71v-278l-124 -72v-152l-265 -141l-132 71l-134 -71zM208 30l238 -126l121 66l118 -66l238 126v139l114 64v249l-114 66v136l-238 126l-118 -64l-121 64l-238 -126v-136l-114 -66v-249
l114 -64v-139zM242 64v121l-99 60v225l99 58v123l215 114l110 -59l107 59l214 -114v-123l100 -58v-225l-100 -60v-121l-214 -114l-107 58l-110 -58zM447 91h43v228h228v40h-228v192h199q17 0 23 -6.5t6 -22.5v-42h42v54q0 30 -13 43.5t-45 13.5h-320v-40h65v-460z" />
    <glyph glyph-name="zero.tnum" 
d="M300 -12q-74 0 -127.5 28.5t-83.5 80.5t-44 117t-14 145t14 144.5t44 116t83.5 79.5t127.5 28t127.5 -28t83.5 -79.5t44 -116t14 -144.5t-14 -145t-44 -117t-83.5 -80.5t-127.5 -28.5zM300 148q89 0 89 211q0 208 -89 208t-89 -208q0 -211 89 -211z" />
    <glyph glyph-name="one.tnum" 
d="M79 0v150h152v298l1 55h-2q-9 -20 -28 -38l-43 -39l-101 108l193 181h151v-565h153v-150h-476z" />
    <glyph glyph-name="two.tnum" 
d="M56 0q-8 45 -8 77q0 62 23 115t57 87t74.5 65t74.5 52.5t57 46t23 48.5q0 35 -23 53t-54 18q-33 0 -61 -22t-45 -54l-130 87q35 68 98.5 111t153.5 43q98 0 171 -56.5t73 -162.5q0 -62 -30 -113t-73 -83.5t-86 -59t-75 -52t-34 -50.5h309v-150h-495z" />
    <glyph glyph-name="three.tnum" 
d="M39 82l84 135q66 -64 147 -64q47 0 74.5 20.5t27.5 50.5q0 79 -133 79h-50l-37 85l94 113l30.5 35t23.5 24l8 8v2q-23 -5 -68 -5h-171v150h451v-109l-145 -167q79 -17 126 -74t47 -133q0 -64 -28 -118t-90 -90t-147 -36q-151 0 -244 94z" />
    <glyph glyph-name="four.tnum" 
d="M7 173v106l276 436h214v-397h85v-145h-85v-173h-173v173h-317zM185 318h139v160l6 80h-2q-15 -44 -35 -74l-108 -164v-2z" />
    <glyph glyph-name="five.tnum" 
d="M46 82l84 135q68 -64 145 -64q39 0 69.5 23.5t30.5 64.5t-32 65t-82 24q-48 0 -96 -24l-93 35l29 374h400v-150h-248l-4 -66l-4 -28h2q19 7 52 7q122 0 189 -66.5t67 -168.5q0 -111 -74 -183t-191 -72q-146 0 -244 94z" />
    <glyph glyph-name="six.tnum" 
d="M37 330q0 74 22.5 144t64 127t108 91.5t146.5 34.5q93 0 158 -31l-47 -150q-13 7 -44 14t-54 7q-115 0 -154 -118h2q13 9 43 17t55 8q106 0 170 -73.5t64 -171.5q0 -97 -66.5 -169t-177.5 -72q-118 0 -204 89t-86 253zM327 148q32 0 52 23.5t20 56.5q0 43 -27 74t-81 31
q-74 0 -74 -43q0 -60 35 -101t75 -41z" />
    <glyph glyph-name="seven.tnum" 
d="M81 0l253 501q11 22 21.5 38t15.5 21l5 6v2q-6 -3 -42 -3h-283v150h513v-122l-300 -593h-183z" />
    <glyph glyph-name="eight.tnum" 
d="M32 210q0 40 20 79.5t39.5 59.5t39.5 35q-65 58 -65 137q0 86 61 146t179 60q104 0 173 -55.5t69 -151.5q0 -79 -70 -164q84 -58 84 -150q0 -89 -70 -153.5t-195 -64.5q-124 0 -194.5 65.5t-70.5 156.5zM351 419q26 42 26 88q0 30 -20 48t-55 18q-32 0 -48.5 -15.5
t-16.5 -40.5q0 -32 28.5 -53t85.5 -45zM211 225q0 -35 25 -59t61 -24q40 0 63 19t23 54q0 7 -2 13t-7 12l-9.5 11t-14 11l-16 10t-19 10t-20 10t-22.5 10.5t-23 10.5q-39 -41 -39 -88z" />
    <glyph glyph-name="nine.tnum" 
d="M63 19l47 150q49 -21 98 -21q115 0 154 118h-2q-12 -10 -42 -17.5t-56 -7.5q-106 0 -170 73.5t-64 171.5q0 97 66.5 169t177.5 72q118 0 204 -89t86 -253q0 -74 -22.5 -144t-64 -127t-108 -91.5t-146.5 -34.5q-93 0 -158 31zM308 382q74 0 74 43q0 60 -35 101t-75 41
q-32 0 -52 -23.5t-20 -56.5q0 -43 27 -74t81 -31z" />
    <glyph glyph-name="hyphen.case" horiz-adv-x="432" 
d="M59 272v150h314v-150h-314z" />
    <glyph glyph-name="parenleft.case" horiz-adv-x="332" 
d="M164 -65q-124 196 -124 442q0 212 124 403h142q-113 -189 -113 -403q0 -227 113 -442h-142z" />
    <glyph glyph-name="parenright.case" horiz-adv-x="332" 
d="M26 -65q113 215 113 442q0 214 -113 403h142q124 -191 124 -403q0 -246 -124 -442h-142z" />
    <glyph glyph-name="bracketleft.case" horiz-adv-x="352" 
d="M70 -65v845h246v-120h-102v-605h102v-120h-246z" />
    <glyph glyph-name="bracketright.case" horiz-adv-x="352" 
d="M36 55h102v605h-102v120h246v-845h-246v120z" />
    <glyph glyph-name="braceleft.case" horiz-adv-x="396" 
d="M117 92v98q0 42 -21.5 67t-63.5 29v150q40 4 62.5 29t22.5 70v88q0 50 20.5 85t54 50.5t63 21t61.5 5.5l43 -2v-124q-11 2 -25 2q-73 0 -73 -54v-117q0 -46 -23.5 -80.5t-60.5 -46.5v-2q84 -30 84 -126v-127q0 -54 73 -54l25 2v-124q-18 -2 -43 -2q-32 0 -61.5 5.5
t-63 21t-54 50.5t-20.5 85z" />
    <glyph glyph-name="braceright.case" horiz-adv-x="396" 
d="M37 56q11 -2 25 -2q73 0 73 54v127q0 43 22 79t62 47v2q-34 11 -59 45t-25 82v117q0 54 -73 54l-25 -2v124q18 2 43 2q32 0 61.5 -5.5t63 -21t54 -50.5t20.5 -85v-88q0 -41 21.5 -68.5t63.5 -30.5v-150q-39 -1 -62 -28.5t-23 -67.5v-98q0 -50 -20.5 -85t-54 -50.5
t-63 -21t-61.5 -5.5l-43 2v124z" />
    <glyph glyph-name="at.case" horiz-adv-x="844" 
d="M45 355q0 159 112.5 267.5t280.5 108.5q156 0 227 -66.5t71 -173.5v-198h74v-119h-283q-106 0 -166.5 54t-60.5 128q0 72 59.5 124t167.5 52h49q0 30 -41.5 47t-93.5 17q-95 0 -161 -73.5t-66 -167.5q0 -101 67 -170t185 -69v-130q-192 0 -306.5 105t-114.5 264zM471 360
q0 -29 17 -48t49 -19h39v134h-37q-33 0 -50.5 -19t-17.5 -48z" />
    <glyph glyph-name="guillemotleft.case" horiz-adv-x="653" 
d="M456 137l-164 205l164 206h158l-164 -206l164 -205h-158zM196 137l-164 205l164 206h158l-164 -206l164 -205h-158z" />
    <glyph glyph-name="guillemotright.case" horiz-adv-x="653" 
d="M299 137l164 205l-164 206h158l164 -206l-164 -205h-158zM39 137l164 205l-164 206h158l164 -206l-164 -205h-158z" />
    <glyph glyph-name="guilsinglleft.case" horiz-adv-x="393" 
d="M196 137l-164 205l164 206h158l-164 -206l164 -205h-158z" />
    <glyph glyph-name="guilsinglright.case" horiz-adv-x="393" 
d="M39 137l164 205l-164 206h158l164 -206l-164 -205h-158z" />
    <glyph glyph-name="endash.case" horiz-adv-x="714" 
d="M59 282v130h596v-130h-596z" />
    <glyph glyph-name="emdash.case" horiz-adv-x="914" 
d="M59 282v130h796v-130h-796z" />
    <glyph glyph-name="periodcentered.case" horiz-adv-x="276" 
d="M59 263v164h158v-164h-158z" />
    <glyph glyph-name="questiondown.case" horiz-adv-x="510" 
d="M374 494v-50q0 -37 -16 -68.5t-39 -52t-46.5 -39t-39.5 -39.5t-16 -44q0 -25 21 -42t50 -17q46 0 95 43l96 -117q-83 -83 -209 -83q-92 0 -162.5 52.5t-70.5 143.5q0 45 17.5 82.5t42.5 61t50.5 44t43 43t17.5 46.5v36h166zM370 715v-150h-158v150h158z" />
    <glyph glyph-name="exclamdown.case" horiz-adv-x="308" 
d="M228 494l16 -494h-180l16 494h148zM233 715v-150h-158v150h158z" />
    <glyph glyph-name="bullet.case" horiz-adv-x="520" 
d="M260 170q-77 0 -131.5 54.5t-54.5 131.5t54.5 131.5t131.5 54.5t131.5 -54.5t54.5 -131.5t-54.5 -131.5t-131.5 -54.5z" />
    <glyph glyph-name="zero.p_osf" horiz-adv-x="585" 
d="M37 278q0 56 14.5 106t44 92t80.5 66.5t117 24.5q87 0 146.5 -43.5t84 -107t24.5 -140.5q0 -57 -14.5 -107.5t-44 -91.5t-80 -65t-115.5 -24q-66 0 -117 24.5t-81 66.5t-44.5 92t-14.5 107zM211 278q0 -146 82 -146t82 144q0 147 -82 147t-82 -145z" />
    <glyph glyph-name="one.p_osf" horiz-adv-x="522" 
d="M56 0v145h143v162l1 74h-2q-15 -18 -38 -32l-55 -31l-79 118l193 119h147v-410h134v-145h-444z" />
    <glyph glyph-name="two.p_osf" horiz-adv-x="557" 
d="M48 0v115q269 161 269 247q0 29 -20 43t-46 14q-66 0 -134 -70l-88 111q41 47 107.5 77t138.5 30q86 0 151.5 -46t65.5 -135q0 -140 -197 -244v-2q23 5 68 5h155v-145h-470z" />
    <glyph glyph-name="three.p_osf" horiz-adv-x="548" 
d="M18 -41l75 121q70 -64 147 -64q48 0 75.5 20t27.5 52q0 43 -39.5 64t-88.5 21h-59l-37 79l90 111q12 14 24.5 26.5t19.5 17.5l7 5v1q-23 -4 -68 -4h-138v146h431v-98l-147 -166q78 -14 128.5 -66.5t50.5 -123.5q0 -96 -70.5 -162.5t-198.5 -66.5q-143 0 -230 87z" />
    <glyph glyph-name="four.p_osf" horiz-adv-x="612" 
d="M17 23v106l257 426h223v-387h85v-145h-85v-139h-173v139h-307zM195 168h129v156l6 80h-2q-16 -43 -35 -74z" />
    <glyph glyph-name="five.p_osf" horiz-adv-x="551" 
d="M26 -42l73 122q68 -64 146 -64q41 0 74 22t33 62q0 43 -32 68t-80 25q-26 0 -51 -5.5t-37 -11.5l-13 -5l-88 33l29 351h385v-146h-238l-4 -64l-4 -27h2q25 7 52 7q120 0 186.5 -62.5t66.5 -153.5q0 -107 -74.5 -172t-192.5 -65q-140 0 -233 86z" />
    <glyph glyph-name="six.p_osf" 
d="M41 305q0 71 21.5 137t61 120.5t104 87.5t143.5 33q91 0 158 -29l-47 -135q-49 20 -98 20q-55 0 -93.5 -34t-56.5 -83h2q13 8 43.5 15.5t55.5 7.5q105 0 167 -68t62 -160q0 -91 -65.5 -160t-173.5 -69q-56 0 -105.5 19t-90 56t-64.5 99.5t-24 142.5zM217 272
q0 -58 31.5 -99t76.5 -41q30 0 48.5 23t18.5 59q0 40 -26 69t-77 29q-72 0 -72 -40z" />
    <glyph glyph-name="seven.p_osf" horiz-adv-x="536" 
d="M57 -116l238 466q11 21 20.5 36t13.5 20l4 5v2q-5 -3 -41 -3h-269v145h502v-115l-287 -556h-181z" />
    <glyph glyph-name="eight.p_osf" horiz-adv-x="599" 
d="M39 197q0 88 95 164q-63 53 -63 127q0 80 59.5 137t172.5 57q100 0 168 -52.5t68 -142.5q0 -71 -61 -156q79 -54 79 -138q0 -83 -69 -144t-191 -61q-120 0 -189 61.5t-69 147.5zM350 392q24 41 24 83q0 29 -20 46.5t-53 17.5q-32 0 -48.5 -15.5t-16.5 -38.5
q0 -30 28.5 -50t85.5 -43zM210 211q0 -33 25.5 -56.5t61.5 -23.5q40 0 63 18.5t23 51.5q0 6 -2 12t-7 12t-9.5 10.5t-13.5 10t-16 9l-19 9.5l-19.5 9.5t-22 9.5t-22.5 10q-42 -40 -42 -82z" />
    <glyph glyph-name="nine.p_osf" horiz-adv-x="583" 
d="M110 36q47 -20 98 -20q55 0 93.5 34t56.5 83h-2q-13 -8 -43.5 -15.5t-55.5 -7.5q-105 0 -167 68t-62 160q0 91 65.5 160t173.5 69q56 0 105.5 -19t90 -56t64.5 -99.5t24 -142.5q0 -71 -21.5 -137t-61 -120.5t-104 -87.5t-143.5 -33q-90 0 -158 29zM303 243q72 0 72 40
q0 58 -31.5 99t-76.5 41q-30 0 -48.5 -23t-18.5 -59q0 -40 26 -69t77 -29z" />
    <glyph glyph-name="zero.t_osf" 
d="M44 278q0 56 14.5 106t44 92t80.5 66.5t117 24.5q87 0 146.5 -43.5t84 -107t24.5 -140.5q0 -57 -14.5 -107.5t-44 -91.5t-80 -65t-115.5 -24q-66 0 -117 24.5t-81 66.5t-44.5 92t-14.5 107zM218 278q0 -146 82 -146t82 144q0 147 -82 147t-82 -145z" />
    <glyph glyph-name="one.t_osf" 
d="M96 0v145h143v162l1 74h-2q-15 -18 -38 -32l-55 -31l-79 118l193 119h147v-410h134v-145h-444z" />
    <glyph glyph-name="two.t_osf" 
d="M71 0v115q269 161 269 247q0 29 -20 43t-46 14q-66 0 -134 -70l-88 111q41 47 107.5 77t138.5 30q86 0 151.5 -46t65.5 -135q0 -140 -197 -244v-2q23 5 68 5h155v-145h-470z" />
    <glyph glyph-name="three.t_osf" 
d="M46 -39l75 121q68 -64 146 -64q48 0 75.5 20t27.5 52q0 42 -39.5 63t-88.5 21h-59l-36 79l89 111q12 14 24.5 26t19.5 17l7 5v1q-23 -4 -68 -4h-137v146h429v-98l-146 -165q77 -14 127.5 -66.5t50.5 -122.5q0 -95 -70.5 -161.5t-197.5 -66.5q-143 0 -229 86z" />
    <glyph glyph-name="four.t_osf" 
d="M13 23v106l257 426h223v-387h85v-145h-85v-139h-173v139h-307zM191 168h129v156l6 80h-2q-16 -43 -35 -74z" />
    <glyph glyph-name="five.t_osf" 
d="M51 -42l73 122q68 -64 146 -64q42 0 74.5 22t32.5 62q0 43 -32 68t-80 25q-26 0 -51 -5.5t-38 -11.5l-12 -5l-88 33l29 351h385v-146h-238l-4 -64l-4 -27h2q25 7 52 7q120 0 186.5 -62.5t66.5 -153.5q0 -107 -74.5 -172t-192.5 -65q-140 0 -233 86z" />
    <glyph glyph-name="six.t_osf" 
d="M42 305q0 71 21.5 137t61 120.5t104 87.5t143.5 33q91 0 158 -29l-47 -135q-49 20 -98 20q-55 0 -93.5 -34t-56.5 -83h2q13 8 43.5 15.5t55.5 7.5q105 0 167 -68t62 -160q0 -91 -65.5 -160t-173.5 -69q-56 0 -105.5 19t-90 56t-64.5 99.5t-24 142.5zM218 272
q0 -58 31.5 -99t76.5 -41q30 0 48.5 23t18.5 59q0 40 -26 69t-77 29q-72 0 -72 -40z" />
    <glyph glyph-name="seven.t_osf" 
d="M90 -116l238 466q11 21 20.5 36t13.5 20l4 5v2q-5 -3 -41 -3h-269v145h502v-115l-287 -556h-181z" />
    <glyph glyph-name="eight.t_osf" 
d="M39 197q0 88 95 164q-63 53 -63 127q0 80 59.5 137t172.5 57q100 0 168 -52.5t68 -142.5q0 -71 -61 -156q79 -54 79 -138q0 -83 -69 -144t-191 -61q-120 0 -189 61.5t-69 147.5zM350 392q24 41 24 83q0 29 -20 46.5t-53 17.5q-32 0 -48.5 -15.5t-16.5 -38.5
q0 -30 28.5 -50t85.5 -43zM210 211q0 -33 25.5 -56.5t61.5 -23.5q40 0 63 18.5t23 51.5q0 6 -2 12t-7 12t-9.5 10.5t-13.5 10t-16 9l-19 9.5l-19.5 9.5t-22 9.5t-22.5 10q-42 -40 -42 -82z" />
    <glyph glyph-name="nine.t_osf" 
d="M118 36q47 -20 98 -20q55 0 93.5 34t56.5 83h-2q-13 -8 -43.5 -15.5t-55.5 -7.5q-105 0 -167 68t-62 160q0 91 65.5 160t173.5 69q56 0 105.5 -19t90 -56t64.5 -99.5t24 -142.5q0 -71 -21.5 -137t-61 -120.5t-104 -87.5t-143.5 -33q-90 0 -158 29zM311 243q72 0 72 40
q0 58 -31.5 99t-76.5 41q-30 0 -48.5 -23t-18.5 -59q0 -40 26 -69t77 -29z" />
    <glyph glyph-name="dollar.osf" horiz-adv-x="542" 
d="M34 83l78 129q72 -72 146 -72q67 0 67 34q0 14 -28.5 28t-69 30t-81 37.5t-69 60.5t-28.5 90q0 66 47.5 111t125.5 60v93h109v-90q96 -12 161 -64l-61 -138q-62 53 -133 53q-69 0 -69 -36q0 -13 28.5 -25t69 -26.5t81 -35.5t69 -59.5t28.5 -90.5q0 -65 -46.5 -114
t-127.5 -64v-94h-109v91q-112 16 -188 92z" />
    <glyph glyph-name="cent.osf" horiz-adv-x="556" 
d="M235 -30v84q-93 22 -145 90.5t-52 155.5t52 155t145 91v83h114v-76q94 -11 167 -78l-78 -124q-45 52 -108 52q-58 0 -89 -30.5t-31 -70.5q0 -43 30.5 -74t89.5 -31q56 0 108 52l78 -124q-62 -62 -167 -78v-77h-114z" />
    <glyph glyph-name="sterling.osf" horiz-adv-x="619" 
d="M51 0v145h55v86h-43v108h43v42q0 95 73.5 155.5t180.5 60.5q114 0 196 -60l-74 -127q-52 35 -117 35q-33 0 -58.5 -18t-25.5 -46v-42h180v-108h-180v-86h289v-145h-519z" />
    <glyph glyph-name="yen.osf" horiz-adv-x="673" 
d="M86 118v96h161v7l-41 71h-120v96h65l-112 197h199l53 -118l43 -110h2q21 61 43 110l53 118h199l-113 -197h74v-96h-129l-41 -71v-7h170v-96h-170v-118h-175v118h-161z" />
    <glyph glyph-name="florin.osf" horiz-adv-x="602" 
d="M50 27q54 -7 70 -7q87 0 93 64l16 182h-64v135h75l9 90q5 48 24.5 84.5t45.5 56.5t61 32t62.5 15.5t57.5 3.5l88 -8v-146q-60 7 -76 7q-88 0 -94 -64l-7 -71h96v-135h-108l-17 -201q-4 -48 -24 -84.5t-46 -56.5t-61 -32t-62.5 -15.5t-56.5 -3.5l-82 8v146z" />
    <glyph glyph-name="Euro.osf" horiz-adv-x="591" 
d="M42 184v86h64q-1 8 -1 45h-63v86h79q31 87 110.5 141.5t199.5 54.5q59 0 103 -12l-37 -135q-28 9 -70 9q-80 0 -123 -58h184l-19 -86h-190q-3 -20 2 -45h182l-16 -86h-132q43 -55 119 -55q48 0 87 14l25 -137q-52 -18 -115 -18q-117 0 -196 54.5t-112 141.5h-81z" />
    <glyph glyph-name="zero.numerator" horiz-adv-x="400" 
d="M200 264q-170 0 -170 231q0 230 170 230t170 -230q0 -231 -170 -231zM200 379q43 0 43 116q0 114 -43 114t-43 -114q0 -116 43 -116z" />
    <glyph glyph-name="one.numerator" horiz-adv-x="400" 
d="M58 274v108h89v143l3 32h-2q-5 -10 -11 -15l-24 -22l-72 79l124 116h108v-333h90v-108h-305z" />
    <glyph glyph-name="two.numerator" horiz-adv-x="400" 
d="M37 274q-5 28 -5 49q0 50 20.5 88t50 59.5t58.5 38t49.5 33t20.5 34.5q0 16 -13 25t-32 9q-35 0 -71 -45l-83 71q24 40 68.5 64.5t94.5 24.5q64 0 113.5 -36.5t49.5 -106.5q0 -47 -27.5 -83.5t-61 -53t-63.5 -33.5t-33 -30h191v-108h-327z" />
    <glyph glyph-name="three.numerator" horiz-adv-x="400" 
d="M186 264q-102 0 -160 68l61 90q35 -43 91 -43q25 0 39.5 12t14.5 30t-17.5 27t-44.5 9h-37l-24 57l62 69l24 23v2q-21 -2 -34 -2h-110v109h294v-79l-83 -91q97 -24 97 -126q0 -62 -46 -108.5t-127 -46.5z" />
    <glyph glyph-name="four.numerator" horiz-adv-x="400" 
d="M206 274v87h-197v84l171 270h150v-247h53v-107h-53v-87h-124zM128 468h78v90l4 50h-2q-9 -27 -21 -46l-59 -92v-2z" />
    <glyph glyph-name="five.numerator" horiz-adv-x="400" 
d="M193 264q-98 0 -163 65l63 93q15 -18 40 -30.5t50 -12.5q22 0 39.5 12.5t17.5 33.5q0 22 -17.5 34.5t-43.5 12.5q-38 0 -65 -13l-65 24l20 232h266v-109h-164l-2 -23l-3 -16l2 -1q16 4 43 4q69 0 112.5 -42.5t43.5 -103.5q0 -64 -46.5 -112t-127.5 -48z" />
    <glyph glyph-name="six.numerator" horiz-adv-x="400" 
d="M215 264q-75 0 -129 54t-54 155q0 99 57.5 175.5t155.5 76.5q61 0 106 -24l-32 -108q-30 16 -66 16q-58 0 -76 -52h2q18 6 37 6q74 0 115.5 -42t41.5 -104t-43 -107.5t-115 -45.5zM215 379q15 0 24 11.5t9 27.5q0 23 -13.5 40.5t-40.5 17.5q-34 0 -34 -19
q0 -35 16.5 -56.5t38.5 -21.5z" />
    <glyph glyph-name="seven.numerator" horiz-adv-x="400" 
d="M39 274l176 308l16 24v2q-17 -2 -30 -2h-161v109h334v-85l-198 -356h-137z" />
    <glyph glyph-name="eight.numerator" horiz-adv-x="400" 
d="M201 264q-71 0 -123 36.5t-52 102.5q0 54 64 106q-43 36 -43 88q0 61 45.5 94.5t109.5 33.5q63 0 111 -34.5t48 -94.5q0 -46 -49 -100q59 -38 59 -99q0 -62 -50.5 -97.5t-119.5 -35.5zM228 535q17 27 17 53q0 14 -13.5 22.5t-29.5 8.5q-35 0 -35 -28q0 -30 61 -56z
M200 370q18 0 31.5 9t13.5 25q0 12 -12 23.5t-24.5 18t-38.5 18.5q-23 -25 -23 -53q0 -19 15.5 -30t37.5 -11z" />
    <glyph glyph-name="nine.numerator" horiz-adv-x="400" 
d="M49 288l32 108q43 -16 66 -16q58 0 76 52h-2q-18 -6 -37 -6q-73 0 -115 42.5t-42 104.5q0 61 43 106.5t115 45.5q75 0 129 -54t54 -155q0 -99 -57.5 -175.5t-155.5 -76.5q-62 0 -106 24zM206 513q34 0 34 19q0 35 -16.5 56.5t-38.5 21.5q-15 0 -24 -11t-9 -27
q0 -23 13.5 -41t40.5 -18z" />
    <glyph glyph-name="zero.denominator" horiz-adv-x="400" 
d="M200 -10q-170 0 -170 231q0 230 170 230t170 -230q0 -231 -170 -231zM200 105q43 0 43 116q0 114 -43 114t-43 -114q0 -116 43 -116z" />
    <glyph glyph-name="one.denominator" horiz-adv-x="400" 
d="M58 0v108h89v143l3 32h-2q-5 -10 -11 -15l-24 -22l-72 79l124 116h108v-333h90v-108h-305z" />
    <glyph glyph-name="two.denominator" horiz-adv-x="400" 
d="M37 0q-5 28 -5 49q0 50 20.5 88t50 59.5t58.5 38t49.5 33t20.5 34.5q0 16 -13 25t-32 9q-35 0 -71 -45l-83 71q24 40 68.5 64.5t94.5 24.5q64 0 113.5 -36.5t49.5 -106.5q0 -47 -27.5 -83.5t-61 -53t-63.5 -33.5t-33 -30h191v-108h-327z" />
    <glyph glyph-name="three.denominator" horiz-adv-x="400" 
d="M187 -10q-102 0 -160 68l61 90q35 -43 91 -43q25 0 39.5 12t14.5 30t-17.5 27t-44.5 9h-37l-24 57l62 69l24 23v2q-21 -2 -34 -2h-110v109h294v-79l-83 -91q97 -24 97 -126q0 -62 -46 -108.5t-127 -46.5z" />
    <glyph glyph-name="four.denominator" horiz-adv-x="400" 
d="M206 0v87h-197v84l171 270h150v-247h53v-107h-53v-87h-124zM128 194h78v90l4 50h-2q-9 -27 -21 -46l-59 -92v-2z" />
    <glyph glyph-name="five.denominator" horiz-adv-x="400" 
d="M193 -10q-98 0 -163 65l63 93q15 -18 40 -30.5t50 -12.5q22 0 39.5 12.5t17.5 33.5q0 22 -17.5 34.5t-43.5 12.5q-38 0 -65 -13l-65 24l20 232h266v-109h-164l-2 -23l-3 -16l2 -1q16 4 43 4q69 0 112.5 -42.5t43.5 -103.5q0 -64 -46.5 -112t-127.5 -48z" />
    <glyph glyph-name="six.denominator" horiz-adv-x="400" 
d="M214 -10q-75 0 -129 54t-54 155q0 99 57.5 175.5t155.5 76.5q61 0 106 -24l-32 -108q-30 16 -66 16q-58 0 -76 -52h2q18 6 37 6q74 0 115.5 -42t41.5 -104t-43 -107.5t-115 -45.5zM214 105q15 0 24 11.5t9 27.5q0 23 -13.5 40.5t-40.5 17.5q-34 0 -34 -19
q0 -35 16.5 -56.5t38.5 -21.5z" />
    <glyph glyph-name="seven.denominator" horiz-adv-x="400" 
d="M39 0l176 308l16 24v2q-17 -2 -30 -2h-161v109h334v-85l-198 -356h-137z" />
    <glyph glyph-name="eight.denominator" horiz-adv-x="400" 
d="M201 -10q-71 0 -123 36.5t-52 102.5q0 54 64 106q-43 36 -43 88q0 61 45.5 94.5t109.5 33.5q63 0 111 -34.5t48 -94.5q0 -46 -49 -100q59 -38 59 -99q0 -62 -50.5 -97.5t-119.5 -35.5zM228 261q17 27 17 53q0 14 -13.5 22.5t-29.5 8.5q-35 0 -35 -28q0 -30 61 -56z
M200 96q18 0 31.5 9t13.5 25q0 12 -12 23.5t-24.5 18t-38.5 18.5q-23 -25 -23 -53q0 -19 15.5 -30t37.5 -11z" />
    <glyph glyph-name="nine.denominator" horiz-adv-x="400" 
d="M49 14l32 108q43 -16 66 -16q58 0 76 52h-2q-18 -6 -37 -6q-73 0 -115 42.5t-42 104.5q0 61 43 106.5t115 45.5q75 0 129 -54t54 -155q0 -99 -57.5 -175.5t-155.5 -76.5q-62 0 -106 24zM206 239q34 0 34 19q0 35 -16.5 56.5t-38.5 21.5q-15 0 -24 -11t-9 -27
q0 -23 13.5 -41t40.5 -18z" />
    <glyph glyph-name="uni0433.BUL" horiz-adv-x="468" 
d="M28 138q0 45 25 80t60 54.5t70.5 34.5t60.5 29.5t25 29.5q0 21 -40 21q-74 0 -133 -42l-59 123q86 59 201 59q86 0 139 -39t53 -111q0 -47 -25 -83t-60 -56.5t-70.5 -35.5t-60.5 -27.5t-25 -25.5q0 -21 45 -21q35 0 74 15t63 37l74 -116q-88 -76 -216 -76
q-96 0 -148.5 42t-52.5 108z" />
    <glyph glyph-name="uni0434.BUL" horiz-adv-x="625" 
d="M130 -33q68 -33 145 -33q119 0 119 99v17l1 19h-2q-45 -54 -129 -54q-110 0 -171 76t-61 183q0 106 60 179.5t171 73.5q90 0 140 -50h3q-1 6 -1 12v26h162v-468q0 -68 -25 -119t-68 -80.5t-92.5 -43.5t-105.5 -14q-107 0 -195 46zM206 280q0 -52 25 -86.5t74 -34.5
q40 0 66.5 25.5t26.5 87.5q0 111 -100 111q-44 0 -68 -28.5t-24 -74.5z" />
    <glyph glyph-name="uni0436.BUL" horiz-adv-x="836" 
d="M7 0l145 266v2l-134 247h178l95 -183h46v383h161v-383h47l95 183h178l-134 -247v-2l145 -266h-187l-92 187h-52v-187h-161v187h-51l-92 -187h-187z" />
    <glyph glyph-name="uni0438.BUL" horiz-adv-x="621" 
d="M53 181v334h173v-302q0 -68 55 -68q53 0 81 40.5t28 101.5v228h173v-515h-166v45l2 32h-2q-21 -41 -65 -65t-96 -24q-84 0 -133.5 45.5t-49.5 147.5z" />
    <glyph glyph-name="uni0439.BUL" horiz-adv-x="621" 
d="M53 181v334h173v-302q0 -68 55 -68q53 0 81 40.5t28 101.5v228h173v-515h-166v45l2 32h-2q-21 -41 -65 -65t-96 -24q-84 0 -133.5 45.5t-49.5 147.5zM307 551q-80 0 -135 41t-55 112v11h128v-12q0 -29 18.5 -44t43.5 -15q24 0 43 15t19 44v12h127v-11q0 -71 -55 -112
t-134 -41z" />
    <glyph glyph-name="uni043A.BUL" horiz-adv-x="591" 
d="M58 0v715h173v-370h49l102 170h188l-151 -234v-2l172 -279h-197l-109 200h-54v-200h-173z" />
    <glyph glyph-name="uni043B.BUL" horiz-adv-x="567" 
d="M-2 0l178 515h211l175 -515h-183l-79 274l-19 89h-2q-9 -56 -19 -89l-80 -274h-182z" />
    <glyph glyph-name="uni043F.BUL" horiz-adv-x="626" 
d="M58 0v515h166v-45l-2 -32h2q53 89 164 89q185 0 185 -193v-334h-173v302q0 68 -57 68q-55 0 -83.5 -39t-28.5 -98v-233h-173z" />
    <glyph glyph-name="uni0442.BUL" horiz-adv-x="909" 
d="M58 0v515h166v-45l-2 -32h2q59 89 153 89q104 0 144 -87h2q22 36 66.5 61.5t98.5 25.5q76 0 121.5 -46t45.5 -147v-334h-173v305q0 65 -40 65q-52 0 -75.5 -43.5t-23.5 -108.5v-218h-173v305q0 65 -40 65q-54 0 -76.5 -44t-22.5 -108v-218h-173z" />
    <glyph glyph-name="uni0446.BUL" horiz-adv-x="670" 
d="M53 181v334h173v-302q0 -68 55 -68q53 0 81 40.5t28 101.5v228h173v-370h86v-265h-153v120h-99v45l2 32h-2q-21 -41 -65 -65t-96 -24q-84 0 -133.5 45.5t-49.5 147.5z" />
    <glyph glyph-name="uni0448.BUL" horiz-adv-x="908" 
d="M850 515v-515h-166v45l2 32h-2q-59 -89 -153 -89q-103 0 -144 87h-2q-22 -36 -66.5 -61.5t-98.5 -25.5q-76 0 -121.5 46t-45.5 147v334h173v-305q0 -65 40 -65q52 0 75.5 43.5t23.5 108.5v218h173v-305q0 -65 40 -65q54 0 76.5 44t22.5 108v218h173z" />
    <glyph glyph-name="uni0449.BUL" horiz-adv-x="948" 
d="M850 515v-370h76v-265h-153v120h-89v45l2 32h-2q-59 -89 -153 -89q-103 0 -144 87h-2q-22 -36 -66.5 -61.5t-98.5 -25.5q-76 0 -121.5 46t-45.5 147v334h173v-305q0 -65 40 -65q52 0 75.5 43.5t23.5 108.5v218h173v-305q0 -65 40 -65q54 0 76.5 44t22.5 108v218h173z" />
    <glyph glyph-name="uni044A.BUL" horiz-adv-x="604" 
d="M113 198v172h-94v145h267v-121q0 -21 -1 -35h2q50 26 112 26q81 0 134 -55t53 -140q0 -100 -65 -151t-170 -51q-238 0 -238 210zM285 189q0 -32 17 -53.5t49 -21.5q63 0 63 70q0 69 -67 69q-30 0 -46 -17.5t-16 -46.5z" />
    <glyph glyph-name="uni044C.BUL" horiz-adv-x="544" 
d="M53 198v317h173v-121q0 -21 -1 -35h2q50 26 112 26q81 0 134 -55t53 -140q0 -100 -65 -151t-170 -51q-238 0 -238 210zM225 189q0 -32 17 -53.5t49 -21.5q63 0 63 70q0 69 -67 69q-30 0 -46 -17.5t-16 -46.5z" />
    <glyph glyph-name="uni044E.BUL" horiz-adv-x="887" 
d="M58 0v715h173v-386h72q22 91 95.5 144.5t174.5 53.5q122 0 203.5 -75.5t81.5 -195.5q0 -119 -81 -193.5t-203 -74.5q-104 0 -178.5 55.5t-94.5 148.5h-70v-192h-173zM465 256q0 -56 31 -90t78 -34t78 34t31 90q0 57 -31 92t-78 35t-78 -35t-31 -92z" />
    <glyph glyph-name="uni0432.BUL" horiz-adv-x="621" 
d="M48 250v186q0 133 75.5 212t200.5 79q106 0 158 -49.5t52 -110.5q0 -84 -94 -144v-2q66 -11 109.5 -61t43.5 -126q0 -114 -78.5 -180t-197.5 -66q-62 0 -111 19t-78 47t-47.5 65t-25.5 69t-7 62zM221 427h2q17 20 52 39l25 14q63 29 63 74q0 20 -14.5 36.5t-46.5 16.5
q-31 0 -56 -23t-25 -78v-79zM218 229q0 -51 27 -76.5t70 -25.5q45 0 73.5 25.5t28.5 76.5q0 94 -102 94q-38 0 -67.5 -23t-29.5 -71z" />
    <glyph glyph-name="uni0437.BUL" horiz-adv-x="467" 
d="M50 -27q46 -37 111 -37q51 0 76 26t25 63q0 81 -91 81h-77v135h79q32 0 57 18.5t25 54.5q0 34 -23.5 52t-61.5 18q-26 0 -54.5 -10.5t-44.5 -26.5l-74 106q83 74 206 74q100 0 162 -51.5t62 -132.5q0 -111 -105 -159v-2q113 -50 113 -169q0 -94 -69.5 -158.5
t-188.5 -64.5q-50 0 -106.5 15t-88.5 38z" />
    <glyph glyph-name="uni0414.ALT" horiz-adv-x="749" 
d="M7 150h75l200 565h182l199 -565h79v-290h-155v140h-425v-140h-155v290zM265 150h217l-81 257q-6 20 -13 48.5t-10 47.5l-4 19h-2q-13 -70 -27 -115z" />
    <glyph glyph-name="uni041B.ALT" horiz-adv-x="678" 
d="M-5 0l253 715h182l252 -715h-187l-128 407q-6 20 -13 48.5t-10 47.5l-4 19h-2q-13 -70 -27 -115l-126 -407h-190z" />
    <glyph glyph-name="uni0434.ALT" horiz-adv-x="657" 
d="M12 137h68l137 378h221l135 -378h71v-257h-154v120h-324v-120h-154v257zM250 137h151l-51 157l-23 89h-2q-12 -56 -23 -89z" />
    <glyph glyph-name="uni043B.ALT" horiz-adv-x="567" 
d="M-2 0l178 515h211l175 -515h-183l-79 274l-19 89h-2q-9 -56 -19 -89l-80 -274h-182z" />
    <glyph glyph-name="uni0409.ALT" horiz-adv-x="950" 
d="M-4 0l250 715h333v-261h122q104 0 168.5 -64t64.5 -164t-64.5 -163t-168.5 -63h-297v565h-39l-190 -565h-179zM579 150h89q42 0 65 20.5t23 55.5t-23.5 56.5t-67.5 21.5h-86v-154z" />
    <glyph glyph-name="uni0459.ALT" horiz-adv-x="826" 
d="M-1 0l208 515h319v-177h80q104 0 154 -46t50 -126q0 -78 -50 -122t-154 -44h-253v390h-38l-149 -390h-167zM526 113h56q30 0 46.5 14.5t16.5 38.5q0 26 -17 42t-49 16h-53v-111z" />
    <glyph glyph-name="uni04C5.ALT" horiz-adv-x="796" 
d="M495 0l-128 407q-6 20 -13 48.5t-10 47.5l-4 19h-2q-13 -70 -27 -115l-126 -407h-190l253 715h182l199 -565h167v-91l-89 -199h-117l33 140h-128z" />
    <glyph glyph-name="uni04C6.ALT" horiz-adv-x="653" 
d="M379 0l-79 274l-19 89h-2q-9 -56 -19 -89l-80 -274h-182l178 515h211l125 -370h145v-86l-79 -179h-111l28 120h-116z" />
    </font>
</defs>
</svg>
