<?xml version="1.0" standalone="no"?>
<!DOCTYPE svg PUBLIC "-//W3C//DTD SVG 1.1//EN" "http://www.w3.org/Graphics/SVG/1.1/DTD/svg11.dtd" >
<svg xmlns="http://www.w3.org/2000/svg" xmlns:xlink="http://www.w3.org/1999/xlink" version="1.1">
<metadata>
Created by FontForge 20161003 at Wed Jun 26 08:11:57 2019
 By www-data
Copyright (c) 2010-2012 by Claus Eggers Srensen (es@forthehearts.net), with Reserved Font Name 'Playfair'.
</metadata>
<defs>
<font id="PlayfairDisplayBlack" horiz-adv-x="1030" >
  <font-face 
    font-family="PlayfairDisplayBlack"
    font-weight="900"
    font-stretch="normal"
    units-per-em="2048"
    panose-1="0 0 10 0 0 0 0 0 0 0"
    ascent="1638"
    descent="-410"
    x-height="1063"
    cap-height="1450"
    bbox="-557 -502 2666 2089"
    underline-thickness="41"
    underline-position="-245"
    unicode-range="U+000D-FB02"
  />
<missing-glyph horiz-adv-x="1151" 
d="M1028 0h-905v1581h905v-1581zM197 1520v-1459h757v1459h-757z" />
    <glyph glyph-name="fi" unicode="fi" horiz-adv-x="1376" 
d="M786 1602q142 0 218 -20t145 -62q38 -23 65 -66t27 -90q0 -174 -233 -174q-115 0 -174.5 44t-59.5 126q0 66 47 112t133 66q-46 23 -120 23q-163 0 -244 -148q-30 -54 -42.5 -130.5t-12.5 -221.5h186q336 0 504 24v-895q0 -84 30 -115.5t105 -31.5v-43q-240 8 -309 8
q-70 0 -310 -8v43q64 0 89.5 31.5t25.5 115.5v650q0 95 -30 137.5t-105 42.5h-186v-830q0 -83 38 -115t117 -32v-43q-268 8 -330 8q-77 0 -329 -8v43q75 0 105 31.5t30 115.5v830h-143v41h143q0 238 172 399q76 73 196.5 107.5t251.5 34.5z" />
    <glyph glyph-name="fl" unicode="fl" horiz-adv-x="1384" 
d="M1225 1606v-1416q0 -84 30 -115.5t105 -31.5v-43q-240 8 -309 8q-70 0 -310 -8v43q64 0 89.5 31.5t25.5 115.5v1231q0 77 -29 109q-27 31 -75 31q-57 0 -92.5 -17t-67.5 -57q-36 -46 -46.5 -121t-10.5 -246v-59h186v-41h-186v-830q0 -83 38 -115t117 -32v-43
q-268 8 -330 8q-77 0 -329 -8v43q75 0 105 31.5t30 115.5v830h-143v41h143q0 282 160 418q145 123 379 123q43 0 140 -5.5t154 -5.5q72 0 226 15z" />
    <glyph glyph-name="uni00660062.liga" unicode="fb" horiz-adv-x="1958" 
d="M1536 1092q159 0 257.5 -131.5t98.5 -382.5q0 -136 -25.5 -241.5t-68.5 -173.5t-105 -112t-130 -62t-148 -18q-135 0 -201 29q-69 26 -146 26q-63 0 -116.5 -16t-81.5 -43l-28 21q14 43 14 112v1321q0 77 -29 109q-27 31 -75 31q-57 0 -92.5 -17t-67.5 -57
q-36 -46 -46.5 -119.5t-10.5 -243.5v-63h186v-41h-186v-830q0 -83 38 -115t117 -32v-43q-268 8 -330 8q-77 0 -329 -8v43q75 0 105 31.5t30 115.5v830h-143v41h143q0 282 160 418q145 123 379 123q43 0 140 -5.5t154 -5.5q72 0 226 15v-668q93 154 311 154zM1321 12
q188 0 188 518q0 132 -10.5 223.5t-30 140.5t-43 70t-53.5 21q-59 0 -103 -42t-44 -105v-802q47 -24 96 -24z" />
    <glyph glyph-name="f_f" unicode="ff" horiz-adv-x="1427" 
d="M1532 1526q32 -26 54 -70t22 -100q0 -65 -48.5 -115.5t-121.5 -50.5q-85 0 -135 45t-50 125q0 61 36 110.5t106 71.5q-15 19 -56 19q-62 0 -96 -39q-39 -50 -39 -187v-274h219v-41h-219v-809q0 -95 43.5 -131.5t132.5 -36.5v-43q-300 8 -376 8q-63 0 -283 -8v43
q64 0 89.5 31.5t25.5 115.5v830h-281v-830q0 -84 25.5 -115.5t89.5 -31.5v-43q-240 8 -308 8q-79 0 -331 -8v43q75 0 105 31.5t30 115.5v830h-143v41h143q0 107 41 201t117 155q127 103 348 103q155 0 250 -83q25 33 59 62q51 44 133.5 73.5t171.5 29.5q147 0 246 -76z
M555 1061h281q0 231 60 337q-70 70 -175 70q-86 0 -126 -55.5t-40 -175.5v-176z" />
    <glyph glyph-name="uni006600660062.liga" unicode="ffb" horiz-adv-x="2669" 
d="M2247 1092q159 0 257.5 -131.5t98.5 -382.5q0 -136 -25.5 -241.5t-68.5 -173.5t-105 -112t-130 -62t-148 -18q-133 0 -199 28q-70 27 -149 27q-63 0 -116 -16t-81 -43l-29 21q15 43 15 112v1321q0 75 -29 109q-27 31 -76 31q-57 0 -92.5 -17t-66.5 -57
q-37 -47 -47.5 -124t-10.5 -255v-47h187v-41h-187v-830q0 -83 38.5 -115t117.5 -32v-43q-272 8 -330 8q-74 0 -330 -8v43q76 0 106 31.5t30 115.5v830h-322v-830q0 -84 25.5 -115.5t89.5 -31.5v-43q-240 8 -308 8q-79 0 -331 -8v43q75 0 105 31.5t30 115.5v830h-143v41h143
q0 106 41 199t117 157q132 123 389 123q172 0 297 -86q8 9 26 25q146 123 379 123q42 0 139.5 -5.5t155.5 -5.5q73 0 225 15v-668q95 154 312 154zM555 1061h322q0 232 105 362q-101 68 -232 68q-100 0 -147.5 -64.5t-47.5 -209.5v-156zM2032 12q188 0 188 518
q0 132 -10.5 223.5t-30 140.5t-43 70t-53.5 21q-59 0 -103.5 -42t-44.5 -105v-801q46 -25 97 -25z" />
    <glyph glyph-name="uni006600660068.liga" unicode="ffh" horiz-adv-x="2689" 
d="M2552 745v-555q0 -84 25.5 -115.5t88.5 -31.5v-43q-220 8 -286 8q-71 0 -291 -8v43q53 0 73.5 31t20.5 116v666q0 66 -24 97.5t-76 31.5q-59 0 -103.5 -42t-44.5 -105v-648q0 -84 21 -115.5t74 -31.5v-43q-208 8 -271 8q-71 0 -307 -8v43q64 0 89.5 31.5t25.5 115.5v1231
q0 75 -29 109q-27 31 -76 31q-57 0 -92.5 -17t-66.5 -57q-36 -45 -47 -117t-11 -229v-80h187v-41h-187v-830q0 -83 38.5 -115t117.5 -32v-43q-272 8 -330 8q-74 0 -330 -8v43q76 0 106 31.5t30 115.5v830h-322v-830q0 -84 25.5 -115.5t89.5 -31.5v-43q-240 8 -308 8
q-79 0 -331 -8v43q75 0 105 31.5t30 115.5v830h-143v41h143q0 106 41 199t117 157q132 123 389 123q172 0 297 -86q8 9 26 25q146 123 379 123q42 0 139.5 -5.5t155.5 -5.5q73 0 225 15v-668q93 154 326 154q165 0 231 -82q60 -72 60 -265zM555 1061h322q0 232 105 362
q-101 68 -232 68q-100 0 -147.5 -64.5t-47.5 -209.5v-156z" />
    <glyph glyph-name="f_f_i" unicode="ffi" horiz-adv-x="2087" 
d="M1935 1085v-895q0 -84 30 -115.5t106 -31.5v-43q-240 8 -310 8q-73 0 -309 -8v43q64 0 89.5 31.5t25.5 115.5v650q0 95 -30 137.5t-105 42.5h-187v-830q0 -83 38.5 -115t117.5 -32v-43q-272 8 -330 8q-74 0 -330 -8v43q76 0 106 31.5t30 115.5v830h-322v-830
q0 -84 25.5 -115.5t89.5 -31.5v-43q-240 8 -308 8q-79 0 -331 -8v43q75 0 105 31.5t30 115.5v830h-143v41h143q0 106 41 199t117 157q132 123 389 123q184 0 315 -99l21 19q161 142 477 142q117 0 193.5 -21.5t144.5 -62.5q38 -23 63 -64.5t25 -89.5q0 -174 -234 -174
q-114 0 -173.5 44t-59.5 126q0 66 46.5 112t133.5 66q-46 23 -121 23q-109 0 -190 -72q-70 -65 -89.5 -152.5t-19.5 -275.5h187q336 0 503 24zM555 1061h322q0 210 122 349q-104 81 -249 81q-100 0 -147.5 -64.5t-47.5 -209.5v-156z" />
    <glyph glyph-name="uni00660066006A.liga" unicode="ffj" horiz-adv-x="2058" 
d="M1245 1061h187q336 0 503 24v-921q0 -177 -33 -274.5t-112 -172.5q-52 -49 -141 -75.5t-252 -26.5q-130 0 -217 29q-59 19 -92 52.5t-33 78.5q0 59 56.5 104t156.5 45q93 0 153 -34.5t60 -98.5q0 -96 -138 -129q25 -4 62 -4q96 0 137 100q25 58 25 312v94v676
q0 95 -30 137.5t-105 42.5h-187v-830q0 -83 38.5 -115t117.5 -32v-43q-272 8 -330 8q-74 0 -330 -8v43q76 0 106 31.5t30 115.5v830h-322v-830q0 -84 25.5 -115.5t89.5 -31.5v-43q-240 8 -308 8q-79 0 -331 -8v43q75 0 105 31.5t30 115.5v830h-143v41h143q0 105 41.5 197
t116.5 159q138 123 389 123q183 0 316 -99l20 19q76 73 196.5 107.5t251.5 34.5q142 0 218 -20t145 -62q38 -23 65 -66t27 -90q0 -174 -234 -174q-114 0 -173.5 44t-59.5 126q0 66 46.5 112t133.5 66q-46 23 -121 23q-162 0 -244 -148q-30 -55 -42.5 -131.5t-12.5 -220.5z
M555 1061h322q0 201 123 348q-105 82 -250 82q-100 0 -147.5 -64.5t-47.5 -209.5v-156z" />
    <glyph glyph-name="uni00660066006B.liga" unicode="ffk" horiz-adv-x="2660" 
d="M2259 768l326 -618q2 -4 8 -15.5t8.5 -16t8.5 -14.5t9.5 -15.5t9.5 -13.5t11.5 -13t12 -10t13.5 -9v-43q-188 8 -247 8q-69 0 -289 -8v43q60 0 60 38q0 14 -9 32l-180 381q-22 42 -66 45v-349q0 -84 30 -115.5t106 -31.5v-43q-240 8 -310 8q-73 0 -309 -8v43
q64 0 89.5 31.5t25.5 115.5v1231q0 75 -29 109q-27 31 -76 31q-57 0 -92.5 -17t-66.5 -57q-37 -45 -47.5 -119.5t-10.5 -243.5v-63h187v-41h-187v-830q0 -83 38.5 -115t117.5 -32v-43q-272 8 -330 8q-74 0 -330 -8v43q76 0 106 31.5t30 115.5v830h-322v-830
q0 -84 25.5 -115.5t89.5 -31.5v-43q-240 8 -308 8q-79 0 -331 -8v43q75 0 105 31.5t30 115.5v830h-143v41h143q0 106 41 199t117 157q132 123 389 123q172 0 297 -86q8 9 26 25q146 123 379 123q42 0 139.5 -5.5t155.5 -5.5q73 0 225 15v-1028q60 2 88 30l158 148
q72 68 72 133q0 53 -46.5 90t-117.5 43v41q117 -6 246 -6q201 0 280 6v-41q-141 -39 -303 -201zM555 1061h322q0 232 105 362q-101 68 -232 68q-100 0 -147.5 -64.5t-47.5 -209.5v-156z" />
    <glyph glyph-name="f_f_l" unicode="ffl" horiz-adv-x="2095" 
d="M1935 1606v-1416q0 -84 30 -115.5t106 -31.5v-43q-240 8 -310 8q-73 0 -309 -8v43q64 0 89.5 31.5t25.5 115.5v1231q0 75 -29 109q-27 31 -76 31q-57 0 -92.5 -17t-66.5 -57q-36 -46 -47 -120.5t-11 -236.5v-69h187v-41h-187v-830q0 -83 38.5 -115t117.5 -32v-43
q-272 8 -330 8q-74 0 -330 -8v43q76 0 106 31.5t30 115.5v830h-322v-830q0 -84 25.5 -115.5t89.5 -31.5v-43q-240 8 -308 8q-79 0 -331 -8v43q75 0 105 31.5t30 115.5v830h-143v41h143q0 106 41 199t117 157q132 123 389 123q172 0 297 -86q8 9 26 25q146 123 379 123
q42 0 139.5 -5.5t155.5 -5.5q73 0 225 15zM555 1061h322q0 232 105 362q-101 68 -232 68q-100 0 -147.5 -64.5t-47.5 -209.5v-156z" />
    <glyph glyph-name="uni00660068.liga" unicode="fh" horiz-adv-x="1978" 
d="M1225 1606v-668q92 154 325 154q164 0 232 -82q59 -71 59 -265v-555q0 -84 25.5 -115.5t89.5 -31.5v-43q-220 8 -287 8t-291 -8v43q53 0 74 31.5t21 115.5v666q0 66 -24 97.5t-77 31.5q-59 0 -103 -42t-44 -105v-648q0 -85 20.5 -116t73.5 -31v-43q-204 8 -270 8
q-68 0 -308 -8v43q64 0 89.5 31.5t25.5 115.5v1231q0 77 -29 109q-27 31 -75 31q-57 0 -92.5 -17t-67.5 -57q-36 -47 -46.5 -123.5t-10.5 -255.5v-47h186v-41h-186v-830q0 -83 38 -115t117 -32v-43q-268 8 -330 8q-77 0 -329 -8v43q75 0 105 31.5t30 115.5v830h-143v41h143
q0 282 160 418q145 123 379 123q43 0 140 -5.5t154 -5.5q72 0 226 15z" />
    <glyph glyph-name="uni006600EF.liga" unicode="f&#xef;" horiz-adv-x="1376" 
d="M1225 1085v-895q0 -84 30 -115.5t105 -31.5v-43q-240 8 -309 8q-70 0 -310 -8v43q64 0 89.5 31.5t25.5 115.5v650q0 95 -30 137.5t-105 42.5h-186v-830q0 -83 38 -115t117 -32v-43q-268 8 -330 8q-77 0 -329 -8v43q75 0 105 31.5t30 115.5v830h-143v41h143q0 279 129 403
q142 138 371 138q97 0 164.5 -18.5t99 -50.5t43.5 -63t12 -67q0 -73 -53.5 -125.5t-124.5 -52.5q-74 0 -126.5 52t-52.5 126q0 51 28.5 94.5t74.5 66.5q-10 1 -33 1q-102 0 -132.5 -59t-30.5 -232v-213h186q336 0 504 24zM1294 1581q70 0 124 -53.5t54 -124.5
q0 -73 -53.5 -125.5t-124.5 -52.5q-74 0 -126 52.5t-52 125.5q0 71 52.5 124.5t125.5 53.5z" />
    <glyph glyph-name="uni006600EC.liga" unicode="f&#xec;" horiz-adv-x="1376" 
d="M1225 1085v-895q0 -84 30 -115.5t105 -31.5v-43q-240 8 -309 8q-70 0 -310 -8v43q64 0 89.5 31.5t25.5 115.5v650q0 95 -30 137.5t-105 42.5h-186v-830q0 -83 38 -115t117 -32v-43q-268 8 -330 8q-77 0 -329 -8v43q75 0 105 31.5t30 115.5v830h-143v41h143q0 241 129 362
q110 105 315 105q78 0 150 -25q-26 38 -26 83q0 58 42 93q37 34 88 34q70 0 113 -50q31 -35 48.5 -87.5t47.5 -143.5t78 -187l-23 -18q-42 35 -85.5 67.5t-68 48.5t-64.5 41.5t-50 31.5q-93 57 -168 57q-79 0 -119 -64q-38 -62 -38 -176v-172h186q336 0 504 24z" />
    <glyph glyph-name="uni0066006A.liga" unicode="fj" horiz-adv-x="1348" 
d="M786 1602q142 0 218 -20t145 -62q38 -23 65 -66t27 -90q0 -174 -233 -174q-115 0 -174.5 44t-59.5 126q0 66 47 112t133 66q-46 23 -120 23q-163 0 -244 -148q-30 -54 -42.5 -130.5t-12.5 -221.5h186q336 0 504 24v-921q0 -177 -33 -274.5t-113 -172.5
q-52 -49 -140.5 -75.5t-252.5 -26.5q-130 0 -217 29q-59 19 -92 52.5t-33 78.5q0 58 57 103.5t156 45.5q93 0 153 -34.5t60 -98.5q0 -96 -137 -129q24 -4 61 -4q96 0 137 100q25 58 25 312v94v676q0 95 -30 137.5t-105 42.5h-186v-830q0 -83 38 -115t117 -32v-43
q-268 8 -330 8q-77 0 -329 -8v43q75 0 105 31.5t30 115.5v830h-143v41h143q0 238 172 399q76 73 196.5 107.5t251.5 34.5z" />
    <glyph glyph-name="uni0066006B.liga" unicode="fk" horiz-adv-x="1950" 
d="M1548 768l326 -618q1 -2 9 -17t10.5 -19t9.5 -16.5t11.5 -17.5t11.5 -13.5t14.5 -14t15.5 -9.5v-43q-188 8 -248 8q-65 0 -289 -8v43q60 0 60 38q0 14 -9 32l-180 381q-21 42 -65 45v-349q0 -84 30 -115.5t105 -31.5v-43q-240 8 -309 8q-70 0 -310 -8v43q64 0 89.5 31.5
t25.5 115.5v1231q0 77 -29 109q-27 31 -75 31q-57 0 -92.5 -17t-67.5 -57q-36 -46 -46.5 -121.5t-10.5 -249.5v-55h186v-41h-186v-830q0 -83 38 -115t117 -32v-43q-268 8 -330 8q-77 0 -329 -8v43q75 0 105 31.5t30 115.5v830h-143v41h143q0 282 160 418q145 123 379 123
q43 0 140 -5.5t154 -5.5q72 0 226 15v-1028q59 2 88 30l157 148q72 66 72 133q0 53 -46 90t-118 43v41q117 -6 246 -6q200 0 281 6v-41q-142 -39 -303 -201z" />
    <glyph glyph-name=".notdef" horiz-adv-x="1151" 
d="M1028 0h-905v1581h905v-1581zM197 1520v-1459h757v1459h-757z" />
    <glyph glyph-name=".null" horiz-adv-x="0" 
 />
    <glyph glyph-name="nonmarkingreturn" horiz-adv-x="682" 
 />
    <glyph glyph-name="CR" unicode="&#xd;" horiz-adv-x="0" 
 />
    <glyph glyph-name="space" unicode=" " horiz-adv-x="457" 
 />
    <glyph glyph-name="exclam" unicode="!" horiz-adv-x="627" 
d="M313 1602q88 0 152.5 -72t64.5 -187q0 -82 -28.5 -199t-63 -221t-67 -249t-39.5 -273h-37q-7 128 -40 273t-67.5 249t-63 220.5t-28.5 199.5q0 117 60.5 188t156.5 71zM314 324q98 0 150.5 -45t52.5 -132q0 -86 -52.5 -131t-150.5 -45q-99 0 -151 44.5t-52 131.5t52 132
t151 45z" />
    <glyph glyph-name="quotedbl" unicode="&#x22;" horiz-adv-x="854" 
d="M227 1495q73 0 119.5 -45t46.5 -119q0 -51 -21 -99.5t-61.5 -123.5t-68.5 -150h-29q-27 69 -68.5 145t-62.5 125t-21 101q0 75 47 120.5t119 45.5zM626 1495q73 0 119.5 -45t46.5 -119q0 -51 -21 -99.5t-61.5 -123.5t-68.5 -150h-29q-27 69 -68.5 145t-62.5 125t-21 101
q0 75 47 120.5t119 45.5z" />
    <glyph glyph-name="numbersign" unicode="#" horiz-adv-x="1247" 
d="M869 889l-66 -342h301l-8 -41h-301l-58 -299h-41l58 299h-342l-58 -299h-41l58 299h-301l8 41h301l66 342h-300l7 41h301l59 303h41l-59 -303h342l59 303h41l-59 -303h301l-7 -41h-302zM828 889h-342l-66 -342h342z" />
    <glyph glyph-name="dollar" unicode="$" horiz-adv-x="1245" 
d="M1178 377q0 -110 -54 -194t-143 -132t-207 -68v-253h-41v247q-54 -6 -112 -6q-24 0 -64 2v-243h-41v247q-41 5 -81 15t-60.5 17.5t-51 20.5t-36.5 15q-76 31 -99 31q-18 0 -28 -21t-17 -69h-47q8 139 8 594h48q17 -200 59.5 -317t114.5 -171t190 -67v553l-45 32
q-69 46 -114 78.5t-97.5 81t-82.5 93t-50.5 104t-20.5 125.5q0 166 115 263t295 118v247h41v-243q38 2 57 2q63 0 119 -8v249h41v-256q85 -18 172 -67q50 -29 70 -29q19 0 29 21.5t16 68.5h47q-10 -147 -10 -500h-47q-29 200 -91 312t-186 146v-529l72 -47q80 -52 132 -93.5
t102 -98t74 -123.5t24 -148zM657 1430q-60 0 -100 -10v-375q75 -61 176 -130v509q-36 6 -76 6zM416 1268q0 -34 3 -53t26.5 -55.5t70.5 -79.5v328q-100 -39 -100 -140zM618 20q67 0 115 9v390q-71 55 -176 130v-527q38 -2 61 -2zM774 385v-347q127 38 127 152q0 34 -5 53.5
t-34 56t-88 85.5z" />
    <glyph glyph-name="percent" unicode="%" horiz-adv-x="1473" 
d="M1362 1661l-1198 -1774l-39 27l1198 1774zM418 1559q158 0 254 -89t96 -245q0 -153 -99 -248.5t-251 -95.5q-158 0 -255 89t-97 244q0 152 100 248.5t252 96.5zM414 1522q-117 0 -117 -305q0 -147 33 -223t92 -76q115 0 115 303q0 148 -32 224.5t-91 76.5zM1057 649
q158 0 254 -89t96 -245q0 -153 -99 -248.5t-251 -95.5q-158 0 -255 89t-97 245q0 152 100 248t252 96zM1053 612q-117 0 -117 -305q0 -146 33 -222.5t92 -76.5q115 0 115 303q0 148 -32 224.5t-91 76.5z" />
    <glyph glyph-name="ampersand" unicode="&#x26;" horiz-adv-x="1921" 
d="M1896 1182q0 -154 -98.5 -245t-293.5 -140q63 -43 100.5 -127t37.5 -189q0 -153 -98 -269.5t-270.5 -178.5t-392.5 -62q-386 0 -599.5 136t-213.5 374q0 89 35 164.5t84 123t114 85.5t113.5 55.5t93.5 28.5q-41 15 -74 30t-67 38t-56.5 48.5t-36.5 61t-14 76.5
q0 73 42.5 128.5t111.5 85t143.5 44t151.5 14.5q129 0 213 -28q63 -22 109 -66.5t46 -116.5q0 -69 -54 -112t-132 -43t-127 36.5t-49 106.5q0 58 40 106t105 64q-46 16 -121 16q-116 0 -192 -72.5t-76 -211.5q0 -107 64 -193q66 19 106 19q36 0 54 -16.5t18 -43.5
q0 -20 -17 -32.5t-41 -12.5q-52 0 -118 58q-90 -65 -137.5 -141t-47.5 -187q0 -192 159 -280.5t470 -88.5q102 0 202.5 21.5t186.5 62.5t139.5 108.5t53.5 151.5q0 29 -2 48.5t-9.5 53.5t-28 64t-52.5 54q-80 -17 -138 -25q-91 -14 -147 -25q-231 -41 -331.5 -86
t-100.5 -125q0 -72 74 -119t169 -47q13 0 56 5q-109 39 -109 153q0 73 55.5 113.5t143.5 40.5q90 0 140 -42.5t50 -115.5q0 -98 -84.5 -145t-236.5 -47t-245 72t-93 206q0 95 40 168.5t117 124t178.5 83t237.5 52.5q30 4 88.5 14.5t89.5 14.5q64 11 112 20.5t95.5 23
t79.5 29t58 35t38.5 44.5t12.5 55q0 76 -70.5 124t-157.5 48q-23 0 -55 -4q61 -22 94 -65t33 -89q0 -73 -53.5 -112.5t-141.5 -39.5q-90 0 -142 43t-52 115q0 88 69 140.5t207 52.5q157 0 250.5 -79t93.5 -218z" />
    <glyph glyph-name="quotesingle" unicode="'" horiz-adv-x="455" 
d="M227 1495q73 0 119.5 -45t46.5 -119q0 -51 -21 -99.5t-61.5 -123.5t-68.5 -150h-29q-27 69 -68.5 145t-62.5 125t-21 101q0 75 47 120.5t119 45.5z" />
    <glyph glyph-name="parenleft" unicode="(" horiz-adv-x="684" 
d="M612 1651l31 -25q-115 -227 -171 -464.5t-56 -522.5q0 -286 55 -519.5t172 -467.5l-31 -25q-275 178 -414 424.5t-139 587.5t139 587.5t414 424.5z" />
    <glyph glyph-name="parenright" unicode=")" horiz-adv-x="684" 
d="M41 1626l31 25q275 -178 414 -424.5t139 -587.5t-139 -587.5t-414 -424.5l-31 25q117 234 172 467.5t55 519.5q0 285 -56 522.5t-171 464.5z" />
    <glyph glyph-name="asterisk" unicode="*" horiz-adv-x="969" 
d="M821 1001q59 -33 59 -89q0 -33 -20 -66q-36 -63 -93 -63q-30 0 -60 18q-23 13 -48.5 39t-45 51t-56 74t-63.5 83q15 -39 38.5 -94t36.5 -85.5t23 -66.5t10 -63q0 -57 -33.5 -83.5t-81.5 -26.5q-50 0 -83 26.5t-33 83.5q0 27 9.5 62t21.5 63.5t36.5 85t39.5 95.5
q-27 -33 -76.5 -99.5t-78 -98t-57.5 -48.5q-32 -18 -60 -18q-60 0 -93 63q-21 34 -21 68q0 54 58 87q23 13 58 22t66.5 13t92 11.5t103.5 13.5q-40 6 -100.5 13t-93 11.5t-68.5 14t-58 22.5q-59 33 -59 90q0 33 20 66q34 63 93 63q30 0 60 -18q23 -13 48.5 -39t44.5 -51
t56 -74t63 -82q-15 37 -38.5 93t-36 86t-22.5 66t-10 62q0 57 34 84t82 27q49 0 82 -27t33 -84q0 -34 -12.5 -72.5t-45 -113.5t-48.5 -118q25 32 61.5 80t56 73.5t45 52t48.5 39.5q32 18 59 18q59 0 94 -63q21 -34 21 -68q0 -55 -58 -88q-23 -13 -57.5 -22t-65.5 -13
t-90.5 -11.5t-101.5 -13.5q39 -6 99 -13.5t91.5 -11.5t67 -13.5t57.5 -22.5zM485 1060l1 1h-2z" />
    <glyph glyph-name="plus" unicode="+" horiz-adv-x="1157" 
d="M616 758h476v-62h-476v-481h-73v481h-477v62h477v483h73v-483z" />
    <glyph glyph-name="comma" unicode="," horiz-adv-x="569" 
d="M276 324q112 0 162 -76q51 -69 51 -195q0 -107 -55 -197t-162 -139l-18 37q54 25 96 71t58 97q11 36 11 68q0 20 -5 45q-55 -64 -150 -64q-82 0 -131 46.5t-49 129.5q0 80 53 128.5t139 48.5z" />
    <glyph glyph-name="hyphen" unicode="-" horiz-adv-x="961" 
d="M850 455h-739v202h739v-202z" />
    <glyph glyph-name="period" unicode="." horiz-adv-x="578" 
d="M289 324q98 0 150.5 -45t52.5 -132q0 -86 -52.5 -131t-150.5 -45q-99 0 -151 44.5t-52 131.5t52 132t151 45z" />
    <glyph glyph-name="slash" unicode="/" horiz-adv-x="750" 
d="M131 -29h-68l558 1508h67z" />
    <glyph glyph-name="zero" unicode="0" horiz-adv-x="1382" 
d="M702 1092q264 0 431 -150t167 -393q0 -163 -77 -294.5t-219 -207.5t-324 -76q-262 0 -430 150t-168 395q0 121 44.5 226.5t124.5 183t197 122t254 44.5zM684 1055q-97 0 -158 -143.5t-61 -389.5q0 -260 65.5 -387t167.5 -127q97 0 158.5 144.5t61.5 390.5
q0 259 -66 385.5t-168 126.5z" />
    <glyph glyph-name="one" unicode="1" horiz-adv-x="803" 
d="M618 1085v-895q0 -84 25.5 -115.5t89.5 -31.5v-43q-220 8 -282 8q-73 0 -377 -8v43q89 0 132.5 36.5t43.5 131.5v504q0 98 -17 145t-51.5 61.5t-107.5 14.5v45q197 3 323 26.5t221 77.5z" />
    <glyph glyph-name="two" unicode="2" horiz-adv-x="1133" 
d="M604 1092q170 0 268.5 -69.5t98.5 -193.5q0 -61 -31 -118t-78.5 -99t-112.5 -86t-125 -77t-124.5 -73.5t-102.5 -74.5h463q56 0 84 8.5t37.5 24.5t15.5 51h47q0 -263 9 -395q-46 10 -305 10h-674v43q25 25 86.5 80t108 98t106 109.5t98.5 127t66.5 138t27.5 152.5
q0 104 -44.5 152t-137.5 48q-161 0 -274 -137l-35 25q80 120 205.5 188t322.5 68z" />
    <glyph glyph-name="three" unicode="3" horiz-adv-x="1049" 
d="M530 1092q171 0 279.5 -64t108.5 -174q0 -119 -127.5 -212t-362.5 -126q25 2 74 2q223 0 356 -84t133 -231q0 -114 -85 -212.5t-221 -162.5t-302.5 -100.5t-333.5 -36.5v43q74 3 151 23t151 59t132 92t93.5 129.5t35.5 163.5q0 121 -57 198t-156 84q-77 -34 -112 -34
q-41 0 -41 32q0 47 73 47q13 0 39.5 -3t32.5 -3q158 104 158 260q0 89 -48.5 134t-135.5 45q-79 0 -148 -38t-117 -108l-37 21q33 55 71 97t93 80t132 58.5t171 20.5z" />
    <glyph glyph-name="four" unicode="4" horiz-adv-x="1126" 
d="M1071 39q-23 5 -205 9v-337h-286v338h-576v43l830 1000h32v-783h13q80 0 104.5 17t32.5 67h47q0 -247 8 -354zM580 309v412l-340 -412h340z" />
    <glyph glyph-name="five" unicode="5" horiz-adv-x="1001" 
d="M811 1124h47q0 -262 8 -374q-44 10 -284 10h-381l-39 -320q125 95 356 95q208 0 316 -92t108 -236q0 -115 -80 -213t-209 -162t-288.5 -99.5t-323.5 -35.5v37q99 1 191.5 33t166.5 89.5t119 147t45 195.5q0 127 -55.5 194.5t-163.5 67.5q-106 0 -197 -76l-32 23l82 661
q40 -8 110 -8h408q46 0 69 14.5t27 48.5z" />
    <glyph glyph-name="six" unicode="6" horiz-adv-x="1210" 
d="M735 905q181 0 302.5 -121.5t121.5 -320.5q0 -154 -77 -267.5t-200.5 -169t-273.5 -55.5q-245 0 -383.5 153.5t-138.5 430.5q0 176 60 326t153 250.5t215.5 176.5t239 116t231.5 57l8 -41q-55 -17 -96.5 -33.5t-92 -44.5t-88 -60t-77.5 -81.5t-68.5 -109t-51.5 -141
t-35 -179.5q76 114 251 114zM631 12q39 0 70.5 41.5t53 142t21.5 248.5q0 208 -39 305t-104 97q-40 0 -85.5 -34.5t-72.5 -103.5q-6 -80 -6 -173q0 -141 14.5 -246.5t38.5 -163.5t51.5 -85.5t57.5 -27.5z" />
    <glyph glyph-name="seven" unicode="7" horiz-adv-x="999" 
d="M1008 1061v-43q-24 -51 -77 -144t-98 -177t-91 -189t-72.5 -224.5t-26.5 -238.5q10 -131 10 -168q0 -73 -47 -126.5t-139 -53.5q-93 0 -139.5 59t-46.5 164q0 69 27.5 147.5t67.5 145.5t103 149t113.5 139.5t121 137t106.5 121.5h-584q-56 0 -84 -8.5t-38 -24.5t-16 -51
h-47q0 278 -8 395q46 -10 305 -10h660z" />
    <glyph glyph-name="eight" unicode="8" horiz-adv-x="1204" 
d="M764 888q151 -140 196 -188q159 -170 173 -314q2 -16 2 -32q0 -109 -70 -196.5t-194.5 -137t-278.5 -49.5q-141 0 -256 39.5t-187.5 121.5t-72.5 194q0 234 336 371q-61 55 -103 98.5t-83 99.5t-62 116.5t-21 125.5q0 87 39.5 154.5t107 107.5t150.5 60t176 20
q199 0 322 -82.5t123 -208.5q0 -93 -72.5 -162.5t-224.5 -137.5zM604 1442q-58 0 -87.5 -37.5t-29.5 -99.5q0 -95 64 -186t183 -203q40 94 40 262q0 126 -45 195t-125 69zM602 8q89 0 131.5 52.5t42.5 136.5q0 38 -10 75.5t-23 68.5t-40 67t-48 61t-59.5 62t-61 57.5
t-66.5 58.5l-24 21q-65 -104 -65 -301q0 -359 223 -359z" />
    <glyph glyph-name="nine" unicode="9" horiz-adv-x="1192" 
d="M598 1092q246 0 384 -153.5t138 -430.5q0 -113 -30.5 -214t-82 -179t-123 -145t-150 -114.5t-165.5 -83.5t-168 -56.5t-159 -30.5l-9 41q59 17 104.5 34.5t99 46t94 68t78.5 93t65 129t43 168.5q-77 -107 -246 -107q-181 0 -302.5 121.5t-121.5 320.5q0 154 77 267.5
t200.5 169t273.5 55.5zM573 217q39 0 83.5 32.5t71.5 97.5q9 83 9 181q0 141 -14.5 246.5t-38.5 163.5t-51.5 85.5t-57.5 27.5q-61 0 -103 -107.5t-42 -325.5q0 -207 39.5 -304t103.5 -97z" />
    <glyph glyph-name="colon" unicode=":" horiz-adv-x="627" 
d="M314 1092q98 0 150.5 -45t52.5 -132q0 -86 -52.5 -131t-150.5 -45q-99 0 -151 44.5t-52 131.5t52 132t151 45zM314 324q98 0 150.5 -45t52.5 -132q0 -86 -52.5 -131t-150.5 -45q-99 0 -151 44.5t-52 131.5t52 132t151 45z" />
    <glyph glyph-name="semicolon" unicode=";" horiz-adv-x="623" 
d="M312 1092q98 0 150.5 -45t52.5 -132q0 -86 -52.5 -131t-150.5 -45q-99 0 -151 44.5t-52 131.5t52 132t151 45zM301 324q112 0 162 -76q51 -69 51 -195q0 -107 -55 -197t-162 -139l-18 37q54 25 96 71t58 97q11 36 11 68q0 20 -5 45q-55 -64 -150 -64q-82 0 -131 46.5
t-49 129.5q0 80 53 128.5t139 48.5z" />
    <glyph glyph-name="less" unicode="&#x3c;" horiz-adv-x="1225" 
d="M1087 1118l-837 -391l837 -391l-34 -74l-998 465l998 465z" />
    <glyph glyph-name="equal" unicode="=" horiz-adv-x="1284" 
d="M1155 840h-1026v61h1026v-61zM1155 553h-1026v61h1026v-61z" />
    <glyph glyph-name="greater" unicode="&#x3e;" horiz-adv-x="1225" 
d="M1170 727l-998 -465l-34 74l837 391l-837 391l34 74z" />
    <glyph glyph-name="question" unicode="?" horiz-adv-x="1106" 
d="M514 1602q240 0 386.5 -99.5t146.5 -269.5q0 -168 -151 -284t-413 -171v-299h-41v318q74 36 122.5 80.5t73 97t33.5 103t9 116.5q0 186 -61 276.5t-166 90.5q-119 0 -162 -39q133 -50 133 -181q0 -73 -54.5 -122.5t-142.5 -49.5q-74 0 -121 48.5t-47 115.5q0 70 34.5 116
t96.5 81q129 72 324 72zM467 324q98 0 150.5 -45t52.5 -132q0 -86 -52.5 -131t-150.5 -45q-99 0 -151 44.5t-52 131.5t52 132t151 45z" />
    <glyph glyph-name="at" unicode="@" horiz-adv-x="1819" 
d="M1141 53q-172 0 -172 147q0 28 6 60q-97 -207 -281 -207q-111 0 -182.5 68t-71.5 211q0 82 24.5 173t70.5 174.5t105.5 151t136 108t155.5 40.5q68 0 109.5 -36.5t56.5 -93.5l20 101q193 0 309 29l-155 -731q-9 -42 -10 -67q-1 -4 -1 -13q0 -43 27 -43q13 0 33 10
q54 26 107 66.5t105.5 102t92 134.5t64 169t24.5 200q0 138 -49 241t-135.5 163.5t-194.5 90t-237 29.5q-188 0 -367 -84.5t-311 -224t-212.5 -330.5t-80.5 -395q0 -154 47.5 -269.5t134 -184.5t199.5 -102.5t254 -33.5q237 0 422 111l14 -27q-79 -56 -192.5 -88.5
t-245.5 -32.5q-150 0 -271.5 37t-212.5 111t-140.5 195t-49.5 280q0 136 36 271t100.5 253t157.5 220t203 175t242.5 114.5t270.5 41.5q113 0 210 -20t180.5 -63.5t142.5 -108.5t92.5 -159.5t33.5 -211.5q0 -133 -38 -254.5t-101 -210t-143 -154.5t-165.5 -99.5
t-166.5 -33.5zM831 176q53 0 95.5 59t83.5 181l71 352q1 46 -17.5 84.5t-53.5 38.5q-51 0 -109 -80.5t-98.5 -214t-40.5 -268.5q0 -86 17 -119t52 -33z" />
    <glyph glyph-name="A" unicode="A" horiz-adv-x="1417" 
d="M815 1450l496 -1278q26 -66 58 -97.5t63 -33.5v-41q-148 6 -373 6q-235 0 -344 -6v41q77 3 110.5 19t33.5 56q0 31 -25 97l-122 336h-413l-35 -92q-66 -172 -66 -267q0 -84 46.5 -115t138.5 -34v-41q-153 6 -268 6q-97 0 -158 -6v41q50 8 95.5 63t92.5 177l455 1169
q44 -4 108 -4t107 4zM698 590l-186 512l-197 -512h383z" />
    <glyph glyph-name="B" unicode="B" horiz-adv-x="1442" 
d="M821 764v-4q152 -8 267.5 -42t181.5 -85.5t98.5 -111t32.5 -124.5q0 -200 -160.5 -298.5t-454.5 -98.5q-18 0 -143.5 3t-228.5 3q-240 0 -357 -6v41q50 2 76 8.5t43.5 26.5t22 51t4.5 90v1016q0 58 -5 89.5t-22.5 51.5t-43.5 26.5t-75 8.5v41q117 -6 353 -6q79 0 196 2
t133 2q271 0 413 -87.5t142 -234.5q0 -56 -29 -112.5t-85 -107.5t-149 -89t-210 -53zM729 1409q-68 0 -89.5 -34.5t-21.5 -141.5v-463h56q58 0 98 26.5t61 75t30 104.5t9 128q0 155 -33 230t-110 75zM752 47q219 0 219 359q0 161 -77.5 245t-246.5 84h-29v-518
q0 -107 25 -138.5t109 -31.5z" />
    <glyph glyph-name="C" unicode="C" horiz-adv-x="1468" 
d="M848 1479q122 0 208.5 -35t168.5 -98q23 -18 40 -18q42 0 52 122h47q-8 -145 -8 -512h-47q-16 163 -54.5 258t-134.5 158q-94 61 -190 61q-65 0 -120 -22.5t-94 -61t-69.5 -93.5t-49 -115t-31 -130.5t-17 -136t-4.5 -135.5t4.5 -135.5t17 -136t31 -130.5t49 -115
t69.5 -93.5t94 -61t120 -22.5q96 0 190 61q96 59 134.5 159.5t54.5 284.5h47q0 -381 8 -532h-47q-5 64 -16.5 92.5t-33.5 28.5q-16 0 -42 -17q-93 -65 -176.5 -99t-202.5 -34q-352 0 -562 197.5t-210 544.5q0 226 98 400.5t274 270t402 95.5z" />
    <glyph glyph-name="D" unicode="D" horiz-adv-x="1661" 
d="M739 1450q425 0 635.5 -181t210.5 -528q0 -338 -230 -539.5t-634 -201.5q-29 0 -143 3t-164 3q-240 0 -357 -6v41q50 2 76 8.5t43.5 26.5t22 51t4.5 90v1016q0 58 -5 89.5t-22.5 51.5t-43.5 26.5t-75 8.5v41q149 -7 280 -7q12 0 36.5 0.5t36.5 0.5q300 6 329 6zM770 1413
q-93 0 -122.5 -34.5t-29.5 -141.5v-1024q0 -108 29.5 -142t124.5 -34q203 0 293 175t90 521q0 347 -93 513.5t-292 166.5z" />
    <glyph glyph-name="E" unicode="E" horiz-adv-x="1331" 
d="M1229 344q0 -209 14 -344q-139 6 -469 6q-479 0 -717 -6v41q50 2 76 8.5t43.5 26.5t22 51t4.5 90v1016q0 58 -5 89.5t-22.5 51.5t-43.5 26.5t-75 8.5v41q238 -6 717 -6q301 0 428 6q-14 -192 -14 -344q0 -96 6 -148h-47q-18 123 -56 212t-89.5 138.5t-108.5 72t-123 22.5
h-27q-80 0 -102.5 -23t-22.5 -106v-524h21q73 0 134.5 44t96.5 103t48 123h47q-8 -120 -8 -199q0 -18 0.5 -48t0.5 -44q0 -88 13 -291h-47q-19 118 -96 194.5t-189 76.5h-21v-533q0 -84 22.5 -106.5t102.5 -22.5h68q54 0 107.5 25t106.5 78t96 151.5t67 230.5h47
q-6 -74 -6 -188z" />
    <glyph glyph-name="F" unicode="F" horiz-adv-x="1245" 
d="M1202 1450q-14 -192 -14 -344q0 -96 6 -148h-47q-26 123 -68 212.5t-93 138.5t-104 71.5t-112 22.5h-27q-80 0 -102.5 -23t-22.5 -106v-524h21q73 0 134.5 44t96.5 103t48 123h47q-8 -120 -8 -199q0 -18 0.5 -48t0.5 -44q0 -88 13 -291h-47q-19 118 -96 194.5t-189 76.5
h-21v-471q0 -65 8 -101t36 -57t68 -27t116 -6v-47q-276 6 -422 6q-34 0 -367 -6v41q50 2 76 8.5t43.5 26.5t22 51t4.5 90v1016q0 58 -5 89.5t-22.5 51.5t-43.5 26.5t-75 8.5v41q238 -6 717 -6q301 0 428 6z" />
    <glyph glyph-name="G" unicode="G" horiz-adv-x="1548" 
d="M868 1479q132 0 225.5 -35t172.5 -98q20 -19 41 -19q39 0 51 123h47q-8 -145 -8 -512h-47q-16 162 -55 256.5t-134 159.5q-89 61 -211 61q-76 0 -139 -29.5t-106 -82.5t-75 -119.5t-50 -146.5t-26.5 -157.5t-8.5 -158.5q0 -357 87.5 -533t241.5 -176q64 0 101 25
q43 30 43 102v205q0 103 -17 150.5t-58 65.5t-132 22v41q129 -7 391 -7q218 0 316 7v-41q-54 -5 -69 -35t-15 -141v-406h-41q-2 43 -18.5 80t-45.5 37q-43 0 -139 -47q-204 -99 -346 -99q-380 0 -575 193t-195 549q0 226 100.5 400.5t281.5 270t412 95.5z" />
    <glyph glyph-name="H" unicode="H" horiz-adv-x="1698" 
d="M1640 1450v-41q-50 -2 -75.5 -8.5t-43 -26.5t-22 -51t-4.5 -90v-1016q0 -58 5 -89.5t22.5 -51.5t43 -26.5t74.5 -8.5v-41q-110 6 -344 6q-236 0 -362 -6v41q50 2 76 8.5t43 26.5t21.5 51t4.5 90v492h-461v-492q0 -58 5 -89.5t22.5 -51.5t43.5 -26.5t75 -8.5v-41
q-120 6 -342 6q-248 0 -365 -6v41q50 2 76 8.5t43.5 26.5t22 51t4.5 90v1016q0 58 -5 89.5t-22.5 51.5t-43.5 26.5t-75 8.5v41q117 -6 365 -6q222 0 342 6v-41q-50 -2 -76 -8.5t-43.5 -26.5t-22 -51t-4.5 -90v-483h461v483q0 59 -5 90t-22 51t-43 26.5t-75 8.5v41
q126 -6 362 -6q234 0 344 6z" />
    <glyph glyph-name="I" unicode="I" horiz-adv-x="821" 
d="M764 1450v-41q-50 -2 -76 -8.5t-43.5 -26.5t-22 -51t-4.5 -90v-1016q0 -58 5 -89.5t22.5 -51.5t43.5 -26.5t75 -8.5v-41q-120 6 -342 6q-248 0 -365 -6v41q50 2 76 8.5t43.5 26.5t22 51t4.5 90v1016q0 58 -5 89.5t-22.5 51.5t-43.5 26.5t-75 8.5v41q117 -6 365 -6
q222 0 342 6z" />
    <glyph glyph-name="J" unicode="J" horiz-adv-x="799" 
d="M754 1450v-41q-50 -2 -76 -8.5t-43.5 -26.5t-22 -51t-4.5 -90v-750q0 -25 0.5 -81.5t0.5 -86.5q0 -252 -36 -366q-47 -147 -200 -240.5t-375 -93.5q-150 0 -229 39q-103 52 -103 153q0 72 55 115t146 43q86 0 135 -38.5t49 -112.5q0 -48 -29.5 -90t-89.5 -64q13 -2 37 -2
q65 0 112 36.5t69 92.5q30 83 36.5 177t6.5 333v936q0 58 -5 89.5t-22.5 51.5t-43.5 26.5t-75 8.5v41q111 -6 344 -6q237 0 363 6z" />
    <glyph glyph-name="K" unicode="K" horiz-adv-x="1544" 
d="M977 958l475 -792q28 -46 55 -74t70 -51v-41q-173 6 -369 6q-151 0 -293 -6v41q65 3 91.5 11.5t26.5 27.5q0 16 -21 53l-297 502q-30 50 -49 68.5t-48 22.5v-509q0 -58 5 -89.5t22.5 -51.5t43.5 -26.5t75 -8.5v-41q-120 6 -342 6q-248 0 -365 -6v41q50 2 76 8.5
t43.5 26.5t22 51t4.5 90v1016q0 58 -5 89.5t-22.5 51.5t-43.5 26.5t-75 8.5v41q117 -6 365 -6q222 0 342 6v-41q-50 -2 -76 -8.5t-43.5 -26.5t-22 -51t-4.5 -90v-462q82 6 159.5 61t191.5 182l69 78q91 102 91 184q0 60 -47 96t-121 39v39q171 -6 346 -6q123 0 206 6v-39
q-178 -48 -335 -225z" />
    <glyph glyph-name="L" unicode="L" horiz-adv-x="1282" 
d="M784 1450v-41q-74 -3 -106.5 -16t-46 -48t-13.5 -112v-1057q0 -84 19 -106.5t86 -22.5h68q71 0 154.5 70.5t151.5 189.5t91 246h47q-6 -74 -6 -188q0 -222 14 -365q-139 6 -469 6q-479 0 -717 -6v41q50 2 76 8.5t43.5 26.5t22 51t4.5 90v1016q0 58 -5 89.5t-22.5 51.5
t-43.5 26.5t-75 8.5v41q117 -6 365 -6q236 0 362 6z" />
    <glyph glyph-name="M" unicode="M" horiz-adv-x="1976" 
d="M1919 1450v-41q-50 -2 -76 -8.5t-43 -26.5t-21.5 -51t-4.5 -90v-1016q0 -59 5 -90t22 -51t43 -26.5t75 -8.5v-41q-126 6 -363 6q-247 0 -364 -6v41q74 3 106.5 16t46 48t13.5 112v1049l-494 -1264h-33l-577 1315v-916q0 -58 1 -93.5t4 -74t9 -60t16.5 -44.5t25 -35
t37 -23.5t49.5 -18t65 -11.5v-41q-83 6 -230 6q-109 0 -170 -6v41q92 20 119 81t27 238v873q0 58 -5 89.5t-22.5 51.5t-43.5 26.5t-75 8.5v41q62 -6 170 -6q247 0 424 6l387 -870l336 864h178q237 0 363 6z" />
    <glyph glyph-name="N" unicode="N" horiz-adv-x="1499" 
d="M1450 1450v-41q-92 -20 -118.5 -81t-26.5 -238v-1090q-30 3 -67 3q-36 0 -77 -3l-907 991v-590q0 -58 1 -93.5t4 -74t9 -60t16.5 -44.5t25 -35t37 -23.5t49.5 -18t65 -11.5v-41q-83 6 -230 6q-109 0 -170 -6v41q92 20 119 81t27 238v873q0 58 -5 89.5t-22.5 51.5
t-43.5 26.5t-75 8.5v41q62 -6 170 -6q112 0 189 6l837 -885v484q0 77 -1.5 120.5t-9 87.5t-19.5 65.5t-36.5 41.5t-57 29t-82.5 16v41q83 -6 229 -6q108 0 170 6z" />
    <glyph glyph-name="O" unicode="O" horiz-adv-x="1694" 
d="M848 1479q352 0 562 -197.5t210 -544.5q0 -226 -98.5 -400.5t-274.5 -270t-401 -95.5q-352 0 -562 197.5t-210 544.5q0 226 98 400.5t274 270t402 95.5zM840 1442q-152 0 -244 -200t-92 -521q0 -319 101 -516t249 -197q152 0 244 200t92 521q0 319 -101 516t-249 197z
" />
    <glyph glyph-name="P" unicode="P" horiz-adv-x="1389" 
d="M618 586v-348q0 -65 8 -101t36 -57t68 -27t116 -6v-47q-276 6 -422 6q-34 0 -367 -6v41q50 2 76 8.5t43.5 26.5t22 51t4.5 90v1016q0 58 -5 89.5t-22.5 51.5t-43.5 26.5t-75 8.5v41q117 -6 353 -6q79 0 196 2t133 2q303 0 460 -109.5t157 -294.5q0 -52 -13 -102.5
t-42 -103.5t-80.5 -97.5t-122 -79.5t-174.5 -55t-230 -20h-76zM729 1409q-68 0 -89.5 -34.5t-21.5 -141.5v-606h56q61 0 106.5 21.5t73 57t44 88t22.5 106.5t6 122q0 199 -45.5 293t-151.5 94z" />
    <glyph glyph-name="Q" unicode="Q" horiz-adv-x="1694" 
d="M1587 74l39 -11q-22 -280 -149 -376q-95 -72 -256 -72q-66 0 -133.5 12t-142 37.5t-127 47t-142 61.5t-135.5 59q-40 14 -49 14q-92 -51 -173 -51q-43 0 -69.5 15.5t-26.5 46.5q0 63 113 63q72 0 156 -37q58 15 140.5 49.5t107.5 43.5q-307 30 -486.5 223.5t-179.5 513.5
q0 226 98 400.5t274 270t402 95.5q352 0 562 -197.5t210 -544.5q0 -166 -55 -307t-153 -240t-237 -157t-302 -62q-69 -9 -168 -47.5t-142 -50.5q300 -8 375 -8q212 0 352 29q115 24 180.5 63.5t116.5 116.5zM504 721q0 -319 101 -516t249 -197q152 0 244 200t92 521
q0 319 -101 516t-249 197q-152 0 -244 -200t-92 -521z" />
    <glyph glyph-name="R" unicode="R" horiz-adv-x="1477" 
d="M1501 109l27 -27q-61 -61 -135 -86t-172 -25q-141 0 -219.5 50.5t-96.5 171.5l-31 204q-10 69 -21.5 117t-30 90t-46 63t-65.5 21h-93v-471q0 -58 5 -89.5t22.5 -51.5t43.5 -26.5t75 -8.5v-41q-120 6 -342 6q-248 0 -365 -6v41q50 2 76 8.5t43.5 26.5t22 51t4.5 90v1016
q0 58 -5 89.5t-22.5 51.5t-43.5 26.5t-75 8.5v41q117 -6 353 -6q79 0 196 2t133 2q312 0 464.5 -87.5t152.5 -268.5q0 -57 -14 -107t-50 -99.5t-91.5 -86.5t-143.5 -65t-202 -39q209 -12 316.5 -76.5t131.5 -190.5l43 -213q15 -75 35.5 -104t56.5 -29q37 0 63 27zM729 1409
q-68 0 -89.5 -34.5t-21.5 -141.5v-504h56q61 0 106.5 18t73 47.5t44 74.5t22.5 92t6 108q0 168 -46 254t-151 86z" />
    <glyph glyph-name="S" unicode="S" horiz-adv-x="1255" 
d="M618 1479q83 0 151 -13.5t102.5 -28.5t78.5 -40q50 -29 70 -29q19 0 29 21.5t16 68.5h47q-10 -147 -10 -500h-47q-6 86 -33 168t-71 149t-110 107.5t-143 40.5q-93 0 -151 -50t-58 -140q0 -99 60.5 -162.5t252.5 -196.5q31 -22 48 -34q67 -47 106 -76.5t88 -76t75 -88.5
t44.5 -99.5t18.5 -122.5q0 -81 -29.5 -148.5t-80.5 -114.5t-121.5 -79.5t-152.5 -48t-173 -15.5q-207 0 -363 76q-46 29 -69 29q-19 0 -29 -21t-17 -69h-47q9 156 9 594h47q6 -115 28.5 -208.5t64.5 -172t113 -122.5t166 -44q114 0 180 53t66 147q0 50 -15.5 95t-39 80
t-65 73.5t-80.5 67.5t-99 69q-74 49 -114.5 78.5t-95.5 78.5t-83.5 91t-49.5 101t-21 125q0 97 41.5 173t113.5 121.5t161 69t191 23.5z" />
    <glyph glyph-name="T" unicode="T" horiz-adv-x="1432" 
d="M1384 1450q-14 -227 -14 -406q0 -94 6 -147h-47q-28 112 -65 200t-76 145t-84.5 93.5t-88.5 52t-89 15.5h-2v-1172q0 -65 8 -101t36 -57t67.5 -26.5t115.5 -5.5v-41q-288 6 -449 6q-145 0 -421 -6v41q76 0 115.5 5.5t67.5 26.5t36 57t8 101v1172h-2q-59 0 -113.5 -25.5
t-108 -81.5t-100.5 -157.5t-82 -241.5h-47q6 53 6 147q0 179 -14 406q195 -6 670 -6q473 0 667 6z" />
    <glyph glyph-name="U" unicode="U" horiz-adv-x="1419" 
d="M1395 1450v-41q-92 -20 -119 -81t-27 -238v-494q0 -297 -84 -434q-114 -191 -440 -191q-247 0 -385 99q-99 72 -133.5 192.5t-34.5 327.5v643q0 59 -4.5 90t-21.5 51t-43 26.5t-76 8.5v41q115 -6 360 -6q241 0 367 6v-41q-56 -2 -85.5 -8.5t-49.5 -26.5t-25.5 -51.5
t-5.5 -89.5v-836q0 -196 61.5 -275t194.5 -79q100 0 171 37.5t111 110t58 166t18 216.5v476q0 58 -1 93.5t-4 74t-9 60t-16.5 44.5t-25 35t-37 23.5t-49.5 18t-65 11.5v41q84 -6 230 -6q109 0 170 6z" />
    <glyph glyph-name="V" unicode="V" horiz-adv-x="1419" 
d="M1286 1444q96 0 158 6v-41q-126 -61 -205 -287l-399 -1122q-66 4 -109 4q-42 0 -106 -4l-537 1278q-53 127 -121 131v41q149 -6 373 -6q233 0 344 6v-41q-76 -3 -110 -18t-34 -57q0 -35 25 -97l355 -873l198 558q67 191 67 304q0 177 -167 183v41q153 -6 268 -6z" />
    <glyph glyph-name="W" unicode="W" horiz-adv-x="2068" 
d="M1927 1444q97 0 158 6v-41q-121 -59 -191 -287l-344 -1122q-64 4 -108 4q-41 0 -107 -4l-266 813l-289 -813q-64 4 -108 4q-41 0 -107 -4l-475 1278q-24 65 -57 97t-64 34v41q149 -6 363 -6q186 0 272 6v-41q-54 -11 -54 -82q0 -46 17 -90l298 -835l179 486l-139 425
q-16 50 -41 71.5t-63 24.5v41q138 -6 354 -6q213 0 318 6v-41q-75 -2 -107.5 -18t-32.5 -60q0 -34 21 -94l270 -821l158 506q54 177 54 286q0 195 -177 201v41q153 -6 268 -6z" />
    <glyph glyph-name="X" unicode="X" horiz-adv-x="1493" 
d="M899 879l518 -734q45 -61 67 -80t60 -22v-43q-268 8 -350 8q-88 0 -356 -8v43q66 0 96.5 7.5t30.5 27.5q0 14 -15 35l-341 488l-126 -157q-105 -129 -105 -240q0 -70 45.5 -113.5t125.5 -49.5v-41q-117 6 -354 6q-131 0 -199 -6v41q160 67 340 291l246 308l-467 667
q-45 61 -67 80t-60 22v43q284 -8 370 -8q78 0 330 8v-43q-67 0 -97.5 -7.5t-30.5 -27.5q0 -14 15 -35l297 -422l117 144q103 119 103 215q0 57 -37.5 92t-106.5 41v41q117 -6 273 -6q131 0 198 6v-41q-66 -24 -139 -88t-137 -143z" />
    <glyph glyph-name="Y" unicode="Y" horiz-adv-x="1319" 
d="M1145 1446q97 0 158 6v-41q-106 -52 -218 -272l-190 -377v-545q0 -58 5 -89.5t22.5 -51.5t43 -26.5t74.5 -8.5v-41q-118 6 -352 6q-243 0 -354 -6v41q50 2 76 8.5t43 26.5t21.5 51t4.5 90v377l-379 700q-63 115 -118 115v43q126 -12 282 -12q177 0 451 12v-43
q-41 0 -63.5 -1t-50 -5t-39.5 -14.5t-12 -26.5q0 -13 9 -31l292 -562l93 185q97 194 97 305q0 145 -164 152v41q153 -6 268 -6z" />
    <glyph glyph-name="Z" unicode="Z" horiz-adv-x="1243" 
d="M1149 1409l-621 -1362h86q46 0 101.5 14.5t121.5 50.5t121.5 89t97.5 139.5t54 191.5h47q-6 -74 -6 -188q0 -209 14 -344q-151 6 -510 6q-399 0 -579 -6v41l620 1362h-102q-54 0 -108 -12.5t-112.5 -44.5t-105.5 -80.5t-83 -128t-50 -179.5h-47q6 52 6 148q0 152 -14 344
q127 -6 428 -6q442 0 641 6v-41z" />
    <glyph glyph-name="bracketleft" unicode="[" horiz-adv-x="696" 
d="M612 1542h-84v-1874h84v-39h-452v1952h452v-39z" />
    <glyph glyph-name="backslash" unicode="\" horiz-adv-x="750" 
d="M129 1479l558 -1508h-68l-557 1508h67z" />
    <glyph glyph-name="bracketright" unicode="]" horiz-adv-x="696" 
d="M536 1581v-1952h-452v39h84v1874h-84v39h452z" />
    <glyph glyph-name="asciicircum" unicode="^" horiz-adv-x="1073" 
d="M518 1081h37q71 -124 184.5 -241t239.5 -193l-16 -29q-135 22 -262.5 55.5t-204.5 67.5q-65 -34 -170 -67.5t-215 -55.5l-17 29q124 74 237 191t187 243z" />
    <glyph glyph-name="underscore" unicode="_" horiz-adv-x="1268" 
d="M1161 -371h-1054v227h1054v-227z" />
    <glyph glyph-name="grave" unicode="`" horiz-adv-x="457" 
d="M41 1679q37 34 88 34q70 0 113 -50q31 -35 48.5 -87.5t47.5 -143.5t78 -187l-23 -18q-80 67 -159 118.5t-126 82.5t-75 65q-34 40 -34 93q0 58 42 93z" />
    <glyph glyph-name="a" unicode="a" horiz-adv-x="1087" 
d="M557 1092q117 0 198 -22.5t136 -80.5q40 -42 53.5 -106.5t13.5 -180.5v-548q0 -49 7 -68.5t24 -19.5q23 0 64 30l20 -35q-89 -75 -266 -75q-108 0 -158.5 43.5t-52.5 111.5q-43 -71 -121 -113t-172 -42q-121 0 -189.5 64t-68.5 171q0 105 63 175t197 114q160 57 207 85
q78 45 78 105v183q0 22 -3 42t-13 44t-26 41.5t-44.5 29t-65.5 11.5q-56 0 -108 -35q137 -51 137 -185q0 -73 -54.5 -122.5t-142.5 -49.5q-75 0 -121.5 51t-46.5 128q0 120 127 188q129 66 328 66zM590 184v432q-15 -25 -80 -90q-100 -97 -100 -231q0 -145 104 -145
q43 0 76 34z" />
    <glyph glyph-name="b" unicode="b" horiz-adv-x="1231" 
d="M809 1092q159 0 257.5 -131.5t98.5 -382.5q0 -136 -25.5 -241.5t-68.5 -173.5t-105 -112t-130 -62t-148 -18q-135 0 -201 29q-69 26 -147 26q-62 0 -115.5 -16t-81.5 -43l-28 21q14 43 14 112v1256q0 95 -26 137.5t-89 42.5v43q64 -6 127 -6q215 0 357 29v-664
q93 154 311 154zM594 12q188 0 188 518q0 132 -10.5 223.5t-30 140.5t-43 70t-53.5 21q-59 0 -103 -42t-44 -105v-802q46 -24 96 -24z" />
    <glyph glyph-name="c" unicode="c" 
d="M588 1092q167 0 270 -62q57 -33 90 -88.5t33 -124.5q0 -85 -55.5 -142t-141.5 -57q-88 0 -138 51t-50 134q0 74 48.5 129.5t119.5 75.5q-33 24 -82 24q-69 0 -118.5 -43.5t-74 -117.5t-35 -150t-10.5 -162q0 -103 22.5 -178t61 -113.5t81 -55.5t91.5 -17q149 0 248 137
l35 -13q-16 -52 -40.5 -99.5t-62 -94t-83.5 -80t-108.5 -54t-133.5 -20.5q-107 0 -193.5 30t-155.5 94t-107 174.5t-38 260.5q0 144 40 253.5t112.5 176t166.5 99.5t208 33z" />
    <glyph glyph-name="d" unicode="d" horiz-adv-x="1247" 
d="M1100 1602v-1377q0 -95 25.5 -137.5t88.5 -42.5v-43q-64 6 -127 6q-212 0 -356 -28v145q-42 -80 -101 -117t-149 -37t-164.5 33t-132 99.5t-89.5 177.5t-32 258q0 271 122 412t333 141q134 0 213 -52v316q0 95 -26 137.5t-89 42.5v43q64 -6 127 -6q215 0 357 29zM584 78
q58 0 102.5 42t44.5 105v772q-44 27 -96 27q-189 0 -189 -492q0 -131 10.5 -223t30.5 -140.5t43.5 -69.5t53.5 -21z" />
    <glyph glyph-name="e" unicode="e" 
d="M682 195q149 0 248 137l35 -13q-21 -66 -55.5 -124.5t-86 -110.5t-125.5 -82.5t-161 -30.5q-103 0 -186 30t-149 94t-102.5 174.5t-36.5 260.5q0 144 40 253.5t112.5 176t166.5 99.5t208 33q387 0 387 -459h-529q-2 -24 -2 -74q0 -103 20.5 -178t56.5 -113.5t75 -55.5
t84 -17zM575 1044q-115 0 -134 -372h237q2 163 -23.5 267.5t-79.5 104.5z" />
    <glyph glyph-name="f" unicode="f" horiz-adv-x="748" 
d="M606 1602q147 0 246 -76q32 -26 54 -70t22 -100q0 -65 -48.5 -115.5t-121.5 -50.5q-85 0 -135 45t-50 125q0 61 36 110.5t106 71.5q-15 19 -56 19q-62 0 -96 -39q-39 -50 -39 -187v-274h219v-41h-219v-809q0 -95 43.5 -131.5t132.5 -36.5v-43q-300 8 -376 8
q-63 0 -283 -8v43q64 0 89.5 31.5t25.5 115.5v830h-123v41h123q0 179 32 273.5t113 164.5q51 44 133.5 73.5t171.5 29.5z" />
    <glyph glyph-name="g" unicode="g" horiz-adv-x="1147" 
d="M362 287h465q135 0 218 -56.5t83 -183.5q0 -80 -37.5 -155t-109 -138t-191 -101t-268.5 -38q-135 0 -233 15t-150 40.5t-75 54t-23 60.5q0 42 26.5 64t68.5 29t87 11t89 17.5t66 40.5h-67q-28 0 -57 4.5t-64 19t-61.5 36.5t-44.5 62t-18 91q0 100 59 168t206 138
q-118 36 -183.5 110.5t-65.5 187.5q0 162 132 245t349 83q71 0 123 -8q-2 28 -2 42q0 122 57.5 196.5t173.5 74.5q76 0 126.5 -36.5t50.5 -100.5q0 -58 -48.5 -96t-119.5 -38q-70 0 -112.5 26.5t-70.5 80.5q-14 -41 -14 -107q0 -24 3 -48q147 -28 230.5 -107t83.5 -207
q0 -162 -131.5 -245t-349.5 -83q-103 0 -194 20q-43 -29 -61.5 -50t-18.5 -52q0 -67 73 -67zM563 1055q-51 0 -77.5 -66.5t-26.5 -224.5t26.5 -224.5t77.5 -66.5q52 0 78.5 66.5t26.5 224.5t-26.5 224.5t-78.5 66.5zM578 -350q119 0 192.5 64t73.5 167q0 66 -94 66h-331
q-26 -56 -26 -133q0 -78 47 -121t138 -43z" />
    <glyph glyph-name="h" unicode="h" horiz-adv-x="1274" 
d="M520 1602v-664q93 154 326 154q163 0 231 -82q60 -72 60 -265v-555q0 -84 25 -115.5t89 -31.5v-43q-220 8 -286 8q-71 0 -291 -8v43q53 0 73.5 31.5t20.5 115.5v666q0 66 -24 97.5t-76 31.5q-59 0 -103.5 -42t-44.5 -105v-648q0 -84 20.5 -115.5t73.5 -31.5v-43
q-204 8 -270 8q-71 0 -307 -8v43q64 0 89.5 31.5t25.5 115.5v1166q0 95 -26 137.5t-89 42.5v43q64 -6 127 -6q215 0 356 29z" />
    <glyph glyph-name="i" unicode="i" horiz-adv-x="676" 
d="M330 1602q107 0 165 -45t58 -132q0 -86 -58 -131t-165 -45q-109 0 -166 44.5t-57 131.5t57 132t166 45zM526 1085v-895q0 -84 25.5 -115.5t89.5 -31.5v-43q-220 8 -291 8t-307 -8v43q64 0 89.5 31.5t25.5 115.5v650q0 95 -26 137.5t-89 42.5v43q65 -6 127 -6
q213 0 356 28z" />
    <glyph glyph-name="j" unicode="j" horiz-adv-x="649" 
d="M330 1602q107 0 165 -45t58 -132q0 -86 -58 -131t-165 -45q-109 0 -166.5 45t-57.5 131q0 87 57.5 132t166.5 45zM520 1085v-921q0 -180 -32.5 -278.5t-112.5 -168.5q-118 -102 -387 -102q-137 0 -228 41q-49 22 -76.5 62t-27.5 89q0 72 55 115t146 43q86 0 135 -38.5
t49 -112.5q0 -48 -29.5 -90t-89.5 -64q38 -4 55 -4q44 0 81 17t57 48q26 43 31.5 127t5.5 316v676q0 95 -26 137.5t-89 42.5v43q64 -6 127 -6q213 0 356 28z" />
    <glyph glyph-name="k" unicode="k" horiz-adv-x="1247" 
d="M844 769l325 -619q2 -4 13 -24t15.5 -26.5t14 -20.5t19 -22t20.5 -14v-43q-188 8 -247 8q-69 0 -289 -8v43q59 0 59 38q0 13 -8 32l-180 381q-22 42 -66 45v-349q0 -84 25.5 -115.5t89.5 -31.5v-43q-220 8 -291 8t-307 -8v43q64 0 89.5 31.5t25.5 115.5v1166
q0 95 -26 137.5t-89 42.5v43q64 -6 127 -6q215 0 356 29v-1024q60 2 88 30l158 148q72 68 72 133q0 53 -46.5 90t-117.5 43v41q117 -6 246 -6q200 0 280 6v-41q-143 -39 -303 -201z" />
    <glyph glyph-name="l" unicode="l" horiz-adv-x="672" 
d="M520 1602v-1412q0 -84 25.5 -115.5t89.5 -31.5v-43q-220 8 -291 8t-307 -8v43q64 0 89.5 31.5t25.5 115.5v1166q0 95 -26 137.5t-89 42.5v43q64 -6 127 -6q215 0 356 29z" />
    <glyph glyph-name="m" unicode="m" horiz-adv-x="1876" 
d="M1739 745v-555q0 -84 25 -115.5t89 -31.5v-43q-220 8 -286 8q-63 0 -271 -8v43q42 0 58 31t16 116v666q0 66 -24 97.5t-76 31.5q-53 0 -98 -45.5t-53 -105.5q3 -39 3 -89v-555q0 -85 20.5 -116t74.5 -31v-43q-208 8 -267 8q-66 0 -270 -8v43q41 0 57.5 31.5t16.5 115.5
v666q0 66 -19 97.5t-61 31.5q-59 0 -103.5 -42t-44.5 -105v-648q0 -85 16 -116t58 -31v-43q-188 8 -250 8q-71 0 -307 -8v43q64 0 89.5 31.5t25.5 115.5v650q0 95 -26 137.5t-89 42.5v43q65 -6 127 -6q213 0 356 28v-147q88 154 305 154q164 0 232 -82q31 -37 44 -96
q53 98 138 138t203 40q163 0 231 -82q60 -72 60 -265z" />
    <glyph glyph-name="n" unicode="n" horiz-adv-x="1280" 
d="M852 1092q163 0 231 -82q60 -72 60 -265v-555q0 -84 25.5 -115.5t88.5 -31.5v-43q-220 8 -286 8q-71 0 -291 -8v43q53 0 73.5 31t20.5 116v666q0 66 -24 97.5t-76 31.5q-59 0 -103.5 -42t-44.5 -105v-648q0 -84 21 -115.5t74 -31.5v-43q-208 8 -271 8q-71 0 -307 -8v43
q64 0 89.5 31.5t25.5 115.5v650q0 95 -26 137.5t-89 42.5v43q65 -6 127 -6q213 0 356 28v-147q93 154 326 154z" />
    <glyph glyph-name="o" unicode="o" horiz-adv-x="1180" 
d="M590 1092q123 0 217 -30t164.5 -95t107.5 -175t37 -262q0 -122 -24.5 -216.5t-69 -159t-110.5 -105.5t-145 -59.5t-177 -18.5q-123 0 -217 30t-165 94.5t-108 173.5t-37 261t37 262t108 175t165 95t217 30zM590 1051q-65 0 -104.5 -129t-39.5 -392q0 -262 39.5 -390
t104.5 -128t104 128t39 390q0 263 -39 392t-104 129z" />
    <glyph glyph-name="p" unicode="p" horiz-adv-x="1253" 
d="M831 1092q160 0 258.5 -131.5t98.5 -382.5q0 -136 -25.5 -241.5t-68.5 -173.5t-105 -112t-130 -62t-148 -18q-121 0 -191 39v-170q0 -95 43.5 -131.5t132.5 -36.5v-43q-337 9 -377 9q-35 0 -282 -9v43q64 0 89.5 31.5t25.5 116.5v1018q0 95 -26 137.5t-89 42.5v43
q64 -6 127 -6q213 0 356 28v-145q95 154 311 154zM592 33q112 0 162.5 122.5t50.5 374.5q0 131 -10.5 223t-30 141t-43 70t-53.5 21q-59 0 -103.5 -42t-44.5 -105v-788q27 -17 72 -17z" />
    <glyph glyph-name="q" unicode="q" horiz-adv-x="1229" 
d="M1100 963v-1143q0 -85 25 -116.5t89 -31.5v-43q-248 9 -282 9q-35 0 -377 -9v43q89 0 132.5 36.5t43.5 131.5v285q-42 -80 -101 -117t-149 -37t-164.5 33t-132 99.5t-89.5 177.5t-32 258q0 271 122 412t333 141q152 0 231 -34q65 -22 136 -22q63 0 117.5 16.5t82.5 43.5
l29 -21q-14 -43 -14 -112zM584 78q58 0 102.5 42t44.5 105v803q-45 23 -96 23q-189 0 -189 -519q0 -131 10.5 -223t30.5 -140.5t43.5 -69.5t53.5 -21z" />
    <glyph glyph-name="r" unicode="r" horiz-adv-x="985" 
d="M791 1092q53 0 91 -18.5t58.5 -50t29.5 -66t9 -72.5q0 -92 -51.5 -146.5t-136.5 -54.5q-89 0 -136 39.5t-47 107.5q0 122 105 191q-37 0 -66 -14q-52 -22 -86.5 -72.5t-34.5 -110.5v-614q0 -96 40 -132t136 -36v-43q-252 8 -331 8q-76 0 -328 -8v43q64 0 89.5 31.5
t25.5 115.5v650q0 95 -26 137.5t-89 42.5v43q65 -6 127 -6q213 0 356 28v-147q80 154 265 154z" />
    <glyph glyph-name="s" unicode="s" horiz-adv-x="967" 
d="M473 1092q81 0 150.5 -17.5t107.5 -38.5q21 -12 37 -12q41 0 51 66h41q-8 -107 -8 -369h-41q-7 61 -24 114.5t-45.5 102t-75.5 76.5t-107 28q-52 0 -86.5 -31t-34.5 -83q0 -30 11 -59t25.5 -50.5t43.5 -49t49.5 -44t59 -46.5t57.5 -46q57 -47 89 -77t66.5 -74t50 -91
t15.5 -104q0 -138 -120 -227t-293 -89q-128 0 -211 52q-66 34 -103 34q-39 0 -57 -71h-41q8 117 8 409h41q19 -168 90 -270t180 -102q52 0 85.5 28.5t33.5 83.5q0 42 -12.5 77.5t-38 69t-53.5 61t-70 65.5q-11 9 -16 14q-110 101 -147 145q-93 112 -93 230
q0 132 113.5 213.5t271.5 81.5z" />
    <glyph glyph-name="t" unicode="t" horiz-adv-x="717" 
d="M516 1061h201v-41h-201v-848q0 -40 14 -57t48 -17q61 0 110 60l31 -25q-94 -162 -291 -162q-141 0 -211 70q-42 42 -56 106t-14 179v694h-155v41h155v244q217 0 369 90v-334z" />
    <glyph glyph-name="u" unicode="u" horiz-adv-x="1274" 
d="M1122 1085v-862q0 -95 26 -137.5t89 -42.5v-43q-65 6 -127 6q-215 0 -356 -29v148q-93 -154 -326 -154q-163 0 -231 82q-60 72 -60 264v523q0 95 -25.5 137.5t-88.5 42.5v43q64 -6 127 -6q212 0 356 28v-878q0 -66 24 -97.5t76 -31.5q59 0 103.5 42t44.5 105v615
q0 95 -26 137.5t-89 42.5v43q64 -6 127 -6q213 0 356 28z" />
    <glyph glyph-name="v" unicode="v" horiz-adv-x="1065" 
d="M909 1055q117 0 158 8v-43q-89 -33 -145 -199l-277 -821q-53 5 -99 5q-45 0 -100 -5l-356 905q-45 115 -119 115v43q164 -12 365 -12q102 0 266 12v-43q-76 0 -96 -11q-22 -12 -22 -41q0 -11 3 -26l223 -620l95 282q39 116 39 210q0 96 -41.5 148.5t-108.5 57.5v43
q77 -8 215 -8z" />
    <glyph glyph-name="w" unicode="w" horiz-adv-x="1634" 
d="M1483 1055q117 0 157 8v-43q-93 -34 -145 -199l-256 -821q-53 5 -99 5q-45 0 -100 -5l-244 708l-186 -708q-53 5 -99 5q-44 0 -99 -5l-316 905q-41 115 -119 115v43q164 -12 365 -12q102 0 266 12v-43q-63 0 -90.5 -9.5t-27.5 -40.5q0 -13 4 -28l170 -567l176 686h2
q43 -4 98 -4q41 0 119 4l233 -749l88 292q33 110 33 197q0 103 -45.5 157.5t-120.5 61.5v43q77 -8 236 -8z" />
    <glyph glyph-name="x" unicode="x" horiz-adv-x="1120" 
d="M697 649l335 -504q2 -3 13 -18t16 -22t16.5 -20t19.5 -20t19.5 -13.5t22.5 -8.5v-43q-208 8 -269 8q-62 0 -282 -8v43q62 0 62 37q0 16 -11 33l-201 303l-18 -23q-77 -99 -77 -191q0 -67 40 -111.5t106 -49.5v-41q-125 6 -333 6q-83 0 -138 -6v41q92 46 193 168l206 238
l-313 471q-32 50 -54.5 73t-51.5 29v43q236 -8 309 -8q54 0 242 8v-43q-62 0 -62 -37q0 -17 11 -33l178 -269l35 42q76 92 76 174q0 53 -34 86.5t-96 38.5v41q126 -6 273 -6q82 0 137 6v-41q-85 -38 -193 -168z" />
    <glyph glyph-name="y" unicode="y" horiz-adv-x="1083" 
d="M918 1055q116 0 157 8v-43q-89 -33 -145 -199l-256 -762l-86 -247q-38 -107 -90 -148q-63 -49 -191 -49q-45 0 -91 10.5t-89.5 31.5t-70.5 60t-27 90q0 72 54.5 115t145.5 43q87 0 136 -38.5t49 -112.5q0 -49 -34 -93t-99 -65q20 -4 69 -4q141 0 195 164l11 33l-478 1056
q-51 115 -119 115v43q163 -12 334 -12q133 0 297 12v-43q-30 0 -46.5 -1t-37 -5t-30 -14t-9.5 -26q0 -15 8 -32l253 -600l85 262q39 116 39 210q0 96 -41.5 148.5t-108.5 57.5v43q77 -8 216 -8z" />
    <glyph glyph-name="z" unicode="z" horiz-adv-x="967" 
d="M457 31h28q49 0 94 11t90.5 39.5t80 71.5t59 112t31.5 157h41q0 -307 8 -430q-169 8 -402 8q-206 0 -434 -10l459 1040h-41q-49 0 -93 -11.5t-87 -39.5t-76 -71t-56 -112t-30 -157h-41q0 307 -8 430q169 -8 401 -8q206 0 434 10z" />
    <glyph glyph-name="braceleft" unicode="{" horiz-adv-x="723" 
d="M700 1602v-39q-63 -2 -90.5 -30.5t-40 -118t-12.5 -286.5q0 -107 -27 -190.5t-69.5 -137t-107.5 -93t-128.5 -60t-144.5 -35.5q81 -15 145 -35.5t128.5 -60t107 -93t69.5 -137.5t27 -190q0 -104 2 -173t9.5 -120t16.5 -78.5t27 -44t37 -21t51 -5.5v-39q-145 0 -238.5 22
t-157 77.5t-90 147t-26.5 234.5q0 198 -13 299.5t-45.5 147.5t-96.5 51h-10v37h10q64 4 96.5 49t45.5 147t13 301q0 137 27 226.5t89.5 145.5t157 79t238.5 23z" />
    <glyph glyph-name="bar" unicode="|" horiz-adv-x="561" 
d="M403 -399h-245v2156h245v-2156z" />
    <glyph glyph-name="braceright" unicode="}" horiz-adv-x="723" 
d="M23 1563v39q144 0 238.5 -23t157 -79t89.5 -145.5t27 -226.5q0 -199 13 -301t45.5 -147t96.5 -49h10v-37h-10q-64 -5 -96.5 -51t-45.5 -147.5t-13 -299.5q0 -143 -26.5 -234.5t-90 -147t-157 -77.5t-238.5 -22v39q32 1 51 5.5t37 21t27 44t16.5 78.5t9.5 120t2 173
q0 106 27 190t69.5 137.5t107 93t128.5 60t145 35.5q-81 15 -144.5 35.5t-128.5 60t-107.5 93t-69.5 137t-27 190.5q0 197 -12.5 286.5t-40 118t-90.5 30.5z" />
    <glyph glyph-name="asciitilde" unicode="~" horiz-adv-x="1395" 
d="M434 829q64 0 129.5 -20.5t121 -49.5t110 -58t117.5 -49.5t124 -20.5q164 0 226 160l36 -7q-15 -172 -109.5 -278.5t-221.5 -106.5q-64 0 -129.5 20.5t-121 49.5t-110 58.5t-117.5 50t-124 20.5q-164 0 -226 -160l-37 6q15 172 110 278.5t222 106.5z" />
    <glyph glyph-name="uni00A0" unicode="&#xa0;" horiz-adv-x="457" 
 />
    <glyph glyph-name="exclamdown" unicode="&#xa1;" horiz-adv-x="604" 
d="M303 1092q98 0 150.5 -45t52.5 -132q0 -86 -52.5 -131t-150.5 -45q-99 0 -151 44.5t-52 131.5t52 132t151 45zM283 651h36q7 -106 40 -231t67.5 -216t63 -187.5t28.5 -155.5q0 -118 -59.5 -182t-155.5 -64q-99 0 -159 65.5t-60 180.5q0 57 28.5 152.5t63 188t67.5 218
t40 231.5z" />
    <glyph glyph-name="cent" unicode="&#xa2;" horiz-adv-x="1055" 
d="M950 332l35 -13q-20 -64 -53 -121.5t-82.5 -109t-120 -83t-154.5 -34.5v-342h-45v342q-102 4 -184 36.5t-147 96.5t-100.5 172.5t-35.5 253.5q0 134 35 238.5t98.5 171.5t147.5 104.5t186 45.5v360h45v-358h15q167 0 270 -62q57 -33 90 -88.5t33 -124.5q0 -85 -55.5 -142
t-141.5 -57q-88 0 -138 51t-50 134q0 74 48.5 129.5t119.5 75.5q-33 24 -82 24q-62 0 -109 -36v-766q54 -35 127 -35q149 0 248 137zM446 559q0 -200 84 -291v679q-84 -122 -84 -388z" />
    <glyph glyph-name="sterling" unicode="&#xa3;" horiz-adv-x="1432" 
d="M1098 524l8 33q108 -18 185 -90.5t77 -185.5q0 -149 -92 -229.5t-275 -80.5q-85 0 -171 20t-180.5 52t-143.5 43q-77 16 -100 16q-57 0 -113 -20q-75 -111 -174 -111q-56 0 -56 41q0 34 44.5 62t130.5 45q22 53 29 111t7 160v138v80h-157v41h157v164h-157v41h157v45
q0 608 557 608q158 0 246 -45q127 -67 127 -188q0 -76 -50 -127t-130 -51q-84 0 -134 45.5t-50 118.5q0 66 35 115.5t98 72.5q-48 20 -117 20q-82 0 -126.5 -49.5t-62.5 -158t-18 -308.5v-98h215v-41h-215v-94q0 -26 -4 -70h219v-41h-227q-14 -65 -50.5 -130.5t-69.5 -106.5
t-102.5 -120t-103.5 -120q212 193 396 193q90 0 204 -26t185 -26q60 0 97.5 33.5t37.5 83.5q0 108 -133 135z" />
    <glyph glyph-name="currency" unicode="&#xa4;" horiz-adv-x="1370" 
d="M1272 948l-142 -141q39 -92 39 -193q0 -102 -41 -192l144 -141l-252 -252l-143 141q-94 -39 -193 -39q-101 0 -190 39l-142 -141l-252 252l140 139q-39 92 -39 194q0 101 39 193l-140 141l252 252l140 -141q93 41 192 41q92 0 195 -41l141 141zM688 834q-79 0 -135.5 -65
t-56.5 -155q0 -89 56.5 -153t135.5 -64t135 64t56 153q0 90 -56.5 155t-134.5 65z" />
    <glyph glyph-name="yen" unicode="&#xa5;" horiz-adv-x="1430" 
d="M1213 1446q97 0 158 6v-41q-106 -52 -218 -272l-190 -377v-133h235v-41h-235v-164h235v-41h-235v-166q0 -58 5 -89.5t22.5 -51.5t43 -26.5t74.5 -8.5v-41q-118 6 -352 6q-243 0 -354 -6v41q50 2 76 8.5t43 26.5t21.5 51t4.5 90v166h-236v41h236v164h-236v41h217l-360 665
q-63 115 -118 115v43q126 -12 282 -12q177 0 451 12v-43q-41 0 -63.5 -1t-50 -5t-39.5 -14.5t-12 -26.5q0 -13 9 -31l292 -562l93 185q97 194 97 305q0 145 -164 152v41q153 -6 268 -6z" />
    <glyph glyph-name="brokenbar" unicode="&#xa6;" horiz-adv-x="569" 
d="M408 786h-246v971h246v-971zM408 -399h-246v1067h246v-1067z" />
    <glyph glyph-name="section" unicode="&#xa7;" horiz-adv-x="1290" 
d="M1227 594q0 -101 -62 -181.5t-204 -151.5q81 -72 118 -140t37 -150q0 -162 -149 -259t-387 -97q-173 0 -281 53q-60 32 -90.5 76t-30.5 117q0 68 50.5 117t129.5 49q84 0 134.5 -45.5t50.5 -118.5q0 -60 -32 -109.5t-83 -70.5q10 -10 50 -19.5t83 -9.5q107 0 157 50
t50 126q0 31 -5.5 56.5t-13 45.5t-25.5 41.5t-32.5 36t-46 37.5t-53.5 37.5t-67 43.5t-76 50q-64 43 -98.5 67t-82 59.5t-72.5 59t-54.5 57t-43 62.5t-23 65t-9.5 75q0 101 62 181.5t204 151.5q-82 72 -119 139.5t-37 149.5q0 162 149.5 259.5t387.5 97.5q174 0 280 -54
q60 -32 90.5 -76t30.5 -116q0 -68 -50.5 -117t-129.5 -49q-84 0 -134 45.5t-50 118.5q0 59 31.5 108.5t82.5 71.5q-11 9 -50.5 19t-82.5 10q-106 0 -156.5 -50t-50.5 -127q0 -35 5 -62t21 -53t29.5 -43t47.5 -43t56.5 -41t75 -49.5t85.5 -56.5q63 -42 98 -66t82.5 -59.5
t72.5 -59.5t54 -57t43 -62.5t23.5 -65t9.5 -74.5zM717 438q111 -72 189 -132q26 43 26 112q0 82 -69 150.5t-288 209.5q-127 84 -189 133q-26 -44 -26 -112q0 -83 68.5 -150.5t288.5 -210.5z" />
    <glyph glyph-name="dieresis" unicode="&#xa8;" horiz-adv-x="799" 
d="M156 1581q70 0 124 -53.5t54 -124.5q0 -73 -53.5 -125.5t-124.5 -52.5q-74 0 -126.5 52t-52.5 126q0 71 53 124.5t126 53.5zM643 1581q71 0 124.5 -53.5t53.5 -124.5q0 -73 -53.5 -125.5t-124.5 -52.5q-73 0 -125.5 52.5t-52.5 125.5q0 71 52.5 124.5t125.5 53.5z" />
    <glyph glyph-name="copyright" unicode="&#xa9;" horiz-adv-x="1786" 
d="M893 1602q166 0 317 -64.5t260 -174t173.5 -260.5t64.5 -317t-64.5 -317t-173.5 -260t-260 -173.5t-317 -64.5t-317 64.5t-260 173.5t-173.5 260t-64.5 317t64.5 317t173.5 260.5t260 174t317 64.5zM893 1536q-200 0 -368.5 -100.5t-266.5 -273t-98 -376.5
q0 -203 98 -375.5t266.5 -273t368.5 -100.5q149 0 285 59.5t234 160t156 239t58 290.5q0 153 -58 291.5t-156 239t-234 160t-285 59.5zM946 1348q159 0 271 -62q56 -35 89 -90t33 -123q0 -85 -55.5 -142t-140.5 -57q-89 0 -139 51t-50 134q0 74 48.5 129.5t119.5 75.5
q-45 30 -116 30q-34 0 -62 -8q-70 -21 -105.5 -126t-35.5 -345q0 -98 15 -174t40 -122.5t59 -76.5t68.5 -41.5t73.5 -11.5q149 0 248 199l34 -13q-16 -52 -40.5 -99.5t-62 -94t-83.5 -80t-108.5 -54t-133.5 -20.5q-107 0 -193.5 30t-155 94t-106.5 174.5t-38 260.5
q0 144 40 253.5t112 176t166 99.5t208 33z" />
    <glyph glyph-name="ordfeminine" unicode="&#xaa;" horiz-adv-x="1014" 
d="M514 1479q186 0 269 -61.5t83 -198.5v-353q0 -20 7 -28.5t24 -8.5q25 0 43 15l23 -31q-110 -76 -267 -76q-83 0 -118.5 24.5t-38.5 72.5q-100 -97 -250 -97q-97 0 -154 40.5t-57 121.5q0 82 66 128.5t231 92.5q164 48 164 115v37q0 89 -30 128.5t-89 39.5q-52 0 -84 -23
q50 -14 76 -52t26 -79q0 -64 -50 -100.5t-120 -36.5q-72 0 -115.5 36.5t-43.5 96.5q0 50 32.5 88.5t85.5 61.5q111 47 287 47zM539 870v306q-10 -25 -62 -82q-57 -63 -57 -154q0 -40 16.5 -65t40.5 -25q36 0 62 20z" />
    <glyph glyph-name="guillemotleft" unicode="&#xab;" horiz-adv-x="1257" 
d="M672 1096l28 -9q-29 -132 -105 -304.5t-142 -252.5q66 -80 142 -251.5t105 -303.5l-28 -8q-165 170 -313 301t-314 242v41q165 110 312.5 241.5t314.5 303.5zM1114 1014l29 -8q-20 -110 -78.5 -257.5t-108.5 -218.5q50 -70 108.5 -216.5t78.5 -256.5l-29 -8
q-151 149 -277.5 259t-267.5 202v41q140 91 265.5 200.5t279.5 262.5z" />
    <glyph glyph-name="logicalnot" unicode="&#xac;" horiz-adv-x="1294" 
d="M1165 338h-73v358h-953v62h1026v-420z" />
    <glyph glyph-name="softhyphen" unicode="&#xad;" horiz-adv-x="961" 
 />
    <glyph glyph-name="registered" unicode="&#xae;" horiz-adv-x="1343" 
d="M672 1602q155 0 286.5 -76.5t208 -208.5t76.5 -287t-76.5 -286.5t-208 -208t-286.5 -76.5t-287 76.5t-208.5 208t-76.5 286.5t76.5 287t208.5 208.5t287 76.5zM672 524q132 0 244 68.5t176.5 185t64.5 252.5q0 137 -64.5 253t-176 184.5t-244.5 68.5t-245 -68.5
t-176.5 -184.5t-64.5 -253q0 -136 64.5 -252.5t176.5 -185t245 -68.5zM1018 768l12 -23q-41 -34 -119 -34q-144 0 -159 92l-27 147q-9 48 -26 66.5t-68 24.5v-214q0 -46 8.5 -59t38.5 -16v-31q-18 0 -67.5 1t-78.5 1q-33 0 -87.5 -1t-67.5 -1v31q30 3 38.5 16t8.5 59v449
q0 48 -8.5 61.5t-38.5 16.5v30q33 -2 147 -2q44 0 106 1t70 1q138 0 198 -40.5t60 -120.5q0 -51 -49.5 -97.5t-167.5 -65.5q102 -9 142.5 -36t50.5 -84l35 -145q5 -35 26 -35q12 0 23 8zM668 1354q-21 0 -29 -11t-8 -40v-226h8q56 0 86.5 36t30.5 104q0 66 -22.5 101.5
t-65.5 35.5z" />
    <glyph glyph-name="macron" unicode="&#xaf;" horiz-adv-x="741" 
d="M731 1407h-721v51h721v-51z" />
    <glyph glyph-name="degree" unicode="&#xb0;" horiz-adv-x="608" 
d="M303 1679q104 0 177 -67.5t73 -177.5q0 -112 -73 -180t-177 -68q-102 0 -175 68t-73 180q0 110 73 177.5t175 67.5zM303 1645q-76 0 -136.5 -57.5t-60.5 -155.5q0 -101 60 -156t137 -55t138 55.5t61 155.5q0 98 -61.5 155.5t-137.5 57.5z" />
    <glyph glyph-name="plusminus" unicode="&#xb1;" horiz-adv-x="1161" 
d="M620 758h476v-62h-476v-481h-73v481h-477v62h477v483h73v-483zM1092 0h-1026v62h1026v-62z" />
    <glyph glyph-name="twosuperior" unicode="&#xb2;" horiz-adv-x="735" 
d="M375 1546q106 0 172.5 -38.5t66.5 -112.5q0 -40 -18 -73.5t-56 -64.5t-73.5 -54t-96 -58.5t-98.5 -61.5h281q45 0 63 15t33 55l35 -6q-29 -167 -31 -256q-24 6 -78 6h-532v41q24 21 77.5 61.5t92.5 74t81.5 78t65.5 96t23 106.5q0 47 -30.5 74.5t-86.5 27.5
q-107 0 -170 -90l-30 16q100 164 309 164z" />
    <glyph glyph-name="threesuperior" unicode="&#xb3;" horiz-adv-x="684" 
d="M354 1548q109 0 180.5 -39.5t71.5 -107.5q0 -72 -71 -122.5t-201 -72.5q10 1 31 1q114 0 191 -52.5t77 -136.5q0 -73 -52.5 -130.5t-142.5 -92t-188.5 -54.5t-210.5 -28v35q173 25 270 98t97 188q0 62 -29 104t-80 46q-7 -3 -21 -10.5t-20 -10t-16 -5.5t-19 -3
q-31 0 -31 25q0 32 91 28q50 26 72 68.5t22 81.5q0 47 -32.5 77.5t-90.5 30.5q-52 0 -97 -26.5t-73 -71.5l-31 16q90 164 303 164z" />
    <glyph glyph-name="acute" unicode="&#xb4;" horiz-adv-x="457" 
d="M416 1679q42 -33 42 -92q0 -54 -34 -94q-29 -34 -76 -65t-126 -82.5t-159 -118.5l-22 18q48 96 77.5 187.5t47.5 143.5t49 87q41 49 111 49q51 0 90 -33z" />
    <glyph glyph-name="paragraph" unicode="&#xb6;" horiz-adv-x="1618" 
d="M899 1452q88 0 239.5 -3.5t218.5 -3.5q105 0 179 5v-39q-83 -4 -110 -35.5t-27 -103.5v-1426q0 -59 4.5 -90t21.5 -51t43 -26.5t76 -8.5v-41q-144 6 -424 6q-233 0 -344 -6v41q126 4 166.5 44.5t40.5 152.5v106q-198 0 -354.5 38t-261.5 105t-174 164t-99.5 210
t-30.5 247q0 156 57.5 288t163.5 226.5t264 147.5t351 53zM985 98v1245q-11 0 -34 -75t-45.5 -215.5t-26.5 -282.5q-161 0 -316 -11t-236 -22.5t-81 -17.5q0 -8 81.5 -19t235 -20.5t316.5 -9.5q4 -147 26.5 -287t45.5 -212.5t34 -72.5z" />
    <glyph glyph-name="periodcentered" unicode="&#xb7;" horiz-adv-x="590" 
d="M295 770q98 0 150.5 -45t52.5 -132q0 -86 -52.5 -131t-150.5 -45q-99 0 -151 44.5t-52 131.5t52 132t151 45z" />
    <glyph glyph-name="cedilla" unicode="&#xb8;" horiz-adv-x="467" 
d="M205 0l-35 -123q72 31 162 31q74 0 112.5 -33t38.5 -86q0 -86 -88.5 -130t-234.5 -44q-114 0 -185 27l13 36q45 -10 98 -10q50 0 88.5 20t38.5 58q0 51 -57 51q-43 0 -68 -14l62 217h55z" />
    <glyph glyph-name="onesuperior" unicode="&#xb9;" horiz-adv-x="608" 
d="M451 1542v-504q0 -58 30.5 -79t106.5 -21v-43q-102 4 -260 4t-260 -4v43q76 0 113.5 21.5t37.5 78.5v265q0 86 -32.5 109.5t-133.5 23.5v43q142 2 231 15.5t167 47.5z" />
    <glyph glyph-name="ordmasculine" unicode="&#xba;" horiz-adv-x="979" 
d="M489 1479q194 0 309 -96t115 -275t-115 -275t-309 -96q-193 0 -308 96t-115 275t115 275t308 96zM489 1442q-81 0 -81 -334t81 -334q82 0 82 334t-82 334z" />
    <glyph glyph-name="guillemotright" unicode="&#xbb;" horiz-adv-x="1257" 
d="M557 1087l29 9q164 -170 312.5 -302t313.5 -243v-41q-289 -193 -626 -543l-29 8q30 132 106 304t142 251q-66 80 -142 252.5t-106 304.5zM115 1006l28 8q154 -153 279.5 -262.5t265.5 -200.5v-41q-141 -92 -267.5 -202t-277.5 -259l-28 8q19 108 77.5 255t108.5 218
q-50 71 -108.5 219t-77.5 257z" />
    <glyph glyph-name="onequarter" unicode="&#xbc;" horiz-adv-x="1475" 
d="M1417 1661l-1198 -1774l-39 27l1198 1774zM99 895v43q76 0 113.5 21.5t37.5 78.5v265q0 86 -32.5 109.5t-133.5 23.5v43q142 2 231 15.5t167 47.5v-504q0 -58 30.5 -79t106.5 -21v-43q-102 4 -260 4t-260 -4zM1166 178h37q45 0 62.5 15t33.5 55l35 -6q-21 -59 -29 -211
q-25 6 -78 6h-61v-240h-170v240h-404v43l531 571h43v-473zM996 178v289l-268 -289h268z" />
    <glyph glyph-name="onehalf" unicode="&#xbd;" horiz-adv-x="1503" 
d="M1385 1661l-1198 -1774l-39 27l1198 1774zM476 1542v-504q0 -58 30.5 -79t106.5 -21v-43q-102 4 -260 4t-260 -4v43q76 0 113.5 21.5t37.5 78.5v265q0 86 -32.5 109.5t-133.5 23.5v43q142 2 231 15.5t167 47.5zM1131 651q106 0 172.5 -38.5t66.5 -112.5q0 -40 -18 -73.5
t-56 -64.5t-73.5 -54t-96 -58.5t-98.5 -61.5h281q45 0 63 15t33 55l35 -6q-29 -167 -31 -256q-24 6 -78 6h-532v41q24 21 77.5 61.5t92.5 74t81.5 78t65.5 96t23 106.5q0 47 -30.5 74.5t-86.5 27.5q-107 0 -170 -90l-30 16q100 164 309 164z" />
    <glyph glyph-name="threequarters" unicode="&#xbe;" horiz-adv-x="1552" 
d="M1495 1661l-1198 -1774l-39 27l1198 1774zM674 1018q0 -73 -52.5 -130.5t-142.5 -92t-188.5 -54.5t-210.5 -28v35q173 25 270 98t97 188q0 62 -29 104t-80 46q-7 -3 -21 -10.5t-20 -10t-16 -5.5t-19 -3q-31 0 -31 25q0 32 91 28q50 26 72 68.5t22 81.5q0 47 -32.5 77.5
t-90.5 30.5q-52 0 -97 -26.5t-73 -71.5l-31 16q90 164 303 164q109 0 180.5 -39.5t71.5 -107.5q0 -72 -71 -122.5t-201 -72.5q10 1 31 1q114 0 191 -52.5t77 -136.5zM1258 178h37q45 0 62.5 15t33.5 55l35 -6q-21 -59 -29 -211q-25 6 -78 6h-61v-240h-170v240h-404v43
l531 571h43v-473zM1088 178v289l-268 -289h268z" />
    <glyph glyph-name="questiondown" unicode="&#xbf;" horiz-adv-x="1098" 
d="M639 1094q98 0 150.5 -45t52.5 -132q0 -86 -52.5 -131t-150.5 -45q-99 0 -151 44.5t-52 131.5t52 132t151 45zM659 666v-287q-73 -36 -121.5 -80.5t-73 -97t-33.5 -103t-9 -116.5q0 -166 61 -246t166 -80q120 0 162 39q-133 50 -133 180q0 73 54.5 122.5t141.5 49.5
q75 0 121.5 -48.5t46.5 -115.5q0 -70 -34.5 -116t-96.5 -80q-127 -72 -323 -72q-241 0 -387 99t-146 270q0 154 151.5 260t411.5 153v269h41z" />
    <glyph glyph-name="Agrave" unicode="&#xc0;" horiz-adv-x="1417" 
d="M398 1686q-36 18 -57 50.5t-21 69.5q0 27 12 54q19 38 54 57.5t76 19.5q33 0 63 -14q34 -16 66 -47t58 -65.5t80 -92t119 -112.5l-14 -25q-99 31 -192 47.5t-148.5 26.5t-95.5 31zM815 1450l496 -1278q26 -66 58 -97.5t63 -33.5v-41q-148 6 -373 6q-235 0 -344 -6v41
q77 3 110.5 19t33.5 56q0 31 -25 97l-122 336h-413l-35 -92q-66 -172 -66 -267q0 -84 46.5 -115t138.5 -34v-41q-153 6 -268 6q-97 0 -158 -6v41q50 8 95.5 63t92.5 177l455 1169q44 -4 108 -4t107 4zM698 590l-186 512l-197 -512h383z" />
    <glyph glyph-name="Aacute" unicode="&#xc1;" horiz-adv-x="1417" 
d="M996 1686q-40 -21 -96 -31t-149 -26.5t-192 -47.5l-14 25q66 55 119.5 112.5t80 92t58.5 65.5t66 47q28 14 63 14q40 0 75 -19.5t54 -57.5q12 -27 12 -54q0 -37 -20.5 -70t-56.5 -50zM815 1450l496 -1278q26 -66 58 -97.5t63 -33.5v-41q-148 6 -373 6q-235 0 -344 -6v41
q77 3 110.5 19t33.5 56q0 31 -25 97l-122 336h-413l-35 -92q-66 -172 -66 -267q0 -84 46.5 -115t138.5 -34v-41q-153 6 -268 6q-97 0 -158 -6v41q50 8 95.5 63t92.5 177l455 1169q44 -4 108 -4t107 4zM698 590l-186 512l-197 -512h383z" />
    <glyph glyph-name="Acircumflex" unicode="&#xc2;" horiz-adv-x="1417" 
d="M670 1700q-68 -34 -182 -68.5t-229 -56.5l-11 31q130 62 248.5 156.5t196.5 195.5h37q73 -98 192 -193.5t252 -158.5l-10 -31q-310 48 -494 125zM815 1450l496 -1278q26 -66 58 -97.5t63 -33.5v-41q-148 6 -373 6q-235 0 -344 -6v41q77 3 110.5 19t33.5 56q0 31 -25 97
l-122 336h-413l-35 -92q-66 -172 -66 -267q0 -84 46.5 -115t138.5 -34v-41q-153 6 -268 6q-97 0 -158 -6v41q50 8 95.5 63t92.5 177l455 1169q44 -4 108 -4t107 4zM698 590l-186 512l-197 -512h383z" />
    <glyph glyph-name="Atilde" unicode="&#xc3;" horiz-adv-x="1417" 
d="M443 1704q-114 0 -199 -111l-28 15q39 159 120.5 236t184.5 77q60 0 113 -14t91.5 -33.5t75 -39.5t81 -34t92.5 -14q115 0 198 108l29 -14q-39 -159 -120 -236t-183 -77q-74 0 -139.5 21.5t-105 47t-96 47t-114.5 21.5zM815 1450l496 -1278q26 -66 58 -97.5t63 -33.5v-41
q-148 6 -373 6q-235 0 -344 -6v41q77 3 110.5 19t33.5 56q0 31 -25 97l-122 336h-413l-35 -92q-66 -172 -66 -267q0 -84 46.5 -115t138.5 -34v-41q-153 6 -268 6q-97 0 -158 -6v41q50 8 95.5 63t92.5 177l455 1169q44 -4 108 -4t107 4zM698 590l-186 512l-197 -512h383z" />
    <glyph glyph-name="Adieresis" unicode="&#xc4;" horiz-adv-x="1417" 
d="M447 1561q-74 0 -126 52t-52 126q0 71 52.5 124.5t125.5 53.5q71 0 124.5 -53.5t53.5 -124.5q0 -73 -53.5 -125.5t-124.5 -52.5zM975 1561q-74 0 -126 52t-52 126q0 71 52.5 124.5t125.5 53.5q71 0 124.5 -53.5t53.5 -124.5q0 -73 -53.5 -125.5t-124.5 -52.5zM815 1450
l496 -1278q26 -66 58 -97.5t63 -33.5v-41q-148 6 -373 6q-235 0 -344 -6v41q77 3 110.5 19t33.5 56q0 31 -25 97l-122 336h-413l-35 -92q-66 -172 -66 -267q0 -84 46.5 -115t138.5 -34v-41q-153 6 -268 6q-97 0 -158 -6v41q50 8 95.5 63t92.5 177l455 1169q44 -4 108 -4
t107 4zM698 590l-186 512l-197 -512h383z" />
    <glyph glyph-name="Aring" unicode="&#xc5;" horiz-adv-x="1417" 
d="M711 1520q-98 0 -167.5 57.5t-69.5 151.5q0 92 70 149t167 57q99 0 169.5 -57t70.5 -149q0 -94 -70.5 -151.5t-169.5 -57.5zM711 1892q-70 0 -125 -45t-55 -121q0 -77 54.5 -120t125.5 -43q73 0 128 43t55 120q0 76 -55.5 121t-127.5 45zM815 1450l496 -1278
q26 -66 58 -97.5t63 -33.5v-41q-148 6 -373 6q-235 0 -344 -6v41q77 3 110.5 19t33.5 56q0 31 -25 97l-122 336h-413l-35 -92q-66 -172 -66 -267q0 -84 46.5 -115t138.5 -34v-41q-153 6 -268 6q-97 0 -158 -6v41q50 8 95.5 63t92.5 177l455 1169q44 -4 108 -4t107 4z
M698 590l-186 512l-197 -512h383z" />
    <glyph glyph-name="AE" unicode="&#xc6;" horiz-adv-x="1868" 
d="M1765 303q0 -184 15 -303q-140 6 -469 6q-437 0 -656 -6v41q50 2 76 8.5t43.5 26.5t22 51t4.5 90v492h-332l-285 -496q-36 -65 -36 -100q0 -36 34 -52.5t107 -19.5v-41q-61 6 -187 6q-87 0 -137 -6v41q34 2 67 31t74 100l682 1180q-13 31 -42 42.5t-91 14.5v41
q59 -2 187 -4l78 135h49l-78 -135q165 -2 420 -2q301 0 428 6q-15 -181 -15 -303q0 -99 7 -148h-48q-30 215 -109 309.5t-185 94.5h-27q-64 0 -92.5 -12t-40.5 -46.5t-12 -111.5v-483h81q120 0 172 158q9 27 25 91h47q-7 -95 -7 -179q0 -18 0.5 -48t0.5 -43q0 -96 12 -270
h-47q-8 42 -16 73t-24 66.5t-36.5 58t-53 37.5t-73.5 15h-81v-492q0 -77 12 -111.5t40.5 -46.5t92.5 -12h68q33 0 66.5 13.5t70.5 46.5t67.5 82t55 127.5t34.5 175.5h48q-7 -70 -7 -189zM801 750v483q0 37 -1 53l-308 -536h309z" />
    <glyph glyph-name="Ccedilla" unicode="&#xc7;" horiz-adv-x="1468" 
d="M1309 532h47q0 -381 8 -532h-47q-5 64 -16.5 92.5t-33.5 28.5q-16 0 -42 -17q-89 -62 -167 -95.5t-186 -37.5l-28 -94q81 31 182 31q84 0 128 -33t44 -86q0 -86 -105 -130t-280 -44q-126 0 -205 27l13 36q55 -10 119 -10q76 0 132 20t56 58q0 51 -98 51q-43 0 -68 -14
l55 188q-224 6 -391 94.5t-259.5 255t-92.5 392.5t98 400.5t274 270t402 95.5q122 0 208.5 -35t168.5 -98q23 -18 40 -18q42 0 52 122h47q-8 -145 -8 -512h-47q-16 163 -54.5 258t-134.5 158q-94 61 -190 61q-65 0 -120 -22.5t-94 -61t-69.5 -93.5t-49 -115t-31 -130.5
t-17 -136t-4.5 -135.5t4.5 -135.5t17 -136t31 -130.5t49 -115t69.5 -93.5t94 -61t120 -22.5q96 0 190 61q96 59 134.5 159.5t54.5 284.5z" />
    <glyph glyph-name="Egrave" unicode="&#xc8;" horiz-adv-x="1331" 
d="M342 1686q-36 18 -57 50.5t-21 69.5q0 27 12 54q19 38 54 57.5t76 19.5q33 0 63 -14q34 -16 66 -47t58 -65.5t80 -92t119 -112.5l-14 -25q-99 31 -192 47.5t-148.5 26.5t-95.5 31zM1229 344q0 -209 14 -344q-139 6 -469 6q-479 0 -717 -6v41q50 2 76 8.5t43.5 26.5t22 51
t4.5 90v1016q0 58 -5 89.5t-22.5 51.5t-43.5 26.5t-75 8.5v41q238 -6 717 -6q301 0 428 6q-14 -192 -14 -344q0 -96 6 -148h-47q-18 123 -56 212t-89.5 138.5t-108.5 72t-123 22.5h-27q-80 0 -102.5 -23t-22.5 -106v-524h21q73 0 134.5 44t96.5 103t48 123h47
q-8 -120 -8 -199q0 -18 0.5 -48t0.5 -44q0 -88 13 -291h-47q-19 118 -96 194.5t-189 76.5h-21v-533q0 -84 22.5 -106.5t102.5 -22.5h68q54 0 107.5 25t106.5 78t96 151.5t67 230.5h47q-6 -74 -6 -188z" />
    <glyph glyph-name="Eacute" unicode="&#xc9;" horiz-adv-x="1331" 
d="M940 1686q-40 -21 -96 -31t-149 -26.5t-192 -47.5l-14 25q66 55 119.5 112.5t80 92t58.5 65.5t66 47q28 14 63 14q40 0 75 -19.5t54 -57.5q12 -27 12 -54q0 -37 -20.5 -70t-56.5 -50zM1229 344q0 -209 14 -344q-139 6 -469 6q-479 0 -717 -6v41q50 2 76 8.5t43.5 26.5
t22 51t4.5 90v1016q0 58 -5 89.5t-22.5 51.5t-43.5 26.5t-75 8.5v41q238 -6 717 -6q301 0 428 6q-14 -192 -14 -344q0 -96 6 -148h-47q-18 123 -56 212t-89.5 138.5t-108.5 72t-123 22.5h-27q-80 0 -102.5 -23t-22.5 -106v-524h21q73 0 134.5 44t96.5 103t48 123h47
q-8 -120 -8 -199q0 -18 0.5 -48t0.5 -44q0 -88 13 -291h-47q-19 118 -96 194.5t-189 76.5h-21v-533q0 -84 22.5 -106.5t102.5 -22.5h68q54 0 107.5 25t106.5 78t96 151.5t67 230.5h47q-6 -74 -6 -188z" />
    <glyph glyph-name="Ecircumflex" unicode="&#xca;" horiz-adv-x="1331" 
d="M614 1700q-68 -34 -182 -68.5t-229 -56.5l-11 31q130 62 248.5 156.5t196.5 195.5h37q73 -98 192 -193.5t252 -158.5l-10 -31q-310 48 -494 125zM1229 344q0 -209 14 -344q-139 6 -469 6q-479 0 -717 -6v41q50 2 76 8.5t43.5 26.5t22 51t4.5 90v1016q0 58 -5 89.5
t-22.5 51.5t-43.5 26.5t-75 8.5v41q238 -6 717 -6q301 0 428 6q-14 -192 -14 -344q0 -96 6 -148h-47q-18 123 -56 212t-89.5 138.5t-108.5 72t-123 22.5h-27q-80 0 -102.5 -23t-22.5 -106v-524h21q73 0 134.5 44t96.5 103t48 123h47q-8 -120 -8 -199q0 -18 0.5 -48t0.5 -44
q0 -88 13 -291h-47q-19 118 -96 194.5t-189 76.5h-21v-533q0 -84 22.5 -106.5t102.5 -22.5h68q54 0 107.5 25t106.5 78t96 151.5t67 230.5h47q-6 -74 -6 -188z" />
    <glyph glyph-name="Edieresis" unicode="&#xcb;" horiz-adv-x="1331" 
d="M391 1561q-74 0 -126 52t-52 126q0 71 52.5 124.5t125.5 53.5q71 0 124.5 -53.5t53.5 -124.5q0 -73 -53.5 -125.5t-124.5 -52.5zM919 1561q-74 0 -126 52t-52 126q0 71 52.5 124.5t125.5 53.5q71 0 124.5 -53.5t53.5 -124.5q0 -73 -53.5 -125.5t-124.5 -52.5zM1229 344
q0 -209 14 -344q-139 6 -469 6q-479 0 -717 -6v41q50 2 76 8.5t43.5 26.5t22 51t4.5 90v1016q0 58 -5 89.5t-22.5 51.5t-43.5 26.5t-75 8.5v41q238 -6 717 -6q301 0 428 6q-14 -192 -14 -344q0 -96 6 -148h-47q-18 123 -56 212t-89.5 138.5t-108.5 72t-123 22.5h-27
q-80 0 -102.5 -23t-22.5 -106v-524h21q73 0 134.5 44t96.5 103t48 123h47q-8 -120 -8 -199q0 -18 0.5 -48t0.5 -44q0 -88 13 -291h-47q-19 118 -96 194.5t-189 76.5h-21v-533q0 -84 22.5 -106.5t102.5 -22.5h68q54 0 107.5 25t106.5 78t96 151.5t67 230.5h47q-6 -74 -6 -188
z" />
    <glyph glyph-name="Igrave" unicode="&#xcc;" horiz-adv-x="821" 
d="M236 1923q34 -16 66 -47t58 -65.5t80 -92t119 -112.5l-14 -25q-99 31 -192 47.5t-148.5 26.5t-95.5 31q-36 18 -57 50.5t-21 69.5q0 27 12 54q19 38 54 57.5t76 19.5q33 0 63 -14zM764 1450v-41q-50 -2 -76 -8.5t-43.5 -26.5t-22 -51t-4.5 -90v-1016q0 -58 5 -89.5
t22.5 -51.5t43.5 -26.5t75 -8.5v-41q-120 6 -342 6q-248 0 -365 -6v41q50 2 76 8.5t43.5 26.5t22 51t4.5 90v1016q0 58 -5 89.5t-22.5 51.5t-43.5 26.5t-75 8.5v41q117 -6 365 -6q222 0 342 6z" />
    <glyph glyph-name="Iacute" unicode="&#xcd;" horiz-adv-x="821" 
d="M580 1923q28 14 63 14q40 0 75 -19.5t54 -57.5q12 -27 12 -54q0 -37 -20.5 -70t-56.5 -50q-40 -21 -96 -31t-149 -26.5t-192 -47.5l-14 25q66 55 119.5 112.5t80 92t58.5 65.5t66 47zM764 1450v-41q-50 -2 -76 -8.5t-43.5 -26.5t-22 -51t-4.5 -90v-1016q0 -58 5 -89.5
t22.5 -51.5t43.5 -26.5t75 -8.5v-41q-120 6 -342 6q-248 0 -365 -6v41q50 2 76 8.5t43.5 26.5t22 51t4.5 90v1016q0 58 -5 89.5t-22.5 51.5t-43.5 26.5t-75 8.5v41q117 -6 365 -6q222 0 342 6z" />
    <glyph glyph-name="Icircumflex" unicode="&#xce;" horiz-adv-x="821" 
d="M404 1958h37q73 -98 192 -193.5t252 -158.5l-10 -31q-310 48 -494 125q-68 -34 -182 -68.5t-229 -56.5l-11 31q130 62 248.5 156.5t196.5 195.5zM764 1450v-41q-50 -2 -76 -8.5t-43.5 -26.5t-22 -51t-4.5 -90v-1016q0 -58 5 -89.5t22.5 -51.5t43.5 -26.5t75 -8.5v-41
q-120 6 -342 6q-248 0 -365 -6v41q50 2 76 8.5t43.5 26.5t22 51t4.5 90v1016q0 58 -5 89.5t-22.5 51.5t-43.5 26.5t-75 8.5v41q117 -6 365 -6q222 0 342 6z" />
    <glyph glyph-name="Idieresis" unicode="&#xcf;" horiz-adv-x="821" 
d="M158 1917q70 0 124 -53.5t54 -124.5q0 -73 -53.5 -125.5t-124.5 -52.5q-74 0 -126 52t-52 126q0 71 52.5 124.5t125.5 53.5zM686 1917q70 0 124 -53.5t54 -124.5q0 -73 -53.5 -125.5t-124.5 -52.5q-74 0 -126 52t-52 126q0 71 52.5 124.5t125.5 53.5zM764 1450v-41
q-50 -2 -76 -8.5t-43.5 -26.5t-22 -51t-4.5 -90v-1016q0 -58 5 -89.5t22.5 -51.5t43.5 -26.5t75 -8.5v-41q-120 6 -342 6q-248 0 -365 -6v41q50 2 76 8.5t43.5 26.5t22 51t4.5 90v1016q0 58 -5 89.5t-22.5 51.5t-43.5 26.5t-75 8.5v41q117 -6 365 -6q222 0 342 6z" />
    <glyph glyph-name="Eth" unicode="&#xd0;" horiz-adv-x="1661" 
d="M739 1450q425 0 635.5 -181t210.5 -528q0 -338 -230 -539.5t-634 -201.5q-29 0 -143 3t-164 3q-240 0 -357 -6v41q50 2 76 8.5t43.5 26.5t22 51t4.5 90v492h-146v41h146v483q0 58 -5 89.5t-22.5 51.5t-43.5 26.5t-75 8.5v41q149 -7 280 -7q12 0 36.5 0.5t36.5 0.5
q300 6 329 6zM772 37q203 0 293 175t90 521q0 347 -93 513.5t-292 166.5q-93 0 -122.5 -34.5t-29.5 -141.5v-487h234v-41h-234v-496q0 -108 29.5 -142t124.5 -34z" />
    <glyph glyph-name="Ntilde" unicode="&#xd1;" horiz-adv-x="1499" 
d="M592 1921q60 0 113 -14t91.5 -33.5t75 -39.5t81 -34t92.5 -14q115 0 198 108l29 -14q-39 -159 -120 -236t-183 -77q-74 0 -139.5 21.5t-105 47t-96 47t-114.5 21.5q-114 0 -199 -111l-28 15q39 159 120.5 236t184.5 77zM1450 1450v-41q-92 -20 -118.5 -81t-26.5 -238
v-1090q-30 3 -67 3q-36 0 -77 -3l-907 991v-590q0 -58 1 -93.5t4 -74t9 -60t16.5 -44.5t25 -35t37 -23.5t49.5 -18t65 -11.5v-41q-83 6 -230 6q-109 0 -170 -6v41q92 20 119 81t27 238v873q0 58 -5 89.5t-22.5 51.5t-43.5 26.5t-75 8.5v41q62 -6 170 -6q112 0 189 6
l837 -885v484q0 77 -1.5 120.5t-9 87.5t-19.5 65.5t-36.5 41.5t-57 29t-82.5 16v41q83 -6 229 -6q108 0 170 6z" />
    <glyph glyph-name="Ograve" unicode="&#xd2;" horiz-adv-x="1694" 
d="M658 1923q34 -16 66 -47t58 -65.5t80 -92t119 -112.5l-14 -25q-99 31 -192 47.5t-148.5 26.5t-95.5 31q-36 18 -57 50.5t-21 69.5q0 27 12 54q19 38 54 57.5t76 19.5q33 0 63 -14zM848 1479q352 0 562 -197.5t210 -544.5q0 -226 -98.5 -400.5t-274.5 -270t-401 -95.5
q-352 0 -562 197.5t-210 544.5q0 226 98 400.5t274 270t402 95.5zM840 1442q-152 0 -244 -200t-92 -521q0 -319 101 -516t249 -197q152 0 244 200t92 521q0 319 -101 516t-249 197z" />
    <glyph glyph-name="Oacute" unicode="&#xd3;" horiz-adv-x="1694" 
d="M1002 1923q28 14 63 14q40 0 75 -19.5t54 -57.5q12 -27 12 -54q0 -37 -20.5 -70t-56.5 -50q-40 -21 -96 -31t-149 -26.5t-192 -47.5l-14 25q66 55 119.5 112.5t80 92t58.5 65.5t66 47zM848 1479q352 0 562 -197.5t210 -544.5q0 -226 -98.5 -400.5t-274.5 -270t-401 -95.5
q-352 0 -562 197.5t-210 544.5q0 226 98 400.5t274 270t402 95.5zM840 1442q-152 0 -244 -200t-92 -521q0 -319 101 -516t249 -197q152 0 244 200t92 521q0 319 -101 516t-249 197z" />
    <glyph glyph-name="Ocircumflex" unicode="&#xd4;" horiz-adv-x="1694" 
d="M826 1958h37q73 -98 192 -193.5t252 -158.5l-10 -31q-310 48 -494 125q-68 -34 -182 -68.5t-229 -56.5l-11 31q130 62 248.5 156.5t196.5 195.5zM848 1479q352 0 562 -197.5t210 -544.5q0 -226 -98.5 -400.5t-274.5 -270t-401 -95.5q-352 0 -562 197.5t-210 544.5
q0 226 98 400.5t274 270t402 95.5zM840 1442q-152 0 -244 -200t-92 -521q0 -319 101 -516t249 -197q152 0 244 200t92 521q0 319 -101 516t-249 197z" />
    <glyph glyph-name="Otilde" unicode="&#xd5;" horiz-adv-x="1694" 
d="M654 1921q60 0 113 -14t91.5 -33.5t75 -39.5t81 -34t92.5 -14q115 0 198 108l29 -14q-39 -159 -120 -236t-183 -77q-74 0 -139.5 21.5t-105 47t-96 47t-114.5 21.5q-114 0 -199 -111l-28 15q39 159 120.5 236t184.5 77zM848 1479q352 0 562 -197.5t210 -544.5
q0 -226 -98.5 -400.5t-274.5 -270t-401 -95.5q-352 0 -562 197.5t-210 544.5q0 226 98 400.5t274 270t402 95.5zM840 1442q-152 0 -244 -200t-92 -521q0 -319 101 -516t249 -197q152 0 244 200t92 521q0 319 -101 516t-249 197z" />
    <glyph glyph-name="Odieresis" unicode="&#xd6;" horiz-adv-x="1694" 
d="M580 1917q70 0 124 -53.5t54 -124.5q0 -73 -53.5 -125.5t-124.5 -52.5q-74 0 -126 52t-52 126q0 71 52.5 124.5t125.5 53.5zM1108 1917q70 0 124 -53.5t54 -124.5q0 -73 -53.5 -125.5t-124.5 -52.5q-74 0 -126 52t-52 126q0 71 52.5 124.5t125.5 53.5zM848 1479
q352 0 562 -197.5t210 -544.5q0 -226 -98.5 -400.5t-274.5 -270t-401 -95.5q-352 0 -562 197.5t-210 544.5q0 226 98 400.5t274 270t402 95.5zM840 1442q-152 0 -244 -200t-92 -521q0 -319 101 -516t249 -197q152 0 244 200t92 521q0 319 -101 516t-249 197z" />
    <glyph glyph-name="multiply" unicode="&#xd7;" horiz-adv-x="987" 
d="M496 772l354 354l45 -45l-354 -352l354 -354l-45 -45l-354 354l-357 -356l-45 45l357 354l-359 358l45 45z" />
    <glyph glyph-name="Oslash" unicode="&#xd8;" horiz-adv-x="1694" 
d="M1423 1577l-137 -204q160 -91 247 -253.5t87 -382.5q0 -226 -98.5 -400.5t-274.5 -270t-401 -95.5q-247 0 -427 99l-173 -240l-43 29l172 238q-145 94 -223 250.5t-78 365.5q0 226 98 400.5t274 270t402 95.5q223 0 395 -83l141 208zM840 1442q-152 0 -244 -200t-92 -521
q0 -221 53 -396l550 882q-49 113 -118.5 174t-148.5 61zM854 8q152 0 244 200t92 521q0 242 -62 422l-550 -887q49 -122 121 -189t155 -67z" />
    <glyph glyph-name="Ugrave" unicode="&#xd9;" horiz-adv-x="1419" 
d="M553 1923q34 -16 66 -47t58 -65.5t80 -92t119 -112.5l-14 -25q-99 31 -192 47.5t-148.5 26.5t-95.5 31q-36 18 -57 50.5t-21 69.5q0 27 12 54q19 38 54 57.5t76 19.5q33 0 63 -14zM1395 1450v-41q-92 -20 -119 -81t-27 -238v-494q0 -297 -84 -434q-114 -191 -440 -191
q-247 0 -385 99q-99 72 -133.5 192.5t-34.5 327.5v643q0 59 -4.5 90t-21.5 51t-43 26.5t-76 8.5v41q115 -6 360 -6q241 0 367 6v-41q-56 -2 -85.5 -8.5t-49.5 -26.5t-25.5 -51.5t-5.5 -89.5v-836q0 -196 61.5 -275t194.5 -79q100 0 171 37.5t111 110t58 166t18 216.5v476
q0 58 -1 93.5t-4 74t-9 60t-16.5 44.5t-25 35t-37 23.5t-49.5 18t-65 11.5v41q84 -6 230 -6q109 0 170 6z" />
    <glyph glyph-name="Uacute" unicode="&#xda;" horiz-adv-x="1419" 
d="M897 1923q28 14 63 14q40 0 75 -19.5t54 -57.5q12 -27 12 -54q0 -37 -20.5 -70t-56.5 -50q-40 -21 -96 -31t-149 -26.5t-192 -47.5l-14 25q66 55 119.5 112.5t80 92t58.5 65.5t66 47zM1395 1450v-41q-92 -20 -119 -81t-27 -238v-494q0 -297 -84 -434q-114 -191 -440 -191
q-247 0 -385 99q-99 72 -133.5 192.5t-34.5 327.5v643q0 59 -4.5 90t-21.5 51t-43 26.5t-76 8.5v41q115 -6 360 -6q241 0 367 6v-41q-56 -2 -85.5 -8.5t-49.5 -26.5t-25.5 -51.5t-5.5 -89.5v-836q0 -196 61.5 -275t194.5 -79q100 0 171 37.5t111 110t58 166t18 216.5v476
q0 58 -1 93.5t-4 74t-9 60t-16.5 44.5t-25 35t-37 23.5t-49.5 18t-65 11.5v41q84 -6 230 -6q109 0 170 6z" />
    <glyph glyph-name="Ucircumflex" unicode="&#xdb;" horiz-adv-x="1419" 
d="M721 1958h37q73 -98 192 -193.5t252 -158.5l-10 -31q-310 48 -494 125q-68 -34 -182 -68.5t-229 -56.5l-11 31q130 62 248.5 156.5t196.5 195.5zM1395 1450v-41q-92 -20 -119 -81t-27 -238v-494q0 -297 -84 -434q-114 -191 -440 -191q-247 0 -385 99q-99 72 -133.5 192.5
t-34.5 327.5v643q0 59 -4.5 90t-21.5 51t-43 26.5t-76 8.5v41q115 -6 360 -6q241 0 367 6v-41q-56 -2 -85.5 -8.5t-49.5 -26.5t-25.5 -51.5t-5.5 -89.5v-836q0 -196 61.5 -275t194.5 -79q100 0 171 37.5t111 110t58 166t18 216.5v476q0 58 -1 93.5t-4 74t-9 60t-16.5 44.5
t-25 35t-37 23.5t-49.5 18t-65 11.5v41q84 -6 230 -6q109 0 170 6z" />
    <glyph glyph-name="Udieresis" unicode="&#xdc;" horiz-adv-x="1419" 
d="M475 1917q71 0 124.5 -53.5t53.5 -124.5q0 -73 -53.5 -125.5t-124.5 -52.5q-74 0 -126 52t-52 126q0 71 52.5 124.5t125.5 53.5zM1003 1917q71 0 124.5 -53.5t53.5 -124.5q0 -73 -53.5 -125.5t-124.5 -52.5q-74 0 -126 52t-52 126q0 71 52.5 124.5t125.5 53.5zM1395 1450
v-41q-92 -20 -119 -81t-27 -238v-494q0 -297 -84 -434q-114 -191 -440 -191q-247 0 -385 99q-99 72 -133.5 192.5t-34.5 327.5v643q0 59 -4.5 90t-21.5 51t-43 26.5t-76 8.5v41q115 -6 360 -6q241 0 367 6v-41q-56 -2 -85.5 -8.5t-49.5 -26.5t-25.5 -51.5t-5.5 -89.5v-836
q0 -196 61.5 -275t194.5 -79q100 0 171 37.5t111 110t58 166t18 216.5v476q0 58 -1 93.5t-4 74t-9 60t-16.5 44.5t-25 35t-37 23.5t-49.5 18t-65 11.5v41q84 -6 230 -6q109 0 170 6z" />
    <glyph glyph-name="Yacute" unicode="&#xdd;" horiz-adv-x="1319" 
d="M998 1686q-40 -21 -96 -31t-149 -26.5t-192 -47.5l-14 25q66 55 119.5 112.5t80 92t58.5 65.5t66 47q28 14 63 14q40 0 75 -19.5t54 -57.5q12 -27 12 -54q0 -37 -20.5 -70t-56.5 -50zM1145 1446q97 0 158 6v-41q-106 -52 -218 -272l-190 -377v-545q0 -58 5 -89.5
t22.5 -51.5t43 -26.5t74.5 -8.5v-41q-118 6 -352 6q-243 0 -354 -6v41q50 2 76 8.5t43 26.5t21.5 51t4.5 90v377l-379 700q-63 115 -118 115v43q126 -12 282 -12q177 0 451 12v-43q-41 0 -63.5 -1t-50 -5t-39.5 -14.5t-12 -26.5q0 -13 9 -31l292 -562l93 185q97 194 97 305
q0 145 -164 152v41q153 -6 268 -6z" />
    <glyph glyph-name="Thorn" unicode="&#xde;" horiz-adv-x="1327" 
d="M618 311v-94q0 -58 5 -89.5t22.5 -51.5t43.5 -26.5t75 -8.5v-41q-120 6 -342 6q-248 0 -365 -6v41q50 2 76 8.5t43.5 26.5t22 51t4.5 90v1016q0 58 -5 89.5t-22.5 51.5t-43.5 26.5t-75 8.5v41q117 -6 365 -6q222 0 342 6v-41q-50 -2 -76 -8.5t-43.5 -26.5t-22 -51
t-4.5 -90v-60l66 1q313 0 464.5 -95t151.5 -295q0 -78 -18 -144.5t-64.5 -128.5t-119.5 -105t-190 -69t-269 -26h-21zM633 1135h-15v-783q61 0 106.5 22t73 58.5t44 91t22.5 111t6 127.5q0 190 -54.5 281.5t-182.5 91.5z" />
    <glyph glyph-name="germandbls" unicode="&#xdf;" horiz-adv-x="1444" 
d="M727 1602q224 0 350.5 -88t126.5 -222q0 -147 -137.5 -255.5t-353.5 -149.5q344 -38 521 -176.5t177 -335.5q0 -128 -73.5 -221.5t-187 -138t-249.5 -44.5q-315 0 -315 234q0 89 46 143.5t126 54.5q74 0 119 -46.5t45 -120.5q0 -75 -45.5 -131.5t-108.5 -84.5
q24 -12 59 -12q69 0 114.5 48t64 122t18.5 172q0 78 -13.5 145t-32.5 113.5t-51.5 86.5t-59 63.5t-67.5 46t-63 32t-59 23.5q-46 -22 -70 -22q-17 0 -29 8.5t-12 23.5q0 37 45 37q33 0 66 -14q101 65 139.5 149t38.5 220q0 309 -170 309q-30 0 -52.5 -5.5t-40 -21t-29.5 -33
t-20 -51t-13 -64t-7.5 -84t-3 -100t-0.5 -120.5v-1115q-129 26 -284 29q-16 1 -44 1q-51 0 -155 -7v43q64 0 89.5 31.5t25.5 115.5v859q0 271 146 412t429 141z" />
    <glyph glyph-name="agrave" unicode="&#xe0;" horiz-adv-x="1087" 
d="M291 1679q37 34 88 34q70 0 113 -50q31 -35 48.5 -87.5t47.5 -143.5t78 -187l-23 -18q-80 67 -159 118.5t-126 82.5t-75 65q-34 40 -34 93q0 58 42 93zM557 1092q117 0 198 -22.5t136 -80.5q40 -42 53.5 -106.5t13.5 -180.5v-548q0 -49 7 -68.5t24 -19.5q23 0 64 30
l20 -35q-89 -75 -266 -75q-108 0 -158.5 43.5t-52.5 111.5q-43 -71 -121 -113t-172 -42q-121 0 -189.5 64t-68.5 171q0 105 63 175t197 114q160 57 207 85q78 45 78 105v183q0 22 -3 42t-13 44t-26 41.5t-44.5 29t-65.5 11.5q-56 0 -108 -35q137 -51 137 -185
q0 -73 -54.5 -122.5t-142.5 -49.5q-75 0 -121.5 51t-46.5 128q0 120 127 188q129 66 328 66zM590 184v432q-15 -25 -80 -90q-100 -97 -100 -231q0 -145 104 -145q43 0 76 34z" />
    <glyph glyph-name="aacute" unicode="&#xe1;" horiz-adv-x="1087" 
d="M779 1679q42 -33 42 -92q0 -54 -34 -94q-29 -34 -76 -65t-126 -82.5t-159 -118.5l-22 18q48 96 77.5 187.5t47.5 143.5t49 87q41 49 111 49q51 0 90 -33zM557 1092q117 0 198 -22.5t136 -80.5q40 -42 53.5 -106.5t13.5 -180.5v-548q0 -49 7 -68.5t24 -19.5q23 0 64 30
l20 -35q-89 -75 -266 -75q-108 0 -158.5 43.5t-52.5 111.5q-43 -71 -121 -113t-172 -42q-121 0 -189.5 64t-68.5 171q0 105 63 175t197 114q160 57 207 85q78 45 78 105v183q0 22 -3 42t-13 44t-26 41.5t-44.5 29t-65.5 11.5q-56 0 -108 -35q137 -51 137 -185
q0 -73 -54.5 -122.5t-142.5 -49.5q-75 0 -121.5 51t-46.5 128q0 120 127 188q129 66 328 66zM590 184v432q-15 -25 -80 -90q-100 -97 -100 -231q0 -145 104 -145q43 0 76 34z" />
    <glyph glyph-name="acircumflex" unicode="&#xe2;" horiz-adv-x="1087" 
d="M532 1704h37q65 -125 167 -242t216 -192l-16 -29q-122 22 -238.5 55.5t-187.5 67.5q-132 -76 -344 -123l-17 29q112 73 213 189.5t170 244.5zM557 1092q117 0 198 -22.5t136 -80.5q40 -42 53.5 -106.5t13.5 -180.5v-548q0 -49 7 -68.5t24 -19.5q23 0 64 30l20 -35
q-89 -75 -266 -75q-108 0 -158.5 43.5t-52.5 111.5q-43 -71 -121 -113t-172 -42q-121 0 -189.5 64t-68.5 171q0 105 63 175t197 114q160 57 207 85q78 45 78 105v183q0 22 -3 42t-13 44t-26 41.5t-44.5 29t-65.5 11.5q-56 0 -108 -35q137 -51 137 -185q0 -73 -54.5 -122.5
t-142.5 -49.5q-75 0 -121.5 51t-46.5 128q0 120 127 188q129 66 328 66zM590 184v432q-15 -25 -80 -90q-100 -97 -100 -231q0 -145 104 -145q43 0 76 34z" />
    <glyph glyph-name="atilde" unicode="&#xe3;" horiz-adv-x="1087" 
d="M376 1634q60 0 113 -21t86 -46.5t79 -46.5t93 -21q92 0 158 109l28 -15q-34 -169 -103.5 -251t-158.5 -82q-60 0 -113.5 21.5t-86.5 47t-79 47t-93 21.5q-91 0 -158 -111l-29 14q34 170 104 252t160 82zM557 1092q117 0 198 -22.5t136 -80.5q40 -42 53.5 -106.5
t13.5 -180.5v-548q0 -49 7 -68.5t24 -19.5q23 0 64 30l20 -35q-89 -75 -266 -75q-108 0 -158.5 43.5t-52.5 111.5q-43 -71 -121 -113t-172 -42q-121 0 -189.5 64t-68.5 171q0 105 63 175t197 114q160 57 207 85q78 45 78 105v183q0 22 -3 42t-13 44t-26 41.5t-44.5 29
t-65.5 11.5q-56 0 -108 -35q137 -51 137 -185q0 -73 -54.5 -122.5t-142.5 -49.5q-75 0 -121.5 51t-46.5 128q0 120 127 188q129 66 328 66zM590 184v432q-15 -25 -80 -90q-100 -97 -100 -231q0 -145 104 -145q43 0 76 34z" />
    <glyph glyph-name="adieresis" unicode="&#xe4;" horiz-adv-x="1087" 
d="M310 1581q70 0 124 -53.5t54 -124.5q0 -73 -53.5 -125.5t-124.5 -52.5q-74 0 -126.5 52t-52.5 126q0 71 53 124.5t126 53.5zM797 1581q71 0 124.5 -53.5t53.5 -124.5q0 -73 -53.5 -125.5t-124.5 -52.5q-73 0 -125.5 52.5t-52.5 125.5q0 71 52.5 124.5t125.5 53.5z
M557 1092q117 0 198 -22.5t136 -80.5q40 -42 53.5 -106.5t13.5 -180.5v-548q0 -49 7 -68.5t24 -19.5q23 0 64 30l20 -35q-89 -75 -266 -75q-108 0 -158.5 43.5t-52.5 111.5q-43 -71 -121 -113t-172 -42q-121 0 -189.5 64t-68.5 171q0 105 63 175t197 114q160 57 207 85
q78 45 78 105v183q0 22 -3 42t-13 44t-26 41.5t-44.5 29t-65.5 11.5q-56 0 -108 -35q137 -51 137 -185q0 -73 -54.5 -122.5t-142.5 -49.5q-75 0 -121.5 51t-46.5 128q0 120 127 188q129 66 328 66zM590 184v432q-15 -25 -80 -90q-100 -97 -100 -231q0 -145 104 -145
q43 0 76 34z" />
    <glyph glyph-name="aring" unicode="&#xe5;" horiz-adv-x="1087" 
d="M551 1640q99 0 169.5 -57t70.5 -149q0 -94 -70.5 -151.5t-169.5 -57.5q-98 0 -167.5 57.5t-69.5 151.5q0 92 69.5 149t167.5 57zM551 1597q-70 0 -125 -45t-55 -120q0 -78 54.5 -121t125.5 -43q73 0 128 43t55 121q0 75 -56 120t-127 45zM557 1092q117 0 198 -22.5
t136 -80.5q40 -42 53.5 -106.5t13.5 -180.5v-548q0 -49 7 -68.5t24 -19.5q23 0 64 30l20 -35q-89 -75 -266 -75q-108 0 -158.5 43.5t-52.5 111.5q-43 -71 -121 -113t-172 -42q-121 0 -189.5 64t-68.5 171q0 105 63 175t197 114q160 57 207 85q78 45 78 105v183q0 22 -3 42
t-13 44t-26 41.5t-44.5 29t-65.5 11.5q-56 0 -108 -35q137 -51 137 -185q0 -73 -54.5 -122.5t-142.5 -49.5q-75 0 -121.5 51t-46.5 128q0 120 127 188q129 66 328 66zM590 184v432q-15 -25 -80 -90q-100 -97 -100 -231q0 -145 104 -145q43 0 76 34z" />
    <glyph glyph-name="ae" unicode="&#xe6;" horiz-adv-x="1497" 
d="M1169 195q138 0 228 137l35 -13q-20 -66 -53 -124.5t-82 -110.5t-119.5 -82.5t-153.5 -30.5q-266 0 -379 206q-39 -62 -82.5 -102.5t-108 -64.5t-145.5 -24q-121 0 -189.5 64t-68.5 171q0 104 62.5 173.5t197.5 115.5q49 18 72.5 27t61 25.5t55.5 29t38.5 30t28.5 37
t8 41.5v183q0 22 -3 42t-12.5 44t-25.5 41.5t-44.5 29t-65.5 11.5q-55 0 -109 -35q138 -52 138 -185q0 -73 -54.5 -122.5t-142.5 -49.5q-75 0 -121.5 51t-46.5 128q0 121 127 188q126 66 279 66q100 0 162.5 -22t113.5 -74q124 96 307 96q367 0 367 -459h-489q-1 -24 -1 -74
q0 -103 19 -178t51.5 -113.5t68 -55.5t76.5 -17zM1063 1044q-100 0 -115 -372h197q2 163 -18.5 267.5t-63.5 104.5zM520 182q65 0 107 33q-56 126 -56 315q0 48 4 84v2q-18 -43 -59 -90q-48 -56 -74 -105t-26 -112q0 -127 104 -127z" />
    <glyph glyph-name="ccedilla" unicode="&#xe7;" 
d="M555 -29l-31 1l-27 -95q72 31 162 31q74 0 112.5 -33t38.5 -86q0 -86 -88.5 -130t-234.5 -44q-114 0 -185 27l13 36q45 -10 98 -10q50 0 88.5 20t38.5 58q0 51 -57 51q-43 0 -68 -14l55 193q-90 11 -162.5 47.5t-129 101.5t-87 167.5t-30.5 237.5q0 144 40 253.5
t112.5 176t166.5 99.5t208 33q167 0 270 -62q57 -33 90 -88.5t33 -124.5q0 -85 -55.5 -142t-141.5 -57q-88 0 -138 51t-50 134q0 74 48.5 129.5t119.5 75.5q-33 24 -82 24q-69 0 -118.5 -43.5t-74 -117.5t-35 -150t-10.5 -162q0 -103 22.5 -178t61 -113.5t81 -55.5t91.5 -17
q149 0 248 137l35 -13q-16 -52 -40.5 -99.5t-62 -94t-83.5 -80t-108.5 -54t-133.5 -20.5z" />
    <glyph glyph-name="egrave" unicode="&#xe8;" 
d="M686 1245l-23 -18q-80 67 -159 118.5t-126 82.5t-75 65q-34 40 -34 93q0 58 42 93q37 34 88 34q70 0 113 -50q31 -35 48.5 -87.5t47.5 -143.5t78 -187zM682 195q149 0 248 137l35 -13q-21 -66 -55.5 -124.5t-86 -110.5t-125.5 -82.5t-161 -30.5q-103 0 -186 30t-149 94
t-102.5 174.5t-36.5 260.5q0 144 40 253.5t112.5 176t166.5 99.5t208 33q387 0 387 -459h-529q-2 -24 -2 -74q0 -103 20.5 -178t56.5 -113.5t75 -55.5t84 -17zM575 1044q-115 0 -134 -372h237q2 163 -23.5 267.5t-79.5 104.5z" />
    <glyph glyph-name="eacute" unicode="&#xe9;" 
d="M807 1493q-29 -34 -76 -65t-126 -82.5t-159 -118.5l-22 18q48 96 77.5 187.5t47.5 143.5t49 87q41 49 111 49q51 0 90 -33q42 -33 42 -92q0 -54 -34 -94zM682 195q149 0 248 137l35 -13q-21 -66 -55.5 -124.5t-86 -110.5t-125.5 -82.5t-161 -30.5q-103 0 -186 30t-149 94
t-102.5 174.5t-36.5 260.5q0 144 40 253.5t112.5 176t166.5 99.5t208 33q387 0 387 -459h-529q-2 -24 -2 -74q0 -103 20.5 -178t56.5 -113.5t75 -55.5t84 -17zM575 1044q-115 0 -134 -372h237q2 163 -23.5 267.5t-79.5 104.5z" />
    <glyph glyph-name="ecircumflex" unicode="&#xea;" 
d="M530 1364q-132 -76 -344 -123l-17 29q112 73 213 189.5t170 244.5h37q65 -125 167 -242t216 -192l-16 -29q-122 22 -238.5 55.5t-187.5 67.5zM682 195q149 0 248 137l35 -13q-21 -66 -55.5 -124.5t-86 -110.5t-125.5 -82.5t-161 -30.5q-103 0 -186 30t-149 94
t-102.5 174.5t-36.5 260.5q0 144 40 253.5t112.5 176t166.5 99.5t208 33q387 0 387 -459h-529q-2 -24 -2 -74q0 -103 20.5 -178t56.5 -113.5t75 -55.5t84 -17zM575 1044q-115 0 -134 -372h237q2 163 -23.5 267.5t-79.5 104.5z" />
    <glyph glyph-name="edieresis" unicode="&#xeb;" 
d="M330 1225q-74 0 -126.5 52t-52.5 126q0 71 53 124.5t126 53.5q70 0 124 -53.5t54 -124.5q0 -73 -53.5 -125.5t-124.5 -52.5zM817 1225q-73 0 -125.5 52.5t-52.5 125.5q0 71 52.5 124.5t125.5 53.5q71 0 124.5 -53.5t53.5 -124.5q0 -73 -53.5 -125.5t-124.5 -52.5z
M977 633h-529q-2 -24 -2 -74q0 -103 20.5 -178t56.5 -113.5t75 -55.5t84 -17q149 0 248 137l35 -13q-21 -66 -55.5 -124.5t-86 -110.5t-125.5 -82.5t-161 -30.5q-103 0 -186 30t-149 94t-102.5 174.5t-36.5 260.5q0 144 40 253.5t112.5 176t166.5 99.5t208 33
q387 0 387 -459zM575 1044q-115 0 -134 -372h237q2 163 -23.5 267.5t-79.5 104.5z" />
    <glyph glyph-name="igrave" unicode="&#xec;" horiz-adv-x="676" 
d="M84 1679q37 34 88 34q70 0 113 -50q31 -35 48.5 -87.5t47.5 -143.5t78 -187l-23 -18q-80 67 -159 118.5t-126 82.5t-75 65q-34 40 -34 93q0 58 42 93zM526 1085v-895q0 -84 25.5 -115.5t89.5 -31.5v-43q-220 8 -291 8t-307 -8v43q64 0 89.5 31.5t25.5 115.5v650
q0 95 -26 137.5t-89 42.5v43q65 -6 127 -6q213 0 356 28z" />
    <glyph glyph-name="iacute" unicode="&#xed;" horiz-adv-x="676" 
d="M572 1679q42 -33 42 -92q0 -54 -34 -94q-29 -34 -76 -65t-126 -82.5t-159 -118.5l-22 18q48 96 77.5 187.5t47.5 143.5t49 87q41 49 111 49q51 0 90 -33zM526 1085v-895q0 -84 25.5 -115.5t89.5 -31.5v-43q-220 8 -291 8t-307 -8v43q64 0 89.5 31.5t25.5 115.5v650
q0 95 -26 137.5t-89 42.5v43q65 -6 127 -6q213 0 356 28z" />
    <glyph glyph-name="icircumflex" unicode="&#xee;" horiz-adv-x="676" 
d="M325 1704h37q65 -125 167 -242t216 -192l-16 -29q-122 22 -238.5 55.5t-187.5 67.5q-132 -76 -344 -123l-17 29q112 73 213 189.5t170 244.5zM526 1085v-895q0 -84 25.5 -115.5t89.5 -31.5v-43q-220 8 -291 8t-307 -8v43q64 0 89.5 31.5t25.5 115.5v650q0 95 -26 137.5
t-89 42.5v43q65 -6 127 -6q213 0 356 28z" />
    <glyph glyph-name="idieresis" unicode="&#xef;" horiz-adv-x="676" 
d="M103 1581q71 0 124.5 -53.5t53.5 -124.5q0 -73 -53.5 -125.5t-124.5 -52.5q-74 0 -126.5 52t-52.5 126q0 71 53 124.5t126 53.5zM590 1581q70 0 124 -53.5t54 -124.5q0 -73 -53.5 -125.5t-124.5 -52.5q-74 0 -126 52.5t-52 125.5q0 71 52.5 124.5t125.5 53.5zM526 1085
v-895q0 -84 25.5 -115.5t89.5 -31.5v-43q-220 8 -291 8t-307 -8v43q64 0 89.5 31.5t25.5 115.5v650q0 95 -26 137.5t-89 42.5v43q65 -6 127 -6q213 0 356 28z" />
    <glyph glyph-name="eth" unicode="&#xf0;" horiz-adv-x="1178" 
d="M956 1542l-275 -133q202 -140 316.5 -338.5t114.5 -443.5q0 -333 -137 -496.5t-383 -163.5q-122 0 -215 28.5t-164.5 90t-109 168.5t-37.5 255q0 128 26 229.5t69.5 167t105.5 108t130 60.5t146 18q83 0 144 -27q-44 164 -137 280l-304 -149l-19 37l296 144
q-103 114 -261 190l17 35q199 -61 363 -167l296 144zM592 8q143 0 143 602q0 254 -39 420q-29 10 -59 10q-96 0 -142 -124t-46 -384q0 -263 39 -393.5t104 -130.5z" />
    <glyph glyph-name="ntilde" unicode="&#xf1;" horiz-adv-x="1280" 
d="M476 1634q60 0 113 -21t86 -46.5t79 -46.5t93 -21q92 0 158 109l28 -15q-34 -169 -103.5 -251t-158.5 -82q-60 0 -113.5 21.5t-86.5 47t-79 47t-93 21.5q-91 0 -158 -111l-29 14q34 170 104 252t160 82zM852 1092q163 0 231 -82q60 -72 60 -265v-555q0 -84 25.5 -115.5
t88.5 -31.5v-43q-220 8 -286 8q-71 0 -291 -8v43q53 0 73.5 31t20.5 116v666q0 66 -24 97.5t-76 31.5q-59 0 -103.5 -42t-44.5 -105v-648q0 -84 21 -115.5t74 -31.5v-43q-208 8 -271 8q-71 0 -307 -8v43q64 0 89.5 31.5t25.5 115.5v650q0 95 -26 137.5t-89 42.5v43
q65 -6 127 -6q213 0 356 28v-147q93 154 326 154z" />
    <glyph glyph-name="ograve" unicode="&#xf2;" horiz-adv-x="1180" 
d="M330 1679q37 34 88 34q70 0 113 -50q31 -35 48.5 -87.5t47.5 -143.5t78 -187l-23 -18q-80 67 -159 118.5t-126 82.5t-75 65q-34 40 -34 93q0 58 42 93zM590 1092q123 0 217 -30t164.5 -95t107.5 -175t37 -262q0 -122 -24.5 -216.5t-69 -159t-110.5 -105.5t-145 -59.5
t-177 -18.5q-123 0 -217 30t-165 94.5t-108 173.5t-37 261t37 262t108 175t165 95t217 30zM590 1051q-65 0 -104.5 -129t-39.5 -392q0 -262 39.5 -390t104.5 -128t104 128t39 390q0 263 -39 392t-104 129z" />
    <glyph glyph-name="oacute" unicode="&#xf3;" horiz-adv-x="1180" 
d="M818 1679q42 -33 42 -92q0 -54 -34 -94q-29 -34 -76 -65t-126 -82.5t-159 -118.5l-22 18q48 96 77.5 187.5t47.5 143.5t49 87q41 49 111 49q51 0 90 -33zM590 1092q123 0 217 -30t164.5 -95t107.5 -175t37 -262q0 -122 -24.5 -216.5t-69 -159t-110.5 -105.5t-145 -59.5
t-177 -18.5q-123 0 -217 30t-165 94.5t-108 173.5t-37 261t37 262t108 175t165 95t217 30zM590 1051q-65 0 -104.5 -129t-39.5 -392q0 -262 39.5 -390t104.5 -128t104 128t39 390q0 263 -39 392t-104 129z" />
    <glyph glyph-name="ocircumflex" unicode="&#xf4;" horiz-adv-x="1180" 
d="M571 1704h37q65 -125 167 -242t216 -192l-16 -29q-122 22 -238.5 55.5t-187.5 67.5q-132 -76 -344 -123l-17 29q112 73 213 189.5t170 244.5zM590 1092q123 0 217 -30t164.5 -95t107.5 -175t37 -262q0 -122 -24.5 -216.5t-69 -159t-110.5 -105.5t-145 -59.5t-177 -18.5
q-123 0 -217 30t-165 94.5t-108 173.5t-37 261t37 262t108 175t165 95t217 30zM590 1051q-65 0 -104.5 -129t-39.5 -392q0 -262 39.5 -390t104.5 -128t104 128t39 390q0 263 -39 392t-104 129z" />
    <glyph glyph-name="otilde" unicode="&#xf5;" horiz-adv-x="1180" 
d="M415 1634q60 0 113 -21t86 -46.5t79 -46.5t93 -21q92 0 158 109l28 -15q-34 -169 -103.5 -251t-158.5 -82q-60 0 -113.5 21.5t-86.5 47t-79 47t-93 21.5q-91 0 -158 -111l-29 14q34 170 104 252t160 82zM590 1092q123 0 217 -30t164.5 -95t107.5 -175t37 -262
q0 -122 -24.5 -216.5t-69 -159t-110.5 -105.5t-145 -59.5t-177 -18.5q-123 0 -217 30t-165 94.5t-108 173.5t-37 261t37 262t108 175t165 95t217 30zM590 1051q-65 0 -104.5 -129t-39.5 -392q0 -262 39.5 -390t104.5 -128t104 128t39 390q0 263 -39 392t-104 129z" />
    <glyph glyph-name="odieresis" unicode="&#xf6;" horiz-adv-x="1180" 
d="M349 1581q71 0 124.5 -53.5t53.5 -124.5q0 -73 -53.5 -125.5t-124.5 -52.5q-74 0 -126.5 52t-52.5 126q0 71 53 124.5t126 53.5zM836 1581q70 0 124 -53.5t54 -124.5q0 -73 -53.5 -125.5t-124.5 -52.5q-74 0 -126 52.5t-52 125.5q0 71 52.5 124.5t125.5 53.5zM590 1092
q123 0 217 -30t164.5 -95t107.5 -175t37 -262q0 -122 -24.5 -216.5t-69 -159t-110.5 -105.5t-145 -59.5t-177 -18.5q-123 0 -217 30t-165 94.5t-108 173.5t-37 261t37 262t108 175t165 95t217 30zM590 1051q-65 0 -104.5 -129t-39.5 -392q0 -262 39.5 -390t104.5 -128
t104 128t39 390q0 263 -39 392t-104 129z" />
    <glyph glyph-name="divide" unicode="&#xf7;" horiz-adv-x="1276" 
d="M641 1135q48 0 81.5 -33.5t33.5 -79.5q0 -48 -33.5 -80.5t-81.5 -32.5q-46 0 -79.5 33t-33.5 80q0 46 33.5 79.5t79.5 33.5zM1157 696h-1026v62h1026v-62zM641 545q48 0 81.5 -33t33.5 -80t-33.5 -81t-81.5 -34q-46 0 -79.5 34t-33.5 81q0 46 33.5 79.5t79.5 33.5z" />
    <glyph glyph-name="oslash" unicode="&#xf8;" horiz-adv-x="1180" 
d="M1067 1186l-131 -190q180 -134 180 -466q0 -122 -24.5 -216.5t-69 -159t-110.5 -105.5t-145 -59.5t-177 -18.5q-183 0 -301 65l-129 -186l-39 27l127 185q-185 133 -185 468q0 152 37 262t108 175t165 95t217 30q187 0 306 -69l132 189zM590 1051q-65 0 -104.5 -129
t-39.5 -392q0 -107 8 -200l264 472q-33 249 -128 249zM590 12q65 0 104 128t39 390q0 112 -7 190l-263 -473q35 -235 127 -235z" />
    <glyph glyph-name="ugrave" unicode="&#xf9;" horiz-adv-x="1274" 
d="M344 1679q37 34 88 34q70 0 113 -50q31 -35 48.5 -87.5t47.5 -143.5t78 -187l-23 -18q-80 67 -159 118.5t-126 82.5t-75 65q-34 40 -34 93q0 58 42 93zM1122 1085v-862q0 -95 26 -137.5t89 -42.5v-43q-65 6 -127 6q-215 0 -356 -29v148q-93 -154 -326 -154
q-163 0 -231 82q-60 72 -60 264v523q0 95 -25.5 137.5t-88.5 42.5v43q64 -6 127 -6q212 0 356 28v-878q0 -66 24 -97.5t76 -31.5q59 0 103.5 42t44.5 105v615q0 95 -26 137.5t-89 42.5v43q64 -6 127 -6q213 0 356 28z" />
    <glyph glyph-name="uacute" unicode="&#xfa;" horiz-adv-x="1274" 
d="M832 1679q42 -33 42 -92q0 -54 -34 -94q-29 -34 -76 -65t-126 -82.5t-159 -118.5l-22 18q48 96 77.5 187.5t47.5 143.5t49 87q41 49 111 49q51 0 90 -33zM1122 1085v-862q0 -95 26 -137.5t89 -42.5v-43q-65 6 -127 6q-215 0 -356 -29v148q-93 -154 -326 -154
q-163 0 -231 82q-60 72 -60 264v523q0 95 -25.5 137.5t-88.5 42.5v43q64 -6 127 -6q212 0 356 28v-878q0 -66 24 -97.5t76 -31.5q59 0 103.5 42t44.5 105v615q0 95 -26 137.5t-89 42.5v43q64 -6 127 -6q213 0 356 28z" />
    <glyph glyph-name="ucircumflex" unicode="&#xfb;" horiz-adv-x="1274" 
d="M585 1704h37q65 -125 167 -242t216 -192l-16 -29q-122 22 -238.5 55.5t-187.5 67.5q-132 -76 -344 -123l-17 29q112 73 213 189.5t170 244.5zM1122 1085v-862q0 -95 26 -137.5t89 -42.5v-43q-65 6 -127 6q-215 0 -356 -29v148q-93 -154 -326 -154q-163 0 -231 82
q-60 72 -60 264v523q0 95 -25.5 137.5t-88.5 42.5v43q64 -6 127 -6q212 0 356 28v-878q0 -66 24 -97.5t76 -31.5q59 0 103.5 42t44.5 105v615q0 95 -26 137.5t-89 42.5v43q64 -6 127 -6q213 0 356 28z" />
    <glyph glyph-name="udieresis" unicode="&#xfc;" horiz-adv-x="1274" 
d="M363 1581q71 0 124.5 -53.5t53.5 -124.5q0 -73 -53.5 -125.5t-124.5 -52.5q-74 0 -126.5 52t-52.5 126q0 71 53 124.5t126 53.5zM850 1581q70 0 124 -53.5t54 -124.5q0 -73 -53.5 -125.5t-124.5 -52.5q-74 0 -126 52.5t-52 125.5q0 71 52.5 124.5t125.5 53.5zM1122 1085
v-862q0 -95 26 -137.5t89 -42.5v-43q-65 6 -127 6q-215 0 -356 -29v148q-93 -154 -326 -154q-163 0 -231 82q-60 72 -60 264v523q0 95 -25.5 137.5t-88.5 42.5v43q64 -6 127 -6q212 0 356 28v-878q0 -66 24 -97.5t76 -31.5q59 0 103.5 42t44.5 105v615q0 95 -26 137.5
t-89 42.5v43q64 -6 127 -6q213 0 356 28z" />
    <glyph glyph-name="yacute" unicode="&#xfd;" horiz-adv-x="1083" 
d="M768 1493q-29 -34 -76 -65t-126 -82.5t-159 -118.5l-22 18q48 96 77.5 187.5t47.5 143.5t49 87q41 49 111 49q51 0 90 -33q42 -33 42 -92q0 -54 -34 -94zM918 1055q116 0 157 8v-43q-89 -33 -145 -199l-256 -762l-86 -247q-38 -107 -90 -148q-63 -49 -191 -49
q-45 0 -91 10.5t-89.5 31.5t-70.5 60t-27 90q0 72 54.5 115t145.5 43q87 0 136 -38.5t49 -112.5q0 -49 -34 -93t-99 -65q20 -4 69 -4q141 0 195 164l11 33l-478 1056q-51 115 -119 115v43q163 -12 334 -12q133 0 297 12v-43q-30 0 -46.5 -1t-37 -5t-30 -14t-9.5 -26
q0 -15 8 -32l253 -600l85 262q39 116 39 210q0 96 -41.5 148.5t-108.5 57.5v43q77 -8 216 -8z" />
    <glyph glyph-name="thorn" unicode="&#xfe;" horiz-adv-x="1231" 
d="M809 1092q159 0 257.5 -131.5t98.5 -382.5q0 -136 -25.5 -241.5t-68.5 -173.5t-105 -112t-130 -62t-148 -18q-120 0 -190 39v-170q0 -95 43.5 -131.5t132.5 -36.5v-43q-342 9 -377 9q-31 0 -283 -9v43q64 0 89.5 31.5t25.5 116.5v1536q0 95 -26 137.5t-89 42.5v43
q64 -6 127 -6q215 0 357 29v-664q93 154 311 154zM569 33q112 0 162.5 122t50.5 375q0 132 -10.5 223.5t-30 140.5t-43 70t-53.5 21q-59 0 -103 -42t-44 -105v-788q27 -17 71 -17z" />
    <glyph glyph-name="ydieresis" unicode="&#xff;" horiz-adv-x="1083" 
d="M291 1225q-74 0 -126.5 52t-52.5 126q0 71 53 124.5t126 53.5q71 0 124.5 -53.5t53.5 -124.5q0 -73 -53.5 -125.5t-124.5 -52.5zM778 1225q-74 0 -126 52.5t-52 125.5q0 71 52.5 124.5t125.5 53.5q70 0 124 -53.5t54 -124.5q0 -73 -53.5 -125.5t-124.5 -52.5zM918 1055
q116 0 157 8v-43q-89 -33 -145 -199l-256 -762l-86 -247q-38 -107 -90 -148q-63 -49 -191 -49q-45 0 -91 10.5t-89.5 31.5t-70.5 60t-27 90q0 72 54.5 115t145.5 43q87 0 136 -38.5t49 -112.5q0 -49 -34 -93t-99 -65q20 -4 69 -4q141 0 195 164l11 33l-478 1056
q-51 115 -119 115v43q163 -12 334 -12q133 0 297 12v-43q-30 0 -46.5 -1t-37 -5t-30 -14t-9.5 -26q0 -15 8 -32l253 -600l85 262q39 116 39 210q0 96 -41.5 148.5t-108.5 57.5v43q77 -8 216 -8z" />
    <glyph glyph-name="Amacron" unicode="&#x100;" horiz-adv-x="1417" 
d="M1153 1677h-885v52h885v-52zM815 1450l496 -1278q26 -66 58 -97.5t63 -33.5v-41q-148 6 -373 6q-235 0 -344 -6v41q77 3 110.5 19t33.5 56q0 31 -25 97l-122 336h-413l-35 -92q-66 -172 -66 -267q0 -84 46.5 -115t138.5 -34v-41q-153 6 -268 6q-97 0 -158 -6v41
q50 8 95.5 63t92.5 177l455 1169q44 -4 108 -4t107 4zM698 590l-186 512l-197 -512h383z" />
    <glyph glyph-name="amacron" unicode="&#x101;" horiz-adv-x="1087" 
d="M905 1407h-721v51h721v-51zM557 1092q117 0 198 -22.5t136 -80.5q40 -42 53.5 -106.5t13.5 -180.5v-548q0 -49 7 -68.5t24 -19.5q23 0 64 30l20 -35q-89 -75 -266 -75q-108 0 -158.5 43.5t-52.5 111.5q-43 -71 -121 -113t-172 -42q-121 0 -189.5 64t-68.5 171
q0 105 63 175t197 114q160 57 207 85q78 45 78 105v183q0 22 -3 42t-13 44t-26 41.5t-44.5 29t-65.5 11.5q-56 0 -108 -35q137 -51 137 -185q0 -73 -54.5 -122.5t-142.5 -49.5q-75 0 -121.5 51t-46.5 128q0 120 127 188q129 66 328 66zM590 184v432q-15 -25 -80 -90
q-100 -97 -100 -231q0 -145 104 -145q43 0 76 34z" />
    <glyph glyph-name="Abreve" unicode="&#x102;" horiz-adv-x="1417" 
d="M690 1563q-100 0 -185.5 27t-144.5 71.5t-98.5 95t-60.5 105.5l24 22q187 -119 465 -119t465 119l25 -22q-22 -55 -61.5 -105.5t-98.5 -95t-144.5 -71.5t-185.5 -27zM815 1450l496 -1278q26 -66 58 -97.5t63 -33.5v-41q-148 6 -373 6q-235 0 -344 -6v41q77 3 110.5 19
t33.5 56q0 31 -25 97l-122 336h-413l-35 -92q-66 -172 -66 -267q0 -84 46.5 -115t138.5 -34v-41q-153 6 -268 6q-97 0 -158 -6v41q50 8 95.5 63t92.5 177l455 1169q44 -4 108 -4t107 4zM698 590l-186 512l-197 -512h383z" />
    <glyph glyph-name="abreve" unicode="&#x103;" horiz-adv-x="1087" 
d="M922 1614l35 -19q-15 -51 -36 -96t-55.5 -91t-77.5 -79t-105 -53.5t-134 -20.5q-89 0 -161.5 30t-120 82t-77 107.5t-48.5 120.5l35 19q142 -115 372 -115q231 0 373 115zM557 1092q117 0 198 -22.5t136 -80.5q40 -42 53.5 -106.5t13.5 -180.5v-548q0 -49 7 -68.5
t24 -19.5q23 0 64 30l20 -35q-89 -75 -266 -75q-108 0 -158.5 43.5t-52.5 111.5q-43 -71 -121 -113t-172 -42q-121 0 -189.5 64t-68.5 171q0 105 63 175t197 114q160 57 207 85q78 45 78 105v183q0 22 -3 42t-13 44t-26 41.5t-44.5 29t-65.5 11.5q-56 0 -108 -35
q137 -51 137 -185q0 -73 -54.5 -122.5t-142.5 -49.5q-75 0 -121.5 51t-46.5 128q0 120 127 188q129 66 328 66zM590 184v432q-15 -25 -80 -90q-100 -97 -100 -231q0 -145 104 -145q43 0 76 34z" />
    <glyph glyph-name="Aogonek" unicode="&#x104;" horiz-adv-x="1417" 
d="M1432 0l-38 1q-112 -39 -165 -89t-53 -96q0 -41 20 -59.5t62 -18.5q34 0 73 13.5t62 33.5l27 -31q-60 -74 -133.5 -106.5t-180.5 -32.5q-99 0 -150.5 37.5t-51.5 107.5q0 86 107 148t304 95q-119 3 -256 3q-235 0 -344 -6v41q77 3 110.5 19t33.5 56q0 31 -25 97l-122 336
h-413l-35 -92q-66 -172 -66 -267q0 -84 46.5 -115t138.5 -34v-41q-153 6 -268 6q-97 0 -158 -6v41q50 8 95.5 63t92.5 177l455 1169q55 -5 108 -5q52 0 107 5l496 -1278q26 -66 58 -97.5t63 -33.5v-41zM698 590l-186 512l-197 -512h383z" />
    <glyph glyph-name="aogonek" unicode="&#x105;" horiz-adv-x="1087" 
d="M892 -262q34 0 73 13.5t62 33.5l26 -31q-59 -74 -132.5 -106.5t-180.5 -32.5q-99 0 -151 37.5t-52 107.5q0 152 276 226h-6q-108 0 -158.5 43.5t-52.5 111.5q-43 -71 -121 -113t-172 -42q-121 0 -189.5 64t-68.5 171q0 105 63 175t197 114q160 57 207 85q78 45 78 105
v183q0 22 -3 42t-13 44t-26 41.5t-44.5 29t-65.5 11.5q-56 0 -108 -35q137 -51 137 -185q0 -73 -54.5 -122.5t-142.5 -49.5q-75 0 -121.5 51t-46.5 128q0 120 127 188q129 66 328 66q117 0 198 -22.5t136 -80.5q40 -42 53.5 -106.5t13.5 -180.5v-548q0 -49 7 -68.5t24 -19.5
q23 0 64 30l20 -35q-40 -34 -92 -52q-8 -5 -32 -17q-74 -37 -106.5 -83.5t-32.5 -92.5q0 -78 82 -78zM590 184v432q-15 -25 -80 -90q-100 -97 -100 -231q0 -145 104 -145q43 0 76 34z" />
    <glyph glyph-name="Cacute" unicode="&#x106;" horiz-adv-x="1468" 
d="M955 1923q28 14 63 14q40 0 75 -19.5t54 -57.5q12 -27 12 -54q0 -37 -20.5 -70t-56.5 -50q-40 -21 -96 -31t-149 -26.5t-192 -47.5l-14 25q66 55 119.5 112.5t80 92t58.5 65.5t66 47zM848 1479q122 0 208.5 -35t168.5 -98q23 -18 40 -18q42 0 52 122h47q-8 -145 -8 -512
h-47q-16 163 -54.5 258t-134.5 158q-94 61 -190 61q-65 0 -120 -22.5t-94 -61t-69.5 -93.5t-49 -115t-31 -130.5t-17 -136t-4.5 -135.5t4.5 -135.5t17 -136t31 -130.5t49 -115t69.5 -93.5t94 -61t120 -22.5q96 0 190 61q96 59 134.5 159.5t54.5 284.5h47q0 -381 8 -532h-47
q-5 64 -16.5 92.5t-33.5 28.5q-16 0 -42 -17q-93 -65 -176.5 -99t-202.5 -34q-352 0 -562 197.5t-210 544.5q0 226 98 400.5t274 270t402 95.5z" />
    <glyph glyph-name="cacute" unicode="&#x107;" 
d="M783 1679q42 -33 42 -92q0 -54 -34 -94q-29 -34 -76 -65t-126 -82.5t-159 -118.5l-22 18q48 96 77.5 187.5t47.5 143.5t49 87q41 49 111 49q51 0 90 -33zM588 1092q167 0 270 -62q57 -33 90 -88.5t33 -124.5q0 -85 -55.5 -142t-141.5 -57q-88 0 -138 51t-50 134
q0 74 48.5 129.5t119.5 75.5q-33 24 -82 24q-69 0 -118.5 -43.5t-74 -117.5t-35 -150t-10.5 -162q0 -103 22.5 -178t61 -113.5t81 -55.5t91.5 -17q149 0 248 137l35 -13q-16 -52 -40.5 -99.5t-62 -94t-83.5 -80t-108.5 -54t-133.5 -20.5q-107 0 -193.5 30t-155.5 94
t-107 174.5t-38 260.5q0 144 40 253.5t112.5 176t166.5 99.5t208 33z" />
    <glyph glyph-name="Ccircumflex" unicode="&#x108;" horiz-adv-x="1468" 
d="M779 1958h37q73 -98 192 -193.5t252 -158.5l-10 -31q-310 48 -494 125q-68 -34 -182 -68.5t-229 -56.5l-11 31q130 62 248.5 156.5t196.5 195.5zM848 1479q122 0 208.5 -35t168.5 -98q23 -18 40 -18q42 0 52 122h47q-8 -145 -8 -512h-47q-16 163 -54.5 258t-134.5 158
q-94 61 -190 61q-65 0 -120 -22.5t-94 -61t-69.5 -93.5t-49 -115t-31 -130.5t-17 -136t-4.5 -135.5t4.5 -135.5t17 -136t31 -130.5t49 -115t69.5 -93.5t94 -61t120 -22.5q96 0 190 61q96 59 134.5 159.5t54.5 284.5h47q0 -381 8 -532h-47q-5 64 -16.5 92.5t-33.5 28.5
q-16 0 -42 -17q-93 -65 -176.5 -99t-202.5 -34q-352 0 -562 197.5t-210 544.5q0 226 98 400.5t274 270t402 95.5z" />
    <glyph glyph-name="ccircumflex" unicode="&#x109;" 
d="M536 1704h37q65 -125 167 -242t216 -192l-16 -29q-122 22 -238.5 55.5t-187.5 67.5q-132 -76 -344 -123l-17 29q112 73 213 189.5t170 244.5zM588 1092q167 0 270 -62q57 -33 90 -88.5t33 -124.5q0 -85 -55.5 -142t-141.5 -57q-88 0 -138 51t-50 134q0 74 48.5 129.5
t119.5 75.5q-33 24 -82 24q-69 0 -118.5 -43.5t-74 -117.5t-35 -150t-10.5 -162q0 -103 22.5 -178t61 -113.5t81 -55.5t91.5 -17q149 0 248 137l35 -13q-16 -52 -40.5 -99.5t-62 -94t-83.5 -80t-108.5 -54t-133.5 -20.5q-107 0 -193.5 30t-155.5 94t-107 174.5t-38 260.5
q0 144 40 253.5t112.5 176t166.5 99.5t208 33z" />
    <glyph glyph-name="Cdotaccent" unicode="&#x10a;" horiz-adv-x="1468" 
d="M799 1909q98 0 150 -45t52 -131q0 -87 -52 -132t-150 -45q-99 0 -151 45t-52 132t52 131.5t151 44.5zM848 1479q122 0 208.5 -35t168.5 -98q23 -18 40 -18q42 0 52 122h47q-8 -145 -8 -512h-47q-16 163 -54.5 258t-134.5 158q-94 61 -190 61q-65 0 -120 -22.5t-94 -61
t-69.5 -93.5t-49 -115t-31 -130.5t-17 -136t-4.5 -135.5t4.5 -135.5t17 -136t31 -130.5t49 -115t69.5 -93.5t94 -61t120 -22.5q96 0 190 61q96 59 134.5 159.5t54.5 284.5h47q0 -381 8 -532h-47q-5 64 -16.5 92.5t-33.5 28.5q-16 0 -42 -17q-93 -65 -176.5 -99t-202.5 -34
q-352 0 -562 197.5t-210 544.5q0 226 98 400.5t274 270t402 95.5z" />
    <glyph glyph-name="cdotaccent" unicode="&#x10b;" 
d="M555 1602q107 0 165 -45t58 -132q0 -86 -58 -131t-165 -45q-109 0 -166 44.5t-57 131.5t57 132t166 45zM588 1092q167 0 270 -62q57 -33 90 -88.5t33 -124.5q0 -85 -55.5 -142t-141.5 -57q-88 0 -138 51t-50 134q0 74 48.5 129.5t119.5 75.5q-33 24 -82 24
q-69 0 -118.5 -43.5t-74 -117.5t-35 -150t-10.5 -162q0 -103 22.5 -178t61 -113.5t81 -55.5t91.5 -17q149 0 248 137l35 -13q-16 -52 -40.5 -99.5t-62 -94t-83.5 -80t-108.5 -54t-133.5 -20.5q-107 0 -193.5 30t-155.5 94t-107 174.5t-38 260.5q0 144 40 253.5t112.5 176
t166.5 99.5t208 33z" />
    <glyph glyph-name="Ccaron" unicode="&#x10c;" horiz-adv-x="1468" 
d="M1244 1937l10 -30q-131 -62 -249 -157t-195 -196h-37q-75 99 -193.5 194.5t-251.5 158.5l11 30q140 -21 276.5 -55.5t216.5 -69.5q68 35 182 69.5t230 55.5zM848 1479q122 0 208.5 -35t168.5 -98q23 -18 40 -18q42 0 52 122h47q-8 -145 -8 -512h-47q-16 163 -54.5 258
t-134.5 158q-94 61 -190 61q-65 0 -120 -22.5t-94 -61t-69.5 -93.5t-49 -115t-31 -130.5t-17 -136t-4.5 -135.5t4.5 -135.5t17 -136t31 -130.5t49 -115t69.5 -93.5t94 -61t120 -22.5q96 0 190 61q96 59 134.5 159.5t54.5 284.5h47q0 -381 8 -532h-47q-5 64 -16.5 92.5
t-33.5 28.5q-16 0 -42 -17q-93 -65 -176.5 -99t-202.5 -34q-352 0 -562 197.5t-210 544.5q0 226 98 400.5t274 270t402 95.5z" />
    <glyph glyph-name="ccaron" unicode="&#x10d;" 
d="M920 1704l16 -29q-112 -73 -213 -189.5t-170 -244.5h-37q-65 125 -167 242t-216 192l17 29q121 -22 237.5 -55.5t188.5 -67.5q129 75 344 123zM588 1092q167 0 270 -62q57 -33 90 -88.5t33 -124.5q0 -85 -55.5 -142t-141.5 -57q-88 0 -138 51t-50 134q0 74 48.5 129.5
t119.5 75.5q-33 24 -82 24q-69 0 -118.5 -43.5t-74 -117.5t-35 -150t-10.5 -162q0 -103 22.5 -178t61 -113.5t81 -55.5t91.5 -17q149 0 248 137l35 -13q-16 -52 -40.5 -99.5t-62 -94t-83.5 -80t-108.5 -54t-133.5 -20.5q-107 0 -193.5 30t-155.5 94t-107 174.5t-38 260.5
q0 144 40 253.5t112.5 176t166.5 99.5t208 33z" />
    <glyph glyph-name="Dcaron" unicode="&#x10e;" horiz-adv-x="1661" 
d="M1186 1937l10 -30q-131 -62 -249 -157t-195 -196h-37q-75 99 -193.5 194.5t-251.5 158.5l11 30q140 -21 276.5 -55.5t216.5 -69.5q68 35 182 69.5t230 55.5zM739 1450q425 0 635.5 -181t210.5 -528q0 -338 -230 -539.5t-634 -201.5q-29 0 -143 3t-164 3q-240 0 -357 -6
v41q50 2 76 8.5t43.5 26.5t22 51t4.5 90v1016q0 58 -5 89.5t-22.5 51.5t-43.5 26.5t-75 8.5v41q149 -7 280 -7q12 0 36.5 0.5t36.5 0.5q300 6 329 6zM770 1413q-93 0 -122.5 -34.5t-29.5 -141.5v-1024q0 -108 29.5 -142t124.5 -34q203 0 293 175t90 521q0 347 -93 513.5
t-292 166.5z" />
    <glyph glyph-name="dcaron" unicode="&#x10f;" horiz-adv-x="1247" 
d="M1212 1153l-28 8q41 237 41 297q0 43 -8.5 62.5t-32.5 19.5v43q20 -1 56 -1q93 0 202 24q10 -25 10 -84q0 -29 -14.5 -63.5t-53.5 -88.5t-70.5 -93t-101.5 -124zM1100 1602v-1377q0 -95 25.5 -137.5t88.5 -42.5v-43q-64 6 -127 6q-212 0 -356 -28v145q-42 -80 -101 -117
t-149 -37t-164.5 33t-132 99.5t-89.5 177.5t-32 258q0 271 122 412t333 141q134 0 213 -52v316q0 95 -26 137.5t-89 42.5v43q64 -6 127 -6q215 0 357 29zM584 78q58 0 102.5 42t44.5 105v772q-44 27 -96 27q-189 0 -189 -492q0 -131 10.5 -223t30.5 -140.5t43.5 -69.5
t53.5 -21z" />
    <glyph glyph-name="Dcroat" unicode="&#x110;" horiz-adv-x="1661" 
d="M739 1450q425 0 635.5 -181t210.5 -528q0 -338 -230 -539.5t-634 -201.5q-29 0 -143 3t-164 3q-240 0 -357 -6v41q50 2 76 8.5t43.5 26.5t22 51t4.5 90v492h-146v41h146v483q0 58 -5 89.5t-22.5 51.5t-43.5 26.5t-75 8.5v41q149 -7 280 -7q12 0 36.5 0.5t36.5 0.5
q300 6 329 6zM772 37q203 0 293 175t90 521q0 347 -93 513.5t-292 166.5q-93 0 -122.5 -34.5t-29.5 -141.5v-487h234v-41h-234v-496q0 -108 29.5 -142t124.5 -34z" />
    <glyph glyph-name="dcroat" unicode="&#x111;" horiz-adv-x="1247" 
d="M1100 1245v-1020q0 -95 25.5 -137.5t88.5 -42.5v-43q-64 6 -127 6q-212 0 -356 -28v145q-42 -80 -101 -117t-149 -37t-164.5 33t-132 99.5t-89.5 177.5t-32 258q0 271 122 412t333 141q134 0 213 -52v205h-323v41h323v70q0 95 -26 137.5t-89 42.5v43q64 -6 127 -6
q215 0 357 29v-316h135v-41h-135zM584 78q58 0 102.5 42t44.5 105v772q-44 27 -96 27q-189 0 -189 -492q0 -131 10.5 -223t30.5 -140.5t43.5 -69.5t53.5 -21z" />
    <glyph glyph-name="Emacron" unicode="&#x112;" horiz-adv-x="1331" 
d="M1097 1677h-885v52h885v-52zM1229 344q0 -209 14 -344q-139 6 -469 6q-479 0 -717 -6v41q50 2 76 8.5t43.5 26.5t22 51t4.5 90v1016q0 58 -5 89.5t-22.5 51.5t-43.5 26.5t-75 8.5v41q238 -6 717 -6q301 0 428 6q-14 -192 -14 -344q0 -96 6 -148h-47q-18 123 -56 212
t-89.5 138.5t-108.5 72t-123 22.5h-27q-80 0 -102.5 -23t-22.5 -106v-524h21q73 0 134.5 44t96.5 103t48 123h47q-8 -120 -8 -199q0 -18 0.5 -48t0.5 -44q0 -88 13 -291h-47q-19 118 -96 194.5t-189 76.5h-21v-533q0 -84 22.5 -106.5t102.5 -22.5h68q54 0 107.5 25t106.5 78
t96 151.5t67 230.5h47q-6 -74 -6 -188z" />
    <glyph glyph-name="emacron" unicode="&#x113;" 
d="M925 1407h-721v51h721v-51zM682 195q149 0 248 137l35 -13q-21 -66 -55.5 -124.5t-86 -110.5t-125.5 -82.5t-161 -30.5q-103 0 -186 30t-149 94t-102.5 174.5t-36.5 260.5q0 144 40 253.5t112.5 176t166.5 99.5t208 33q387 0 387 -459h-529q-2 -24 -2 -74
q0 -103 20.5 -178t56.5 -113.5t75 -55.5t84 -17zM575 1044q-115 0 -134 -372h237q2 163 -23.5 267.5t-79.5 104.5z" />
    <glyph glyph-name="Ebreve" unicode="&#x114;" horiz-adv-x="1331" 
d="M634 1563q-100 0 -185.5 27t-144.5 71.5t-98.5 95t-60.5 105.5l24 22q187 -119 465 -119t465 119l25 -22q-22 -55 -61.5 -105.5t-98.5 -95t-144.5 -71.5t-185.5 -27zM1229 344q0 -209 14 -344q-139 6 -469 6q-479 0 -717 -6v41q50 2 76 8.5t43.5 26.5t22 51t4.5 90v1016
q0 58 -5 89.5t-22.5 51.5t-43.5 26.5t-75 8.5v41q238 -6 717 -6q301 0 428 6q-14 -192 -14 -344q0 -96 6 -148h-47q-18 123 -56 212t-89.5 138.5t-108.5 72t-123 22.5h-27q-80 0 -102.5 -23t-22.5 -106v-524h21q73 0 134.5 44t96.5 103t48 123h47q-8 -120 -8 -199
q0 -18 0.5 -48t0.5 -44q0 -88 13 -291h-47q-19 118 -96 194.5t-189 76.5h-21v-533q0 -84 22.5 -106.5t102.5 -22.5h68q54 0 107.5 25t106.5 78t96 151.5t67 230.5h47q-6 -74 -6 -188z" />
    <glyph glyph-name="ebreve" unicode="&#x115;" 
d="M569 1255q-89 0 -161.5 30t-120 82t-77 107.5t-48.5 120.5l35 19q142 -115 372 -115q231 0 373 115l35 -19q-15 -51 -36 -96t-55.5 -91t-77.5 -79t-105 -53.5t-134 -20.5zM977 633h-529q-2 -24 -2 -74q0 -103 20.5 -178t56.5 -113.5t75 -55.5t84 -17q149 0 248 137
l35 -13q-21 -66 -55.5 -124.5t-86 -110.5t-125.5 -82.5t-161 -30.5q-103 0 -186 30t-149 94t-102.5 174.5t-36.5 260.5q0 144 40 253.5t112.5 176t166.5 99.5t208 33q387 0 387 -459zM575 1044q-115 0 -134 -372h237q2 163 -23.5 267.5t-79.5 104.5z" />
    <glyph glyph-name="Edotaccent" unicode="&#x116;" horiz-adv-x="1331" 
d="M657 1556q-99 0 -151 45t-52 132t52 131.5t151 44.5q98 0 150 -45t52 -131q0 -87 -52 -132t-150 -45zM1229 344q0 -209 14 -344q-139 6 -469 6q-479 0 -717 -6v41q50 2 76 8.5t43.5 26.5t22 51t4.5 90v1016q0 58 -5 89.5t-22.5 51.5t-43.5 26.5t-75 8.5v41q238 -6 717 -6
q301 0 428 6q-14 -192 -14 -344q0 -96 6 -148h-47q-18 123 -56 212t-89.5 138.5t-108.5 72t-123 22.5h-27q-80 0 -102.5 -23t-22.5 -106v-524h21q73 0 134.5 44t96.5 103t48 123h47q-8 -120 -8 -199q0 -18 0.5 -48t0.5 -44q0 -88 13 -291h-47q-19 118 -96 194.5t-189 76.5
h-21v-533q0 -84 22.5 -106.5t102.5 -22.5h68q54 0 107.5 25t106.5 78t96 151.5t67 230.5h47q-6 -74 -6 -188z" />
    <glyph glyph-name="edotaccent" unicode="&#x117;" 
d="M571 1249q-109 0 -166 44.5t-57 131.5t57 132t166 45q107 0 165 -45t58 -132q0 -86 -58 -131t-165 -45zM682 195q149 0 248 137l35 -13q-21 -66 -55.5 -124.5t-86 -110.5t-125.5 -82.5t-161 -30.5q-103 0 -186 30t-149 94t-102.5 174.5t-36.5 260.5q0 144 40 253.5
t112.5 176t166.5 99.5t208 33q387 0 387 -459h-529q-2 -24 -2 -74q0 -103 20.5 -178t56.5 -113.5t75 -55.5t84 -17zM575 1044q-115 0 -134 -372h237q2 163 -23.5 267.5t-79.5 104.5z" />
    <glyph glyph-name="Eogonek" unicode="&#x118;" horiz-adv-x="1331" 
d="M1221 -215l27 -31q-60 -74 -133.5 -106.5t-180.5 -32.5q-99 0 -150.5 37.5t-51.5 107.5q0 86 106.5 147.5t302.5 95.5q-122 3 -367 3q-479 0 -717 -6v41q50 2 76 8.5t43.5 26.5t22 51t4.5 90v1016q0 58 -5 89.5t-22.5 51.5t-43.5 26.5t-75 8.5v41q238 -6 717 -6
q301 0 428 6q-14 -192 -14 -344q0 -96 6 -148h-47q-18 123 -56 212t-89.5 138.5t-108.5 72t-123 22.5h-27q-80 0 -102.5 -23t-22.5 -106v-524h21q73 0 134.5 44t96.5 103t48 123h47q-8 -120 -8 -199q0 -18 0.5 -48t0.5 -44q0 -88 13 -291h-47q-19 118 -96 194.5t-189 76.5
h-21v-533q0 -84 22.5 -106.5t102.5 -22.5h68q54 0 107.5 25t106.5 78t96 151.5t67 230.5h47q-6 -74 -6 -188q0 -209 14 -344l-23 1q-111 -39 -163.5 -89t-52.5 -96q0 -41 20 -59.5t62 -18.5q34 0 73 13.5t62 33.5z" />
    <glyph glyph-name="eogonek" unicode="&#x119;" 
d="M682 195q149 0 248 137l35 -13q-32 -100 -96 -184.5t-159 -127.5q-14 -8 -28 -15q-74 -37 -106.5 -83.5t-32.5 -92.5q0 -78 82 -78q34 0 73 13.5t62 33.5l26 -31q-59 -74 -132.5 -106.5t-180.5 -32.5q-99 0 -151 37.5t-52 107.5q0 138 228 212q-95 5 -171.5 38.5t-137 98
t-93.5 171.5t-33 250q0 144 40 253.5t112.5 176t166.5 99.5t208 33q387 0 387 -459h-529q-2 -24 -2 -74q0 -103 20.5 -178t56.5 -113.5t75 -55.5t84 -17zM575 1044q-115 0 -134 -372h237q2 163 -23.5 267.5t-79.5 104.5z" />
    <glyph glyph-name="Ecaron" unicode="&#x11a;" horiz-adv-x="1331" 
d="M668 1554h-37q-75 99 -193.5 194.5t-251.5 158.5l11 30q140 -21 276.5 -55.5t216.5 -69.5q68 35 182 69.5t230 55.5l10 -30q-131 -62 -249 -157t-195 -196zM1229 344q0 -209 14 -344q-139 6 -469 6q-479 0 -717 -6v41q50 2 76 8.5t43.5 26.5t22 51t4.5 90v1016
q0 58 -5 89.5t-22.5 51.5t-43.5 26.5t-75 8.5v41q238 -6 717 -6q301 0 428 6q-14 -192 -14 -344q0 -96 6 -148h-47q-18 123 -56 212t-89.5 138.5t-108.5 72t-123 22.5h-27q-80 0 -102.5 -23t-22.5 -106v-524h21q73 0 134.5 44t96.5 103t48 123h47q-8 -120 -8 -199
q0 -18 0.5 -48t0.5 -44q0 -88 13 -291h-47q-19 118 -96 194.5t-189 76.5h-21v-533q0 -84 22.5 -106.5t102.5 -22.5h68q54 0 107.5 25t106.5 78t96 151.5t67 230.5h47q-6 -74 -6 -188z" />
    <glyph glyph-name="ecaron" unicode="&#x11b;" 
d="M569 1241h-37q-65 125 -167 242t-216 192l17 29q121 -22 237.5 -55.5t188.5 -67.5q129 75 344 123l16 -29q-112 -73 -213 -189.5t-170 -244.5zM682 195q149 0 248 137l35 -13q-21 -66 -55.5 -124.5t-86 -110.5t-125.5 -82.5t-161 -30.5q-103 0 -186 30t-149 94
t-102.5 174.5t-36.5 260.5q0 144 40 253.5t112.5 176t166.5 99.5t208 33q387 0 387 -459h-529q-2 -24 -2 -74q0 -103 20.5 -178t56.5 -113.5t75 -55.5t84 -17zM575 1044q-115 0 -134 -372h237q2 163 -23.5 267.5t-79.5 104.5z" />
    <glyph glyph-name="Gcircumflex" unicode="&#x11c;" horiz-adv-x="1548" 
d="M807 1958h37q73 -98 192 -193.5t252 -158.5l-10 -31q-310 48 -494 125q-68 -34 -182 -68.5t-229 -56.5l-11 31q130 62 248.5 156.5t196.5 195.5zM868 1479q132 0 225.5 -35t172.5 -98q20 -19 41 -19q39 0 51 123h47q-8 -145 -8 -512h-47q-16 162 -55 256.5t-134 159.5
q-89 61 -211 61q-76 0 -139 -29.5t-106 -82.5t-75 -119.5t-50 -146.5t-26.5 -157.5t-8.5 -158.5q0 -357 87.5 -533t241.5 -176q64 0 101 25q43 30 43 102v205q0 103 -17 150.5t-58 65.5t-132 22v41q129 -7 391 -7q218 0 316 7v-41q-54 -5 -69 -35t-15 -141v-406h-41
q-2 43 -18.5 80t-45.5 37q-43 0 -139 -47q-204 -99 -346 -99q-380 0 -575 193t-195 549q0 226 100.5 400.5t281.5 270t412 95.5z" />
    <glyph glyph-name="gcircumflex" unicode="&#x11d;" horiz-adv-x="1147" 
d="M563 1364q-132 -76 -344 -123l-16 29q111 73 213 190t170 244h37q108 -261 256 -412l-21 -28q-182 44 -295 100zM897 1155q-27 -49 -27 -117v-5q174 -84 174 -269q0 -162 -131.5 -245t-349.5 -83q-103 0 -194 20q-43 -29 -61.5 -50t-18.5 -52q0 -67 73 -67h465
q135 0 218 -56.5t83 -183.5q0 -80 -37.5 -155t-109 -138t-191 -101t-268.5 -38q-135 0 -233 15t-150 40.5t-75 54t-23 60.5q0 42 26.5 64t68.5 29t87 11t89 17.5t66 40.5h-67q-28 0 -57 4.5t-64 19t-61.5 36.5t-44.5 62t-18 91q0 100 59 168t206 138q-118 36 -183.5 110.5
t-65.5 187.5q0 162 132 245t349 83q156 0 264 -41q4 105 58.5 171t152.5 66q67 0 111.5 -30.5t44.5 -86.5q0 -48 -42.5 -80t-104.5 -32q-59 0 -96.5 28t-53.5 68zM563 473q52 0 78.5 66.5t26.5 224.5t-26.5 224.5t-78.5 66.5q-51 0 -77.5 -66.5t-26.5 -224.5t26.5 -224.5
t77.5 -66.5zM844 -119q0 66 -94 66h-331q-26 -56 -26 -133q0 -78 47 -121t138 -43q119 0 192.5 64t73.5 167z" />
    <glyph glyph-name="Gbreve" unicode="&#x11e;" horiz-adv-x="1548" 
d="M1269 1884l25 -22q-22 -55 -61.5 -105.5t-98.5 -95t-144.5 -71.5t-185.5 -27t-185.5 27t-144.5 71.5t-98.5 95t-60.5 105.5l24 22q187 -119 465 -119t465 119zM868 1479q132 0 225.5 -35t172.5 -98q20 -19 41 -19q39 0 51 123h47q-8 -145 -8 -512h-47q-16 162 -55 256.5
t-134 159.5q-89 61 -211 61q-76 0 -139 -29.5t-106 -82.5t-75 -119.5t-50 -146.5t-26.5 -157.5t-8.5 -158.5q0 -357 87.5 -533t241.5 -176q64 0 101 25q43 30 43 102v205q0 103 -17 150.5t-58 65.5t-132 22v41q129 -7 391 -7q218 0 316 7v-41q-54 -5 -69 -35t-15 -141v-406
h-41q-2 43 -18.5 80t-45.5 37q-43 0 -139 -47q-204 -99 -346 -99q-380 0 -575 193t-195 549q0 226 100.5 400.5t281.5 270t412 95.5z" />
    <glyph glyph-name="gbreve" unicode="&#x11f;" horiz-adv-x="1147" 
d="M602 1255q-89 0 -161.5 30t-120 82t-77 107.5t-48.5 120.5l35 19q142 -115 372 -115q231 0 373 115l35 -19q-15 -51 -36 -96t-55.5 -91t-77.5 -79t-105 -53.5t-134 -20.5zM897 1196q-27 -40 -27 -96q0 -34 11 -72q163 -87 163 -264q0 -162 -131.5 -245t-349.5 -83
q-103 0 -194 20q-43 -29 -61.5 -50t-18.5 -52q0 -67 73 -67h465q135 0 218 -56.5t83 -183.5q0 -80 -37.5 -155t-109 -138t-191 -101t-268.5 -38q-135 0 -233 15t-150 40.5t-75 54t-23 60.5q0 42 26.5 64t68.5 29t87 11t89 17.5t66 40.5h-67q-28 0 -57 4.5t-64 19t-61.5 36.5
t-44.5 62t-18 91q0 100 59 168t206 138q-118 36 -183.5 110.5t-65.5 187.5q0 162 132 245t349 83q156 0 269 -43q-5 28 -5 51q0 105 60 177.5t151 72.5q67 0 111.5 -35.5t44.5 -102.5q0 -57 -43 -95t-104 -38q-59 0 -96.5 34.5t-53.5 82.5zM563 473q52 0 78.5 66.5
t26.5 224.5t-26.5 224.5t-78.5 66.5q-51 0 -77.5 -66.5t-26.5 -224.5t26.5 -224.5t77.5 -66.5zM844 -119q0 66 -94 66h-331q-26 -56 -26 -133q0 -78 47 -121t138 -43q119 0 192.5 64t73.5 167z" />
    <glyph glyph-name="Gdotaccent" unicode="&#x120;" horiz-adv-x="1548" 
d="M854 1909q98 0 150 -45t52 -131q0 -87 -52 -132t-150 -45q-99 0 -151 45t-52 132t52 131.5t151 44.5zM868 1479q132 0 225.5 -35t172.5 -98q20 -19 41 -19q39 0 51 123h47q-8 -145 -8 -512h-47q-16 162 -55 256.5t-134 159.5q-89 61 -211 61q-76 0 -139 -29.5t-106 -82.5
t-75 -119.5t-50 -146.5t-26.5 -157.5t-8.5 -158.5q0 -357 87.5 -533t241.5 -176q64 0 101 25q43 30 43 102v205q0 103 -17 150.5t-58 65.5t-132 22v41q129 -7 391 -7q218 0 316 7v-41q-54 -5 -69 -35t-15 -141v-406h-41q-2 43 -18.5 80t-45.5 37q-43 0 -139 -47
q-204 -99 -346 -99q-380 0 -575 193t-195 549q0 226 100.5 400.5t281.5 270t412 95.5z" />
    <glyph glyph-name="gdotaccent" unicode="&#x121;" horiz-adv-x="1147" 
d="M584 1249q-109 0 -166 44.5t-57 131.5t57 132t166 45q107 0 165 -45t58 -132q0 -86 -58 -131t-165 -45zM823 1223q-14 -41 -14 -97q0 -33 8 -71q108 -37 167.5 -110t59.5 -181q0 -162 -131.5 -245t-349.5 -83q-103 0 -194 20q-43 -29 -61.5 -50t-18.5 -52q0 -67 73 -67
h465q135 0 218 -56.5t83 -183.5q0 -80 -37.5 -155t-109 -138t-191 -101t-268.5 -38q-135 0 -233 15t-150 40.5t-75 54t-23 60.5q0 42 26.5 64t68.5 29t87 11t89 17.5t66 40.5h-67q-28 0 -57 4.5t-64 19t-61.5 36.5t-44.5 62t-18 91q0 100 59 168t206 138
q-118 36 -183.5 110.5t-65.5 187.5q0 162 132 245t349 83q112 0 207 -23q-4 36 -4 57q0 116 60.5 193.5t170.5 77.5q75 0 126 -42.5t51 -115.5q0 -67 -48.5 -110.5t-119.5 -43.5q-70 0 -120 33.5t-63 104.5zM563 473q52 0 78.5 66.5t26.5 224.5t-26.5 224.5t-78.5 66.5
q-51 0 -77.5 -66.5t-26.5 -224.5t26.5 -224.5t77.5 -66.5zM844 -119q0 66 -94 66h-331q-26 -56 -26 -133q0 -78 47 -121t138 -43q119 0 192.5 64t73.5 167z" />
    <glyph glyph-name="Gcommaaccent" unicode="&#x122;" horiz-adv-x="1548" 
d="M868 1479q132 0 225.5 -35t172.5 -98q20 -19 41 -19q39 0 51 123h47q-8 -145 -8 -512h-47q-16 162 -55 256.5t-134 159.5q-89 61 -211 61q-76 0 -139 -29.5t-106 -82.5t-75 -119.5t-50 -146.5t-26.5 -157.5t-8.5 -158.5q0 -357 87.5 -533t241.5 -176q64 0 101 25
q43 30 43 102v205q0 103 -17 150.5t-58 65.5t-132 22v41q129 -7 391 -7q218 0 316 7v-41q-54 -5 -69 -35t-15 -141v-406h-41q-2 43 -18.5 80t-45.5 37q-43 0 -139 -47q-204 -99 -346 -99q-380 0 -575 193t-195 549q0 226 100.5 400.5t281.5 270t412 95.5zM856 -94
q87 0 138.5 -43.5t51.5 -124.5q0 -106 -71.5 -171.5t-204.5 -68.5l-4 45q89 11 132.5 34.5t55.5 68.5q-33 -31 -108 -31q-83 0 -127.5 35.5t-44.5 105.5q0 73 46.5 111.5t135.5 38.5z" />
    <glyph glyph-name="gcommaaccent" unicode="&#x123;" horiz-adv-x="1147" 
d="M582 1270q-85 0 -137.5 44t-52.5 124q0 106 71.5 171.5t204.5 68.5l4 -45q-89 -11 -132.5 -34.5t-55.5 -68.5q33 31 108 31q83 0 127.5 -35.5t44.5 -105.5q0 -73 -46.5 -111.5t-135.5 -38.5zM819 1208q-14 -39 -14 -106q0 -14 2 -44q113 -36 175 -110t62 -184
q0 -162 -131.5 -245t-349.5 -83q-103 0 -194 20q-43 -29 -61.5 -50t-18.5 -52q0 -67 73 -67h465q135 0 218 -56.5t83 -183.5q0 -80 -37.5 -155t-109 -138t-191 -101t-268.5 -38q-135 0 -233 15t-150 40.5t-75 54t-23 60.5q0 42 26.5 64t68.5 29t87 11t89 17.5t66 40.5h-67
q-28 0 -57 4.5t-64 19t-61.5 36.5t-44.5 62t-18 91q0 100 59 168t206 138q-118 36 -183.5 110.5t-65.5 187.5q0 162 132 245t349 83q112 0 200 -22q-1 11 -1 32q0 121 57 195.5t174 74.5q76 0 126 -36.5t50 -100.5q0 -58 -48 -95.5t-120 -37.5q-69 0 -111.5 26.5t-70.5 79.5
zM563 473q52 0 78.5 66.5t26.5 224.5t-26.5 224.5t-78.5 66.5q-51 0 -77.5 -66.5t-26.5 -224.5t26.5 -224.5t77.5 -66.5zM844 -119q0 66 -94 66h-331q-26 -56 -26 -133q0 -78 47 -121t138 -43q119 0 192.5 64t73.5 167z" />
    <glyph glyph-name="Hcircumflex" unicode="&#x124;" horiz-adv-x="1698" 
d="M836 1958h37q73 -98 192 -193.5t252 -158.5l-10 -31q-310 48 -494 125q-68 -34 -182 -68.5t-229 -56.5l-11 31q130 62 248.5 156.5t196.5 195.5zM1640 1450v-41q-50 -2 -75.5 -8.5t-43 -26.5t-22 -51t-4.5 -90v-1016q0 -58 5 -89.5t22.5 -51.5t43 -26.5t74.5 -8.5v-41
q-110 6 -344 6q-236 0 -362 -6v41q50 2 76 8.5t43 26.5t21.5 51t4.5 90v492h-461v-492q0 -58 5 -89.5t22.5 -51.5t43.5 -26.5t75 -8.5v-41q-120 6 -342 6q-248 0 -365 -6v41q50 2 76 8.5t43.5 26.5t22 51t4.5 90v1016q0 58 -5 89.5t-22.5 51.5t-43.5 26.5t-75 8.5v41
q117 -6 365 -6q222 0 342 6v-41q-50 -2 -76 -8.5t-43.5 -26.5t-22 -51t-4.5 -90v-483h461v483q0 59 -5 90t-22 51t-43 26.5t-75 8.5v41q126 -6 362 -6q234 0 344 6z" />
    <glyph glyph-name="hcircumflex" unicode="&#x125;" horiz-adv-x="1274" 
d="M594 2089h37q73 -98 192 -193.5t252 -158.5l-10 -31q-310 48 -494 125q-68 -34 -182 -68.5t-229 -56.5l-11 31q130 62 248.5 156.5t196.5 195.5zM520 1602v-664q93 154 326 154q163 0 231 -82q60 -72 60 -265v-555q0 -84 25 -115.5t89 -31.5v-43q-220 8 -286 8
q-71 0 -291 -8v43q53 0 73.5 31.5t20.5 115.5v666q0 66 -24 97.5t-76 31.5q-59 0 -103.5 -42t-44.5 -105v-648q0 -84 20.5 -115.5t73.5 -31.5v-43q-204 8 -270 8q-71 0 -307 -8v43q64 0 89.5 31.5t25.5 115.5v1166q0 95 -26 137.5t-89 42.5v43q64 -6 127 -6q215 0 356 29z
" />
    <glyph glyph-name="Hbar" unicode="&#x126;" horiz-adv-x="1698" 
d="M1640 1450v-41q-50 -2 -75.5 -8.5t-43 -26.5t-22 -51t-4.5 -90v-141h145v-41h-145v-834q0 -58 5 -89.5t22.5 -51.5t43 -26.5t74.5 -8.5v-41q-110 6 -344 6q-236 0 -362 -6v41q50 2 76 8.5t43 26.5t21.5 51t4.5 90v492h-461v-492q0 -58 5 -89.5t22.5 -51.5t43.5 -26.5
t75 -8.5v-41q-120 6 -342 6q-248 0 -365 -6v41q50 2 76 8.5t43.5 26.5t22 51t4.5 90v834h-146v41h146v141q0 58 -5 89.5t-22.5 51.5t-43.5 26.5t-75 8.5v41q117 -6 365 -6q222 0 342 6v-41q-50 -2 -76 -8.5t-43.5 -26.5t-22 -51t-4.5 -90v-141h461v141q0 59 -5 90t-22 51
t-43 26.5t-75 8.5v41q126 -6 362 -6q234 0 344 6zM1079 1051h-461v-301h461v301z" />
    <glyph glyph-name="hbar" unicode="&#x127;" horiz-adv-x="1274" 
d="M1137 745v-555q0 -84 25 -115.5t89 -31.5v-43q-220 8 -286 8q-71 0 -291 -8v43q53 0 73.5 31.5t20.5 115.5v666q0 66 -24 97.5t-76 31.5q-59 0 -103.5 -42t-44.5 -105v-648q0 -84 20.5 -115.5t73.5 -31.5v-43q-204 8 -270 8q-71 0 -307 -8v43q64 0 89.5 31.5t25.5 115.5
v1055h-136v41h136v70q0 95 -26 137.5t-89 42.5v43q64 -6 127 -6q215 0 356 29v-316h289v-41h-289v-307q93 154 326 154q163 0 231 -82q60 -72 60 -265z" />
    <glyph glyph-name="Itilde" unicode="&#x128;" horiz-adv-x="821" 
d="M232 1921q60 0 113 -14t91.5 -33.5t75 -39.5t81 -34t92.5 -14q115 0 198 108l29 -14q-39 -159 -120 -236t-183 -77q-74 0 -139.5 21.5t-105 47t-96 47t-114.5 21.5q-114 0 -199 -111l-28 15q39 159 120.5 236t184.5 77zM764 1450v-41q-50 -2 -76 -8.5t-43.5 -26.5
t-22 -51t-4.5 -90v-1016q0 -58 5 -89.5t22.5 -51.5t43.5 -26.5t75 -8.5v-41q-120 6 -342 6q-248 0 -365 -6v41q50 2 76 8.5t43.5 26.5t22 51t4.5 90v1016q0 58 -5 89.5t-22.5 51.5t-43.5 26.5t-75 8.5v41q117 -6 365 -6q222 0 342 6z" />
    <glyph glyph-name="itilde" unicode="&#x129;" horiz-adv-x="676" 
d="M169 1634q60 0 113 -21t86 -46.5t79 -46.5t93 -21q92 0 158 109l28 -15q-34 -169 -103.5 -251t-158.5 -82q-60 0 -113.5 21.5t-86.5 47t-79 47t-93 21.5q-91 0 -158 -111l-29 14q34 170 104 252t160 82zM526 1085v-895q0 -84 25.5 -115.5t89.5 -31.5v-43q-220 8 -291 8
t-307 -8v43q64 0 89.5 31.5t25.5 115.5v650q0 95 -26 137.5t-89 42.5v43q65 -6 127 -6q213 0 356 28z" />
    <glyph glyph-name="Imacron" unicode="&#x12a;" horiz-adv-x="821" 
d="M864 1677h-885v52h885v-52zM764 1450v-41q-50 -2 -76 -8.5t-43.5 -26.5t-22 -51t-4.5 -90v-1016q0 -58 5 -89.5t22.5 -51.5t43.5 -26.5t75 -8.5v-41q-120 6 -342 6q-248 0 -365 -6v41q50 2 76 8.5t43.5 26.5t22 51t4.5 90v1016q0 58 -5 89.5t-22.5 51.5t-43.5 26.5
t-75 8.5v41q117 -6 365 -6q222 0 342 6z" />
    <glyph glyph-name="imacron" unicode="&#x12b;" horiz-adv-x="676" 
d="M662 1407h-680v51h680v-51zM526 1085v-895q0 -84 25.5 -115.5t89.5 -31.5v-43q-220 8 -291 8t-307 -8v43q64 0 89.5 31.5t25.5 115.5v650q0 95 -26 137.5t-89 42.5v43q65 -6 127 -6q213 0 356 28z" />
    <glyph glyph-name="Ibreve" unicode="&#x12c;" horiz-adv-x="821" 
d="M866 1884l25 -22q-22 -55 -61.5 -105.5t-98.5 -95t-144.5 -71.5t-185.5 -27t-185.5 27t-144.5 71.5t-98.5 95t-60.5 105.5l24 22q187 -119 465 -119t465 119zM764 1450v-41q-50 -2 -76 -8.5t-43.5 -26.5t-22 -51t-4.5 -90v-1016q0 -58 5 -89.5t22.5 -51.5t43.5 -26.5
t75 -8.5v-41q-120 6 -342 6q-248 0 -365 -6v41q50 2 76 8.5t43.5 26.5t22 51t4.5 90v1016q0 58 -5 89.5t-22.5 51.5t-43.5 26.5t-75 8.5v41q117 -6 365 -6q222 0 342 6z" />
    <glyph glyph-name="ibreve" unicode="&#x12d;" horiz-adv-x="676" 
d="M715 1614l35 -19q-15 -51 -36 -96t-55.5 -91t-77.5 -79t-105 -53.5t-134 -20.5q-89 0 -161.5 30t-120 82t-77 107.5t-48.5 120.5l35 19q142 -115 372 -115q231 0 373 115zM526 1085v-895q0 -84 25.5 -115.5t89.5 -31.5v-43q-220 8 -291 8t-307 -8v43q64 0 89.5 31.5
t25.5 115.5v650q0 95 -26 137.5t-89 42.5v43q65 -6 127 -6q213 0 356 28z" />
    <glyph glyph-name="Iogonek" unicode="&#x12e;" horiz-adv-x="821" 
d="M764 1450v-41q-50 -2 -76 -8.5t-43.5 -26.5t-22 -51t-4.5 -90v-1016q0 -58 5 -89.5t22.5 -51.5t43.5 -26.5t75 -8.5v-41l-51 2q-112 -39 -165.5 -89t-53.5 -97q0 -41 20 -59.5t62 -18.5q34 0 73 13.5t62 33.5l27 -31q-60 -74 -133.5 -106.5t-180.5 -32.5
q-99 0 -150.5 37.5t-51.5 107.5q0 86 108 148t306 96q-132 2 -214 2q-248 0 -365 -6v41q50 2 76 8.5t43.5 26.5t22 51t4.5 90v1016q0 58 -5 89.5t-22.5 51.5t-43.5 26.5t-75 8.5v41q117 -6 365 -6q222 0 342 6z" />
    <glyph glyph-name="iogonek" unicode="&#x12f;" horiz-adv-x="676" 
d="M332 1249q-109 0 -166 44.5t-57 131.5t57 132t166 45q107 0 165 -45t58 -132q0 -86 -58 -131t-165 -45zM658 -215l26 -31q-59 -74 -132.5 -106.5t-180.5 -32.5q-99 0 -151 37.5t-52 107.5q0 87 92.5 149t264.5 96q-159 3 -175 3q-71 0 -307 -8v43q64 0 89.5 31.5
t25.5 115.5v650q0 95 -26 137.5t-89 42.5v43q65 -6 127 -6q213 0 356 28v-895q0 -84 25.5 -115.5t89.5 -31.5v-43l-42 2q-3 -2 -9.5 -5t-9.5 -5q-74 -37 -106.5 -83.5t-32.5 -92.5q0 -78 82 -78q34 0 73 13.5t62 33.5z" />
    <glyph glyph-name="Idotaccent" unicode="&#x130;" horiz-adv-x="821" 
d="M422 1999q107 0 165 -45t58 -132q0 -86 -58 -131t-165 -45q-109 0 -166 44.5t-57 131.5t57 132t166 45zM764 1450v-41q-50 -2 -76 -8.5t-43.5 -26.5t-22 -51t-4.5 -90v-1016q0 -58 5 -89.5t22.5 -51.5t43.5 -26.5t75 -8.5v-41q-120 6 -342 6q-248 0 -365 -6v41
q50 2 76 8.5t43.5 26.5t22 51t4.5 90v1016q0 58 -5 89.5t-22.5 51.5t-43.5 26.5t-75 8.5v41q117 -6 365 -6q222 0 342 6z" />
    <glyph glyph-name="dotlessi" unicode="&#x131;" horiz-adv-x="676" 
d="M526 1085v-895q0 -84 25.5 -115.5t89.5 -31.5v-43q-220 8 -291 8t-307 -8v43q64 0 89.5 31.5t25.5 115.5v650q0 95 -26 137.5t-89 42.5v43q65 -6 127 -6q213 0 356 28z" />
    <glyph glyph-name="IJ" unicode="&#x132;" horiz-adv-x="1634" 
d="M764 1450v-41q-50 -2 -76 -8.5t-43.5 -26.5t-22 -51t-4.5 -90v-1016q0 -58 5 -89.5t22.5 -51.5t43.5 -26.5t75 -8.5v-41q-120 6 -342 6q-248 0 -365 -6v41q50 2 76 8.5t43.5 26.5t22 51t4.5 90v1016q0 58 -5 89.5t-22.5 51.5t-43.5 26.5t-75 8.5v41q117 -6 365 -6
q222 0 342 6zM1590 1450v-41q-50 -2 -76 -8.5t-43.5 -26.5t-22 -51t-4.5 -90v-750q0 -25 0.5 -81.5t0.5 -86.5q0 -252 -36 -366q-47 -147 -200 -240.5t-375 -93.5q-150 0 -229 39q-103 52 -103 153q0 72 55 115t146 43q86 0 135 -38.5t49 -112.5q0 -48 -29.5 -90t-89.5 -64
q13 -2 37 -2q65 0 112 36.5t69 92.5q30 83 36.5 177t6.5 333v936q0 58 -5 89.5t-22.5 51.5t-43.5 26.5t-75 8.5v41q111 -6 344 -6q237 0 363 6z" />
    <glyph glyph-name="ij" unicode="&#x133;" horiz-adv-x="1249" 
d="M309 1602q107 0 165 -45t58 -132q0 -86 -58 -131t-165 -45q-109 0 -166 44.5t-57 131.5t57 132t166 45zM928 1602q107 0 165 -45t58 -132q0 -86 -58 -131t-165 -45q-109 0 -166 44.5t-57 131.5t57 132t166 45zM1122 1085v-915q0 -146 -28.5 -247.5t-94 -171.5
t-173.5 -103t-267 -33q-68 0 -123.5 9t-100 28t-69 52.5t-24.5 78.5q0 59 56 100t157 41q93 0 153 -34.5t60 -98.5q0 -51 -38.5 -86t-101.5 -49q25 -2 50 -2q97 0 136.5 60t39.5 194v217q-93 -154 -326 -154q-163 0 -231 82q-60 72 -60 264v523q0 95 -25.5 137.5t-88.5 42.5
v43q64 -6 127 -6q212 0 356 28v-878q0 -66 24 -97.5t76 -31.5q59 0 103.5 42t44.5 105v615q0 95 -26 137.5t-89 42.5v43q64 -6 127 -6q213 0 356 28z" />
    <glyph glyph-name="Jcircumflex" unicode="&#x134;" horiz-adv-x="799" 
d="M373 1958h37q73 -98 192 -193.5t252 -158.5l-10 -31q-310 48 -494 125q-68 -34 -182 -68.5t-229 -56.5l-11 31q130 62 248.5 156.5t196.5 195.5zM754 1450v-41q-50 -2 -76 -8.5t-43.5 -26.5t-22 -51t-4.5 -90v-750q0 -25 0.5 -81.5t0.5 -86.5q0 -252 -36 -366
q-47 -147 -200 -240.5t-375 -93.5q-150 0 -229 39q-103 52 -103 153q0 72 55 115t146 43q86 0 135 -38.5t49 -112.5q0 -48 -29.5 -90t-89.5 -64q13 -2 37 -2q65 0 112 36.5t69 92.5q30 83 36.5 177t6.5 333v936q0 58 -5 89.5t-22.5 51.5t-43.5 26.5t-75 8.5v41
q111 -6 344 -6q237 0 363 6z" />
    <glyph glyph-name="jcircumflex" unicode="&#x135;" horiz-adv-x="649" 
d="M294 1704h37q65 -125 167 -242t216 -192l-16 -29q-122 22 -238.5 55.5t-187.5 67.5q-132 -76 -344 -123l-17 29q112 73 213 189.5t170 244.5zM520 1085v-921q0 -180 -32.5 -278.5t-112.5 -168.5q-118 -102 -387 -102q-137 0 -228 41q-49 22 -76.5 62t-27.5 89
q0 72 55 115t146 43q86 0 135 -38.5t49 -112.5q0 -48 -29.5 -90t-89.5 -64q38 -4 55 -4q44 0 81 17t57 48q26 43 31.5 127t5.5 316v676q0 95 -26 137.5t-89 42.5v43q64 -6 127 -6q213 0 356 28z" />
    <glyph glyph-name="Kcommaaccent" unicode="&#x136;" horiz-adv-x="1544" 
d="M977 958l475 -792q28 -46 55 -74t70 -51v-41q-173 6 -369 6q-151 0 -293 -6v41q65 3 91.5 11.5t26.5 27.5q0 16 -21 53l-297 502q-30 50 -49 68.5t-48 22.5v-509q0 -58 5 -89.5t22.5 -51.5t43.5 -26.5t75 -8.5v-41q-120 6 -342 6q-248 0 -365 -6v41q50 2 76 8.5
t43.5 26.5t22 51t4.5 90v1016q0 58 -5 89.5t-22.5 51.5t-43.5 26.5t-75 8.5v41q117 -6 365 -6q222 0 342 6v-41q-50 -2 -76 -8.5t-43.5 -26.5t-22 -51t-4.5 -90v-462q82 6 159.5 61t191.5 182l69 78q91 102 91 184q0 60 -47 96t-121 39v39q171 -6 346 -6q123 0 206 6v-39
q-178 -48 -335 -225zM883 -94q87 0 138.5 -43.5t51.5 -124.5q0 -106 -71.5 -171.5t-204.5 -68.5l-4 45q89 11 132.5 34.5t55.5 68.5q-33 -31 -108 -31q-83 0 -127.5 35.5t-44.5 105.5q0 73 46.5 111.5t135.5 38.5z" />
    <glyph glyph-name="kcommaaccent" unicode="&#x137;" horiz-adv-x="1247" 
d="M844 769l325 -619q2 -4 13 -24t15.5 -26.5t14 -20.5t19 -22t20.5 -14v-43q-188 8 -247 8q-69 0 -289 -8v43q59 0 59 38q0 13 -8 32l-180 381q-22 42 -66 45v-349q0 -84 25.5 -115.5t89.5 -31.5v-43q-220 8 -291 8t-307 -8v43q64 0 89.5 31.5t25.5 115.5v1166
q0 95 -26 137.5t-89 42.5v43q64 -6 127 -6q215 0 356 29v-1024q60 2 88 30l158 148q72 68 72 133q0 53 -46.5 90t-117.5 43v41q117 -6 246 -6q200 0 280 6v-41q-143 -39 -303 -201zM711 -92q85 0 137.5 -44t52.5 -124q0 -106 -71.5 -171.5t-204.5 -68.5l-4 45
q89 11 132.5 34.5t55.5 68.5q-33 -31 -108 -31q-83 0 -127.5 35.5t-44.5 105.5q0 73 46.5 111.5t135.5 38.5z" />
    <glyph glyph-name="kgreenlandic" unicode="&#x138;" horiz-adv-x="1247" 
d="M842 733l313 -583q25 -51 47.5 -76t54.5 -31v-43q-188 8 -247 8q-61 0 -269 -8v43q60 0 60 39q0 12 -8 31l-201 370q-22 42 -66 45v-338q0 -84 25.5 -115.5t89.5 -31.5v-43q-220 8 -291 8t-307 -8v43q64 0 89.5 31.5t25.5 115.5v650q0 95 -26 137.5t-89 42.5v43
q65 -6 127 -6q213 0 356 28v-518q64 4 107.5 29t85.5 78l155 182q33 40 33 78q0 37 -34 61t-97 27v41q108 -6 211 -6q139 0 219 6v-41q-81 -9 -127.5 -31t-83.5 -69z" />
    <glyph glyph-name="Lacute" unicode="&#x139;" horiz-adv-x="1282" 
d="M580 1923q28 14 63 14q40 0 75 -19.5t54 -57.5q12 -27 12 -54q0 -37 -20.5 -70t-56.5 -50q-40 -21 -96 -31t-149 -26.5t-192 -47.5l-14 25q66 55 119.5 112.5t80 92t58.5 65.5t66 47zM784 1450v-41q-74 -3 -106.5 -16t-46 -48t-13.5 -112v-1057q0 -84 19 -106.5t86 -22.5
h68q71 0 154.5 70.5t151.5 189.5t91 246h47q-6 -74 -6 -188q0 -222 14 -365q-139 6 -469 6q-479 0 -717 -6v41q50 2 76 8.5t43.5 26.5t22 51t4.5 90v1016q0 58 -5 89.5t-22.5 51.5t-43.5 26.5t-75 8.5v41q117 -6 365 -6q236 0 362 6z" />
    <glyph glyph-name="lacute" unicode="&#x13a;" horiz-adv-x="672" 
d="M490 2054q28 14 63 14q40 0 75 -19.5t54 -57.5q12 -27 12 -54q0 -37 -20.5 -70t-56.5 -50q-40 -21 -96 -31t-149 -26.5t-192 -47.5l-14 25q66 55 119.5 112.5t80 92t58.5 65.5t66 47zM520 1602v-1412q0 -84 25.5 -115.5t89.5 -31.5v-43q-220 8 -291 8t-307 -8v43
q64 0 89.5 31.5t25.5 115.5v1166q0 95 -26 137.5t-89 42.5v43q64 -6 127 -6q215 0 356 29z" />
    <glyph glyph-name="Lcommaaccent" unicode="&#x13b;" horiz-adv-x="1282" 
d="M784 1450v-41q-74 -3 -106.5 -16t-46 -48t-13.5 -112v-1057q0 -84 19 -106.5t86 -22.5h68q71 0 154.5 70.5t151.5 189.5t91 246h47q-6 -74 -6 -188q0 -222 14 -365q-139 6 -469 6q-479 0 -717 -6v41q50 2 76 8.5t43.5 26.5t22 51t4.5 90v1016q0 58 -5 89.5t-22.5 51.5
t-43.5 26.5t-75 8.5v41q117 -6 365 -6q236 0 362 6zM752 -94q87 0 138.5 -43.5t51.5 -124.5q0 -106 -71.5 -171.5t-204.5 -68.5l-4 45q89 11 132.5 34.5t55.5 68.5q-33 -31 -108 -31q-83 0 -127.5 35.5t-44.5 105.5q0 73 46.5 111.5t135.5 38.5z" />
    <glyph glyph-name="lcommaaccent" unicode="&#x13c;" horiz-adv-x="672" 
d="M520 1602v-1412q0 -84 25.5 -115.5t89.5 -31.5v-43q-220 8 -291 8t-307 -8v43q64 0 89.5 31.5t25.5 115.5v1166q0 95 -26 137.5t-89 42.5v43q64 -6 127 -6q215 0 356 29zM328 -92q85 0 137.5 -44t52.5 -124q0 -106 -71.5 -171.5t-204.5 -68.5l-4 45q89 11 132.5 34.5
t55.5 68.5q-33 -31 -108 -31q-83 0 -127.5 35.5t-44.5 105.5q0 73 46.5 111.5t135.5 38.5z" />
    <glyph glyph-name="Lcaron" unicode="&#x13d;" horiz-adv-x="1282" 
d="M1175 1462q10 -23 10 -73q0 -41 -37.5 -104t-80 -115t-144.5 -170l-18 -21l-29 8q41 260 41 338q0 43 -12.5 62.5t-48.5 19.5v43q64 -4 124 -4q97 0 195 16zM784 1450v-41q-74 -3 -106.5 -16t-46 -48t-13.5 -112v-1057q0 -84 19 -106.5t86 -22.5h68q71 0 154.5 70.5
t151.5 189.5t91 246h47q-6 -74 -6 -188q0 -222 14 -365q-139 6 -469 6q-479 0 -717 -6v41q50 2 76 8.5t43.5 26.5t22 51t4.5 90v1016q0 58 -5 89.5t-22.5 51.5t-43.5 26.5t-75 8.5v41q117 -6 365 -6q236 0 362 6z" />
    <glyph glyph-name="lcaron" unicode="&#x13e;" horiz-adv-x="672" 
d="M865 1606q10 -25 10 -84q0 -29 -14.5 -63.5t-53.5 -88.5t-70.5 -93t-101.5 -124l-28 8q41 237 41 297q0 43 -8.5 62.5t-32.5 19.5v43q20 -1 56 -1q93 0 202 24zM520 1602v-1412q0 -84 25.5 -115.5t89.5 -31.5v-43q-220 8 -291 8t-307 -8v43q64 0 89.5 31.5t25.5 115.5
v1166q0 95 -26 137.5t-89 42.5v43q64 -6 127 -6q215 0 356 29z" />
    <glyph glyph-name="Ldot" unicode="&#x13f;" horiz-adv-x="1399" 
d="M784 1450v-41q-74 -3 -106.5 -16t-46 -48t-13.5 -112v-1057q0 -84 19 -106.5t86 -22.5h68q71 0 154.5 70.5t151.5 189.5t91 246h47q-6 -74 -6 -188q0 -222 14 -365q-139 6 -469 6q-479 0 -717 -6v41q50 2 76 8.5t43.5 26.5t22 51t4.5 90v1016q0 58 -5 89.5t-22.5 51.5
t-43.5 26.5t-75 8.5v41q117 -6 365 -6q236 0 362 6zM1157 951q98 0 150.5 -45t52.5 -132q0 -86 -52.5 -131t-150.5 -45q-99 0 -151 44.5t-52 131.5t52 132t151 45z" />
    <glyph glyph-name="ldot" unicode="&#x140;" horiz-adv-x="1128" 
d="M520 1602v-1412q0 -84 25.5 -115.5t89.5 -31.5v-43q-220 8 -291 8t-307 -8v43q64 0 89.5 31.5t25.5 115.5v1166q0 95 -26 137.5t-89 42.5v43q64 -6 127 -6q215 0 356 29zM905 826q98 0 150.5 -45t52.5 -132q0 -86 -52.5 -131t-150.5 -45q-99 0 -151 44.5t-52 131.5
t52 132t151 45z" />
    <glyph glyph-name="Lslash" unicode="&#x141;" horiz-adv-x="1282" 
d="M1229 365q0 -222 14 -365q-139 6 -469 6q-479 0 -717 -6v41q50 2 76 8.5t43.5 26.5t22 51t4.5 90v281l-146 -84v47l146 84v688q0 58 -5 89.5t-22.5 51.5t-43.5 26.5t-75 8.5v41q117 -6 365 -6q236 0 362 6v-41q-74 -3 -106.5 -16t-46 -48t-13.5 -112v-468l351 204v-47
l-351 -204v-542q0 -84 19 -106.5t86 -22.5h68q71 0 154.5 70.5t151.5 189.5t91 246h47q-6 -74 -6 -188z" />
    <glyph glyph-name="lslash" unicode="&#x142;" horiz-adv-x="672" 
d="M520 864v-674q0 -84 25.5 -115.5t89.5 -31.5v-43q-220 8 -291 8t-307 -8v43q64 0 89.5 31.5t25.5 115.5v459l-177 -153v61l177 153v646q0 95 -26 137.5t-89 42.5v43q64 -6 127 -6q215 0 356 29v-676l176 155v-61z" />
    <glyph glyph-name="Nacute" unicode="&#x143;" horiz-adv-x="1499" 
d="M940 1923q28 14 63 14q40 0 75 -19.5t54 -57.5q12 -27 12 -54q0 -37 -20.5 -70t-56.5 -50q-40 -21 -96 -31t-149 -26.5t-192 -47.5l-14 25q66 55 119.5 112.5t80 92t58.5 65.5t66 47zM1450 1450v-41q-92 -20 -118.5 -81t-26.5 -238v-1090q-30 3 -67 3q-36 0 -77 -3
l-907 991v-590q0 -58 1 -93.5t4 -74t9 -60t16.5 -44.5t25 -35t37 -23.5t49.5 -18t65 -11.5v-41q-83 6 -230 6q-109 0 -170 -6v41q92 20 119 81t27 238v873q0 58 -5 89.5t-22.5 51.5t-43.5 26.5t-75 8.5v41q62 -6 170 -6q112 0 189 6l837 -885v484q0 77 -1.5 120.5t-9 87.5
t-19.5 65.5t-36.5 41.5t-57 29t-82.5 16v41q83 -6 229 -6q108 0 170 6z" />
    <glyph glyph-name="nacute" unicode="&#x144;" horiz-adv-x="1280" 
d="M879 1679q42 -33 42 -92q0 -54 -34 -94q-29 -34 -76 -65t-126 -82.5t-159 -118.5l-22 18q48 96 77.5 187.5t47.5 143.5t49 87q41 49 111 49q51 0 90 -33zM852 1092q163 0 231 -82q60 -72 60 -265v-555q0 -84 25.5 -115.5t88.5 -31.5v-43q-220 8 -286 8q-71 0 -291 -8v43
q53 0 73.5 31t20.5 116v666q0 66 -24 97.5t-76 31.5q-59 0 -103.5 -42t-44.5 -105v-648q0 -84 21 -115.5t74 -31.5v-43q-208 8 -271 8q-71 0 -307 -8v43q64 0 89.5 31.5t25.5 115.5v650q0 95 -26 137.5t-89 42.5v43q65 -6 127 -6q213 0 356 28v-147q93 154 326 154z" />
    <glyph glyph-name="Ncommaaccent" unicode="&#x145;" horiz-adv-x="1499" 
d="M1450 1450v-41q-92 -20 -118.5 -81t-26.5 -238v-1090q-30 3 -67 3q-36 0 -77 -3l-907 991v-590q0 -58 1 -93.5t4 -74t9 -60t16.5 -44.5t25 -35t37 -23.5t49.5 -18t65 -11.5v-41q-83 6 -230 6q-109 0 -170 -6v41q92 20 119 81t27 238v873q0 58 -5 89.5t-22.5 51.5
t-43.5 26.5t-75 8.5v41q62 -6 170 -6q112 0 189 6l837 -885v484q0 77 -1.5 120.5t-9 87.5t-19.5 65.5t-36.5 41.5t-57 29t-82.5 16v41q83 -6 229 -6q108 0 170 6zM766 -94q87 0 138.5 -43.5t51.5 -124.5q0 -106 -71.5 -171.5t-204.5 -68.5l-4 45q89 11 132.5 34.5t55.5 68.5
q-33 -31 -108 -31q-83 0 -127.5 35.5t-44.5 105.5q0 73 46.5 111.5t135.5 38.5z" />
    <glyph glyph-name="ncommaaccent" unicode="&#x146;" horiz-adv-x="1280" 
d="M852 1092q163 0 231 -82q60 -72 60 -265v-555q0 -84 25.5 -115.5t88.5 -31.5v-43q-220 8 -286 8q-71 0 -291 -8v43q53 0 73.5 31t20.5 116v666q0 66 -24 97.5t-76 31.5q-59 0 -103.5 -42t-44.5 -105v-648q0 -84 21 -115.5t74 -31.5v-43q-208 8 -271 8q-71 0 -307 -8v43
q64 0 89.5 31.5t25.5 115.5v650q0 95 -26 137.5t-89 42.5v43q65 -6 127 -6q213 0 356 28v-147q93 154 326 154zM668 -92q85 0 137.5 -44t52.5 -124q0 -106 -71.5 -171.5t-204.5 -68.5l-4 45q89 11 132.5 34.5t55.5 68.5q-33 -31 -108 -31q-83 0 -127.5 35.5t-44.5 105.5
q0 73 46.5 111.5t135.5 38.5z" />
    <glyph glyph-name="Ncaron" unicode="&#x147;" horiz-adv-x="1499" 
d="M1229 1937l10 -30q-131 -62 -249 -157t-195 -196h-37q-75 99 -193.5 194.5t-251.5 158.5l11 30q140 -21 276.5 -55.5t216.5 -69.5q68 35 182 69.5t230 55.5zM1450 1450v-41q-92 -20 -118.5 -81t-26.5 -238v-1090q-30 3 -67 3q-36 0 -77 -3l-907 991v-590q0 -58 1 -93.5
t4 -74t9 -60t16.5 -44.5t25 -35t37 -23.5t49.5 -18t65 -11.5v-41q-83 6 -230 6q-109 0 -170 -6v41q92 20 119 81t27 238v873q0 58 -5 89.5t-22.5 51.5t-43.5 26.5t-75 8.5v41q62 -6 170 -6q112 0 189 6l837 -885v484q0 77 -1.5 120.5t-9 87.5t-19.5 65.5t-36.5 41.5t-57 29
t-82.5 16v41q83 -6 229 -6q108 0 170 6z" />
    <glyph glyph-name="ncaron" unicode="&#x148;" horiz-adv-x="1280" 
d="M1016 1704l16 -29q-112 -73 -213 -189.5t-170 -244.5h-37q-65 125 -167 242t-216 192l17 29q121 -22 237.5 -55.5t188.5 -67.5q129 75 344 123zM852 1092q163 0 231 -82q60 -72 60 -265v-555q0 -84 25.5 -115.5t88.5 -31.5v-43q-220 8 -286 8q-71 0 -291 -8v43
q53 0 73.5 31t20.5 116v666q0 66 -24 97.5t-76 31.5q-59 0 -103.5 -42t-44.5 -105v-648q0 -84 21 -115.5t74 -31.5v-43q-208 8 -271 8q-71 0 -307 -8v43q64 0 89.5 31.5t25.5 115.5v650q0 95 -26 137.5t-89 42.5v43q65 -6 127 -6q213 0 356 28v-147q93 154 326 154z" />
    <glyph glyph-name="napostrophe" unicode="&#x149;" horiz-adv-x="1280" 
d="M1143 745v-555q0 -84 25.5 -115.5t88.5 -31.5v-43q-220 8 -286 8q-71 0 -291 -8v43q53 0 73.5 31t20.5 116v666q0 66 -24 97.5t-76 31.5q-59 0 -103.5 -42t-44.5 -105v-648q0 -84 21 -115.5t74 -31.5v-43q-208 8 -271 8q-71 0 -307 -8v43q64 0 89.5 31.5t25.5 115.5v650
q0 95 -26 137.5t-89 42.5v2q-26 -17 -50 -27l-18 37q54 25 96 71t58 97q11 36 11 68q0 20 -5 45q-55 -64 -150 -64q-82 0 -131 46.5t-49 129.5q0 80 53 128.5t139 48.5q112 0 162 -76q51 -69 51 -195q0 -166 -118 -272q52 -2 78 -2q213 0 356 28v-147q93 154 326 154
q163 0 231 -82q60 -72 60 -265z" />
    <glyph glyph-name="Eng" unicode="&#x14a;" horiz-adv-x="1493" 
d="M1276 1444q109 0 170 6v-41q-49 -2 -75 -8.5t-43.5 -26.5t-22.5 -51.5t-5 -89.5v-1139q0 -144 -19 -239.5t-59.5 -147.5t-92.5 -72t-130 -20q-123 0 -197.5 47t-74.5 141q0 76 54.5 119t146.5 43q85 0 134.5 -38.5t49.5 -108.5q0 -53 -29.5 -95.5t-89.5 -64.5
q13 -2 37 -2q109 0 162 83t60 264q-43 1 -95 -3l-907 991v-774q0 -58 5.5 -89.5t25.5 -51.5t49.5 -26.5t85.5 -8.5v-41q-74 6 -189 6q-108 0 -170 -6v41q49 2 75 8.5t43.5 26.5t22.5 51.5t5 89.5v1016q0 58 -5 89.5t-22.5 51.5t-43.5 26.5t-75 8.5v41q61 -6 170 -6
q113 0 189 6l837 -885v668q0 58 -5.5 89.5t-25.5 51.5t-49.5 26.5t-85.5 8.5v41q75 -6 189 -6z" />
    <glyph glyph-name="eng" unicode="&#x14b;" horiz-adv-x="1260" 
d="M852 1092q163 0 231 -82q60 -72 60 -265v-581q0 -177 -33 -274.5t-113 -172.5q-52 -49 -140.5 -75.5t-252.5 -26.5q-47 0 -95 5.5t-109 20t-99.5 49.5t-38.5 85q0 58 57 103.5t156 45.5q93 0 153 -34.5t60 -98.5q0 -96 -137 -129q24 -4 61 -4q96 0 138 100q24 58 24 309
v97v692q0 66 -24 97.5t-76 31.5q-59 0 -103.5 -42t-44.5 -105v-648q0 -84 21 -115.5t74 -31.5v-43q-208 8 -271 8q-71 0 -307 -8v43q64 0 89.5 31.5t25.5 115.5v650q0 95 -26 137.5t-89 42.5v43q65 -6 127 -6q213 0 356 28v-147q93 154 326 154z" />
    <glyph glyph-name="Omacron" unicode="&#x14c;" horiz-adv-x="1694" 
d="M1286 1677h-885v52h885v-52zM848 1479q352 0 562 -197.5t210 -544.5q0 -226 -98.5 -400.5t-274.5 -270t-401 -95.5q-352 0 -562 197.5t-210 544.5q0 226 98 400.5t274 270t402 95.5zM840 1442q-152 0 -244 -200t-92 -521q0 -319 101 -516t249 -197q152 0 244 200t92 521
q0 319 -101 516t-249 197z" />
    <glyph glyph-name="omacron" unicode="&#x14d;" horiz-adv-x="1180" 
d="M944 1407h-721v51h721v-51zM590 1092q123 0 217 -30t164.5 -95t107.5 -175t37 -262q0 -122 -24.5 -216.5t-69 -159t-110.5 -105.5t-145 -59.5t-177 -18.5q-123 0 -217 30t-165 94.5t-108 173.5t-37 261t37 262t108 175t165 95t217 30zM590 1051q-65 0 -104.5 -129
t-39.5 -392q0 -262 39.5 -390t104.5 -128t104 128t39 390q0 263 -39 392t-104 129z" />
    <glyph glyph-name="Obreve" unicode="&#x14e;" horiz-adv-x="1694" 
d="M1288 1884l25 -22q-22 -55 -61.5 -105.5t-98.5 -95t-144.5 -71.5t-185.5 -27t-185.5 27t-144.5 71.5t-98.5 95t-60.5 105.5l24 22q187 -119 465 -119t465 119zM848 1479q352 0 562 -197.5t210 -544.5q0 -226 -98.5 -400.5t-274.5 -270t-401 -95.5q-352 0 -562 197.5
t-210 544.5q0 226 98 400.5t274 270t402 95.5zM840 1442q-152 0 -244 -200t-92 -521q0 -319 101 -516t249 -197q152 0 244 200t92 521q0 319 -101 516t-249 197z" />
    <glyph glyph-name="obreve" unicode="&#x14f;" horiz-adv-x="1180" 
d="M961 1614l35 -19q-15 -51 -36 -96t-55.5 -91t-77.5 -79t-105 -53.5t-134 -20.5q-89 0 -161.5 30t-120 82t-77 107.5t-48.5 120.5l35 19q142 -115 372 -115q231 0 373 115zM590 1092q123 0 217 -30t164.5 -95t107.5 -175t37 -262q0 -122 -24.5 -216.5t-69 -159
t-110.5 -105.5t-145 -59.5t-177 -18.5q-123 0 -217 30t-165 94.5t-108 173.5t-37 261t37 262t108 175t165 95t217 30zM590 1051q-65 0 -104.5 -129t-39.5 -392q0 -262 39.5 -390t104.5 -128t104 128t39 390q0 263 -39 392t-104 129z" />
    <glyph glyph-name="Ohungarumlaut" unicode="&#x150;" horiz-adv-x="1694" 
d="M737 1931q36 24 79 24q76 0 118 -63q22 -34 22 -71q0 -68 -65 -111q-38 -25 -160 -59.5t-213 -69.5l-20 23q56 69 103.5 143t76.5 117.5t59 66.5zM1202 1931q36 24 79 24q76 0 118 -63q22 -34 22 -71q0 -68 -65 -111q-38 -25 -160 -59.5t-213 -69.5l-20 23q56 69 103 143
t76 117.5t60 66.5zM848 1479q352 0 562 -197.5t210 -544.5q0 -226 -98.5 -400.5t-274.5 -270t-401 -95.5q-352 0 -562 197.5t-210 544.5q0 226 98 400.5t274 270t402 95.5zM840 1442q-152 0 -244 -200t-92 -521q0 -319 101 -516t249 -197q152 0 244 200t92 521
q0 319 -101 516t-249 197z" />
    <glyph glyph-name="ohungarumlaut" unicode="&#x151;" horiz-adv-x="1180" 
d="M641 1673q56 -39 56 -102q0 -42 -26 -82q-20 -31 -59 -64t-106 -87t-127 -113l-27 12q27 97 47.5 226t44.5 169q40 65 118 65q42 0 79 -24zM1003 1673q57 -39 57 -103q0 -41 -26 -81q-20 -31 -59 -64t-106 -87.5t-128 -112.5l-27 12q28 98 48.5 226.5t44.5 168.5
q40 65 117 65q41 0 79 -24zM590 1092q123 0 217 -30t164.5 -95t107.5 -175t37 -262q0 -122 -24.5 -216.5t-69 -159t-110.5 -105.5t-145 -59.5t-177 -18.5q-123 0 -217 30t-165 94.5t-108 173.5t-37 261t37 262t108 175t165 95t217 30zM590 1051q-65 0 -104.5 -129
t-39.5 -392q0 -262 39.5 -390t104.5 -128t104 128t39 390q0 263 -39 392t-104 129z" />
    <glyph glyph-name="OE" unicode="&#x152;" horiz-adv-x="2130" 
d="M2028 303q0 -184 14 -303q-139 6 -469 6q-350 0 -567 -2q-95 -33 -181 -33q-342 0 -546.5 197.5t-204.5 544.5q0 226 95.5 400.5t267 270t390.5 95.5q87 0 179 -33q219 -2 567 -2q301 0 428 6q-14 -169 -14 -303q0 -95 6 -148h-47q-16 111 -46 192t-70.5 126t-84.5 65.5
t-94 20.5h-27q-64 0 -92.5 -12t-40.5 -46.5t-12 -111.5v-483h82q39 0 71 19t49 36t35.5 62.5t22 58.5t15.5 63q2 7 3 10h47q-7 -95 -7 -179q0 -18 0.5 -48t0.5 -43q0 -96 12 -270h-47q-8 42 -16 73t-24 66.5t-36.5 58t-52.5 37.5t-73 15h-82v-492q0 -77 12 -111.5
t40.5 -46.5t92.5 -12h68q33 0 66.5 13.5t70.5 46.5t67.5 82t55 127.5t35.5 175.5h47q-6 -75 -6 -189zM1063 176v1077q0 56 -25 95.5t-65.5 58.5t-78 27t-75.5 8q-95 0 -166.5 -91.5t-110 -255t-38.5 -374.5q0 -320 94.5 -516.5t235.5 -196.5q37 0 75 10t73.5 29t58 53
t22.5 76z" />
    <glyph glyph-name="oe" unicode="&#x153;" horiz-adv-x="1638" 
d="M1331 195q126 0 207 137l35 -13q-19 -66 -50.5 -124.5t-78 -110.5t-113 -82.5t-145.5 -30.5q-195 0 -300 135q-105 -135 -317 -135q-118 0 -208.5 30t-158.5 94.5t-103.5 173.5t-35.5 261t35.5 262t103.5 175t158.5 95t208.5 30q216 0 321 -143q112 143 308 143
q387 0 387 -459h-488q-1 -24 -1 -74q0 -84 14 -148.5t36.5 -104.5t54 -65.5t63.5 -35.5t67 -10zM569 12q65 0 104.5 127.5t39.5 386.5q0 266 -39.5 395.5t-104.5 129.5q-27 0 -48.5 -30.5t-38.5 -92t-26.5 -163t-9.5 -235.5t9.5 -235t26.5 -162t38.5 -91t48.5 -30z
M1184 1044q-82 0 -94 -372h196q2 163 -23 267.5t-79 104.5z" />
    <glyph glyph-name="Racute" unicode="&#x154;" horiz-adv-x="1477" 
d="M985 1686q-40 -21 -96 -31t-149 -26.5t-192 -47.5l-14 25q66 55 119.5 112.5t80 92t58.5 65.5t66 47q28 14 63 14q40 0 75 -19.5t54 -57.5q12 -27 12 -54q0 -37 -20.5 -70t-56.5 -50zM1501 109l27 -27q-61 -61 -135 -86t-172 -25q-141 0 -219.5 50.5t-96.5 171.5l-31 204
q-10 69 -21.5 117t-30 90t-46 63t-65.5 21h-93v-471q0 -58 5 -89.5t22.5 -51.5t43.5 -26.5t75 -8.5v-41q-120 6 -342 6q-248 0 -365 -6v41q50 2 76 8.5t43.5 26.5t22 51t4.5 90v1016q0 58 -5 89.5t-22.5 51.5t-43.5 26.5t-75 8.5v41q117 -6 353 -6q79 0 196 2t133 2
q312 0 464.5 -87.5t152.5 -268.5q0 -57 -14 -107t-50 -99.5t-91.5 -86.5t-143.5 -65t-202 -39q209 -12 316.5 -76.5t131.5 -190.5l43 -213q15 -75 35.5 -104t56.5 -29q37 0 63 27zM729 1409q-68 0 -89.5 -34.5t-21.5 -141.5v-504h56q61 0 106.5 18t73 47.5t44 74.5t22.5 92
t6 108q0 168 -46 254t-151 86z" />
    <glyph glyph-name="racute" unicode="&#x155;" horiz-adv-x="985" 
d="M717 1679q42 -33 42 -92q0 -54 -34 -94q-29 -34 -76 -65t-126 -82.5t-159 -118.5l-22 18q48 96 77.5 187.5t47.5 143.5t49 87q41 49 111 49q51 0 90 -33zM791 1092q53 0 91 -18.5t58.5 -50t29.5 -66t9 -72.5q0 -92 -51.5 -146.5t-136.5 -54.5q-89 0 -136 39.5t-47 107.5
q0 122 105 191q-37 0 -66 -14q-52 -22 -86.5 -72.5t-34.5 -110.5v-614q0 -96 40 -132t136 -36v-43q-252 8 -331 8q-76 0 -328 -8v43q64 0 89.5 31.5t25.5 115.5v650q0 95 -26 137.5t-89 42.5v43q65 -6 127 -6q213 0 356 28v-147q80 154 265 154z" />
    <glyph glyph-name="Rcommaaccent" unicode="&#x156;" horiz-adv-x="1477" 
d="M1501 109l27 -27q-61 -61 -135 -86t-172 -25q-141 0 -219.5 50.5t-96.5 171.5l-31 204q-10 69 -21.5 117t-30 90t-46 63t-65.5 21h-93v-471q0 -58 5 -89.5t22.5 -51.5t43.5 -26.5t75 -8.5v-41q-120 6 -342 6q-248 0 -365 -6v41q50 2 76 8.5t43.5 26.5t22 51t4.5 90v1016
q0 58 -5 89.5t-22.5 51.5t-43.5 26.5t-75 8.5v41q117 -6 353 -6q79 0 196 2t133 2q312 0 464.5 -87.5t152.5 -268.5q0 -57 -14 -107t-50 -99.5t-91.5 -86.5t-143.5 -65t-202 -39q209 -12 316.5 -76.5t131.5 -190.5l43 -213q15 -75 35.5 -104t56.5 -29q37 0 63 27zM729 1409
q-68 0 -89.5 -34.5t-21.5 -141.5v-504h56q61 0 106.5 18t73 47.5t44 74.5t22.5 92t6 108q0 168 -46 254t-151 86zM782 -94q87 0 138.5 -43.5t51.5 -124.5q0 -106 -71.5 -171.5t-204.5 -68.5l-4 45q89 11 132.5 34.5t55.5 68.5q-33 -31 -108 -31q-83 0 -127.5 35.5
t-44.5 105.5q0 73 46.5 111.5t135.5 38.5z" />
    <glyph glyph-name="rcommaaccent" unicode="&#x157;" horiz-adv-x="985" 
d="M791 1092q53 0 91 -18.5t58.5 -50t29.5 -66t9 -72.5q0 -92 -51.5 -146.5t-136.5 -54.5q-89 0 -136 39.5t-47 107.5q0 122 105 191q-37 0 -66 -14q-52 -22 -86.5 -72.5t-34.5 -110.5v-614q0 -96 40 -132t136 -36v-43q-252 8 -331 8q-76 0 -328 -8v43q64 0 89.5 31.5
t25.5 115.5v650q0 95 -26 137.5t-89 42.5v43q65 -6 127 -6q213 0 356 28v-147q80 154 265 154zM352 -92q85 0 137.5 -44t52.5 -124q0 -106 -71.5 -171.5t-204.5 -68.5l-4 45q89 11 132.5 34.5t55.5 68.5q-33 -31 -108 -31q-83 0 -127.5 35.5t-44.5 105.5q0 73 46.5 111.5
t135.5 38.5z" />
    <glyph glyph-name="Rcaron" unicode="&#x158;" horiz-adv-x="1477" 
d="M713 1554h-37q-75 99 -193.5 194.5t-251.5 158.5l11 30q140 -21 276.5 -55.5t216.5 -69.5q68 35 182 69.5t230 55.5l10 -30q-131 -62 -249 -157t-195 -196zM1501 109l27 -27q-61 -61 -135 -86t-172 -25q-141 0 -219.5 50.5t-96.5 171.5l-31 204q-10 69 -21.5 117t-30 90
t-46 63t-65.5 21h-93v-471q0 -58 5 -89.5t22.5 -51.5t43.5 -26.5t75 -8.5v-41q-120 6 -342 6q-248 0 -365 -6v41q50 2 76 8.5t43.5 26.5t22 51t4.5 90v1016q0 58 -5 89.5t-22.5 51.5t-43.5 26.5t-75 8.5v41q117 -6 353 -6q79 0 196 2t133 2q312 0 464.5 -87.5t152.5 -268.5
q0 -57 -14 -107t-50 -99.5t-91.5 -86.5t-143.5 -65t-202 -39q209 -12 316.5 -76.5t131.5 -190.5l43 -213q15 -75 35.5 -104t56.5 -29q37 0 63 27zM729 1409q-68 0 -89.5 -34.5t-21.5 -141.5v-504h56q61 0 106.5 18t73 47.5t44 74.5t22.5 92t6 108q0 168 -46 254t-151 86z
" />
    <glyph glyph-name="rcaron" unicode="&#x159;" horiz-adv-x="985" 
d="M854 1704l16 -29q-112 -73 -213 -189.5t-170 -244.5h-37q-65 125 -167 242t-216 192l17 29q121 -22 237.5 -55.5t188.5 -67.5q129 75 344 123zM791 1092q53 0 91 -18.5t58.5 -50t29.5 -66t9 -72.5q0 -92 -51.5 -146.5t-136.5 -54.5q-89 0 -136 39.5t-47 107.5
q0 122 105 191q-37 0 -66 -14q-52 -22 -86.5 -72.5t-34.5 -110.5v-614q0 -96 40 -132t136 -36v-43q-252 8 -331 8q-76 0 -328 -8v43q64 0 89.5 31.5t25.5 115.5v650q0 95 -26 137.5t-89 42.5v43q65 -6 127 -6q213 0 356 28v-147q80 154 265 154z" />
    <glyph glyph-name="Sacute" unicode="&#x15a;" horiz-adv-x="1255" 
d="M799 1923q28 14 63 14q40 0 75 -19.5t54 -57.5q12 -27 12 -54q0 -37 -20.5 -70t-56.5 -50q-40 -21 -96 -31t-149 -26.5t-192 -47.5l-14 25q66 55 119.5 112.5t80 92t58.5 65.5t66 47zM618 1479q83 0 151 -13.5t102.5 -28.5t78.5 -40q50 -29 70 -29q19 0 29 21.5t16 68.5
h47q-10 -147 -10 -500h-47q-6 86 -33 168t-71 149t-110 107.5t-143 40.5q-93 0 -151 -50t-58 -140q0 -99 60.5 -162.5t252.5 -196.5q31 -22 48 -34q67 -47 106 -76.5t88 -76t75 -88.5t44.5 -99.5t18.5 -122.5q0 -81 -29.5 -148.5t-80.5 -114.5t-121.5 -79.5t-152.5 -48
t-173 -15.5q-207 0 -363 76q-46 29 -69 29q-19 0 -29 -21t-17 -69h-47q9 156 9 594h47q6 -115 28.5 -208.5t64.5 -172t113 -122.5t166 -44q114 0 180 53t66 147q0 50 -15.5 95t-39 80t-65 73.5t-80.5 67.5t-99 69q-74 49 -114.5 78.5t-95.5 78.5t-83.5 91t-49.5 101t-21 125
q0 97 41.5 173t113.5 121.5t161 69t191 23.5z" />
    <glyph glyph-name="sacute" unicode="&#x15b;" horiz-adv-x="967" 
d="M711 1679q42 -33 42 -92q0 -54 -34 -94q-29 -34 -76 -65t-126 -82.5t-159 -118.5l-22 18q48 96 77.5 187.5t47.5 143.5t49 87q41 49 111 49q51 0 90 -33zM473 1092q81 0 150.5 -17.5t107.5 -38.5q21 -12 37 -12q41 0 51 66h41q-8 -107 -8 -369h-41q-7 61 -24 114.5
t-45.5 102t-75.5 76.5t-107 28q-52 0 -86.5 -31t-34.5 -83q0 -30 11 -59t25.5 -50.5t43.5 -49t49.5 -44t59 -46.5t57.5 -46q57 -47 89 -77t66.5 -74t50 -91t15.5 -104q0 -138 -120 -227t-293 -89q-128 0 -211 52q-66 34 -103 34q-39 0 -57 -71h-41q8 117 8 409h41
q19 -168 90 -270t180 -102q52 0 85.5 28.5t33.5 83.5q0 42 -12.5 77.5t-38 69t-53.5 61t-70 65.5q-11 9 -16 14q-110 101 -147 145q-93 112 -93 230q0 132 113.5 213.5t271.5 81.5z" />
    <glyph glyph-name="Scircumflex" unicode="&#x15c;" horiz-adv-x="1255" 
d="M623 1958h37q73 -98 192 -193.5t252 -158.5l-10 -31q-310 48 -494 125q-68 -34 -182 -68.5t-229 -56.5l-11 31q130 62 248.5 156.5t196.5 195.5zM618 1479q83 0 151 -13.5t102.5 -28.5t78.5 -40q50 -29 70 -29q19 0 29 21.5t16 68.5h47q-10 -147 -10 -500h-47
q-6 86 -33 168t-71 149t-110 107.5t-143 40.5q-93 0 -151 -50t-58 -140q0 -99 60.5 -162.5t252.5 -196.5q31 -22 48 -34q67 -47 106 -76.5t88 -76t75 -88.5t44.5 -99.5t18.5 -122.5q0 -81 -29.5 -148.5t-80.5 -114.5t-121.5 -79.5t-152.5 -48t-173 -15.5q-207 0 -363 76
q-46 29 -69 29q-19 0 -29 -21t-17 -69h-47q9 156 9 594h47q6 -115 28.5 -208.5t64.5 -172t113 -122.5t166 -44q114 0 180 53t66 147q0 50 -15.5 95t-39 80t-65 73.5t-80.5 67.5t-99 69q-74 49 -114.5 78.5t-95.5 78.5t-83.5 91t-49.5 101t-21 125q0 97 41.5 173t113.5 121.5
t161 69t191 23.5z" />
    <glyph glyph-name="scircumflex" unicode="&#x15d;" horiz-adv-x="967" 
d="M464 1704h37q65 -125 167 -242t216 -192l-16 -29q-122 22 -238.5 55.5t-187.5 67.5q-132 -76 -344 -123l-17 29q112 73 213 189.5t170 244.5zM473 1092q81 0 150.5 -17.5t107.5 -38.5q21 -12 37 -12q41 0 51 66h41q-8 -107 -8 -369h-41q-7 61 -24 114.5t-45.5 102
t-75.5 76.5t-107 28q-52 0 -86.5 -31t-34.5 -83q0 -30 11 -59t25.5 -50.5t43.5 -49t49.5 -44t59 -46.5t57.5 -46q57 -47 89 -77t66.5 -74t50 -91t15.5 -104q0 -138 -120 -227t-293 -89q-128 0 -211 52q-66 34 -103 34q-39 0 -57 -71h-41q8 117 8 409h41q19 -168 90 -270
t180 -102q52 0 85.5 28.5t33.5 83.5q0 42 -12.5 77.5t-38 69t-53.5 61t-70 65.5q-11 9 -16 14q-110 101 -147 145q-93 112 -93 230q0 132 113.5 213.5t271.5 81.5z" />
    <glyph glyph-name="Scedilla" unicode="&#x15e;" horiz-adv-x="1255" 
d="M1182 377q0 -80 -28.5 -147t-79 -114t-119.5 -79.5t-149.5 -48.5t-169.5 -17l-28 -94q81 31 182 31q84 0 128 -33t44 -86q0 -86 -105 -130t-280 -44q-126 0 -205 27l13 36q55 -10 119 -10q76 0 132 20t56 58q0 51 -98 51q-43 0 -68 -14l55 189q-176 6 -319 75
q-46 29 -69 29q-19 0 -29 -21t-17 -69h-47q9 156 9 594h47q6 -115 28.5 -208.5t64.5 -172t113 -122.5t166 -44q114 0 180 53t66 147q0 50 -15.5 95t-39 80t-65 73.5t-80.5 67.5t-99 69q-74 49 -114.5 78.5t-95.5 78.5t-83.5 91t-49.5 101t-21 125q0 97 41.5 173t113.5 121.5
t161 69t191 23.5q83 0 151 -13.5t102.5 -28.5t78.5 -40q50 -29 70 -29q19 0 29 21.5t16 68.5h47q-10 -147 -10 -500h-47q-6 86 -33 168t-71 149t-110 107.5t-143 40.5q-93 0 -151 -50t-58 -140q0 -99 60.5 -162.5t252.5 -196.5q31 -22 48 -34q67 -47 106 -76.5t88 -76
t75 -88.5t44.5 -99.5t18.5 -122.5z" />
    <glyph glyph-name="scedilla" unicode="&#x15f;" horiz-adv-x="967" 
d="M492 -29q-18 0 -48 2l-27 -96q72 31 162 31q74 0 112.5 -33t38.5 -86q0 -86 -88.5 -130t-234.5 -44q-114 0 -185 27l13 36q45 -10 98 -10q50 0 88.5 20t38.5 58q0 51 -57 51q-43 0 -68 -14l57 198q-69 14 -111 42q-66 34 -103 34q-39 0 -57 -71h-41q8 117 8 409h41
q19 -168 90 -270t180 -102q52 0 85.5 28.5t33.5 83.5q0 42 -12.5 77.5t-38 69t-53.5 61t-70 65.5q-11 9 -16 14q-110 101 -147 145q-93 112 -93 230q0 132 113.5 213.5t271.5 81.5q81 0 150.5 -17.5t107.5 -38.5q21 -12 37 -12q41 0 51 66h41q-8 -107 -8 -369h-41
q-7 61 -24 114.5t-45.5 102t-75.5 76.5t-107 28q-52 0 -86.5 -31t-34.5 -83q0 -30 11 -59t25.5 -50.5t43.5 -49t49.5 -44t59 -46.5t57.5 -46q57 -47 89 -77t66.5 -74t50 -91t15.5 -104q0 -138 -120 -227t-293 -89z" />
    <glyph glyph-name="Scaron" unicode="&#x160;" horiz-adv-x="1255" 
d="M1088 1937l10 -30q-131 -62 -249 -157t-195 -196h-37q-75 99 -193.5 194.5t-251.5 158.5l11 30q140 -21 276.5 -55.5t216.5 -69.5q68 35 182 69.5t230 55.5zM618 1479q83 0 151 -13.5t102.5 -28.5t78.5 -40q50 -29 70 -29q19 0 29 21.5t16 68.5h47q-10 -147 -10 -500h-47
q-6 86 -33 168t-71 149t-110 107.5t-143 40.5q-93 0 -151 -50t-58 -140q0 -99 60.5 -162.5t252.5 -196.5q31 -22 48 -34q67 -47 106 -76.5t88 -76t75 -88.5t44.5 -99.5t18.5 -122.5q0 -81 -29.5 -148.5t-80.5 -114.5t-121.5 -79.5t-152.5 -48t-173 -15.5q-207 0 -363 76
q-46 29 -69 29q-19 0 -29 -21t-17 -69h-47q9 156 9 594h47q6 -115 28.5 -208.5t64.5 -172t113 -122.5t166 -44q114 0 180 53t66 147q0 50 -15.5 95t-39 80t-65 73.5t-80.5 67.5t-99 69q-74 49 -114.5 78.5t-95.5 78.5t-83.5 91t-49.5 101t-21 125q0 97 41.5 173t113.5 121.5
t161 69t191 23.5z" />
    <glyph glyph-name="scaron" unicode="&#x161;" horiz-adv-x="967" 
d="M848 1704l16 -29q-112 -73 -213 -189.5t-170 -244.5h-37q-65 125 -167 242t-216 192l17 29q121 -22 237.5 -55.5t188.5 -67.5q129 75 344 123zM473 1092q81 0 150.5 -17.5t107.5 -38.5q21 -12 37 -12q41 0 51 66h41q-8 -107 -8 -369h-41q-7 61 -24 114.5t-45.5 102
t-75.5 76.5t-107 28q-52 0 -86.5 -31t-34.5 -83q0 -30 11 -59t25.5 -50.5t43.5 -49t49.5 -44t59 -46.5t57.5 -46q57 -47 89 -77t66.5 -74t50 -91t15.5 -104q0 -138 -120 -227t-293 -89q-128 0 -211 52q-66 34 -103 34q-39 0 -57 -71h-41q8 117 8 409h41q19 -168 90 -270
t180 -102q52 0 85.5 28.5t33.5 83.5q0 42 -12.5 77.5t-38 69t-53.5 61t-70 65.5q-11 9 -16 14q-110 101 -147 145q-93 112 -93 230q0 132 113.5 213.5t271.5 81.5z" />
    <glyph glyph-name="Tcedilla" unicode="&#x162;" horiz-adv-x="1432" 
d="M1384 1450q-14 -227 -14 -406q0 -94 6 -147h-47q-28 112 -65 200t-76 145t-84.5 93.5t-88.5 52t-89 15.5h-2v-1172q0 -65 8 -101t36 -57t67.5 -26.5t115.5 -5.5v-41q-216 5 -414 6l-38 -129q81 31 182 31q84 0 128 -33t44 -86q0 -86 -105 -130t-280 -44q-126 0 -205 27
l13 36q55 -10 119 -10q76 0 132 20t56 58q0 51 -98 51q-43 0 -68 -14l65 223q-137 0 -401 -6v41q76 0 115.5 5.5t67.5 26.5t36 57t8 101v1172h-2q-59 0 -113.5 -25.5t-108 -81.5t-100.5 -157.5t-82 -241.5h-47q6 53 6 147q0 179 -14 406q195 -6 670 -6q473 0 667 6z" />
    <glyph glyph-name="tcedilla" unicode="&#x163;" horiz-adv-x="717" 
d="M538 -92q74 0 112.5 -33t38.5 -86q0 -86 -88.5 -130t-234.5 -44q-114 0 -185 27l13 36q45 -10 98 -10q50 0 88.5 20t38.5 58q0 51 -57 51q-43 0 -68 -14l56 195q-84 14 -133 63q-42 42 -56 106t-14 179v694h-155v41h155v244q217 0 369 90v-334h201v-41h-201v-848
q0 -40 14 -57t48 -17q61 0 110 60l31 -25q-94 -162 -291 -162l-25 1l-27 -95q72 31 162 31z" />
    <glyph glyph-name="Tcaron" unicode="&#x164;" horiz-adv-x="1432" 
d="M1164 1937l10 -30q-131 -62 -249 -157t-195 -196h-37q-75 99 -193.5 194.5t-251.5 158.5l11 30q140 -21 276.5 -55.5t216.5 -69.5q68 35 182 69.5t230 55.5zM1384 1450q-14 -227 -14 -406q0 -94 6 -147h-47q-28 112 -65 200t-76 145t-84.5 93.5t-88.5 52t-89 15.5h-2
v-1172q0 -65 8 -101t36 -57t67.5 -26.5t115.5 -5.5v-41q-288 6 -449 6q-145 0 -421 -6v41q76 0 115.5 5.5t67.5 26.5t36 57t8 101v1172h-2q-59 0 -113.5 -25.5t-108 -81.5t-100.5 -157.5t-82 -241.5h-47q6 53 6 147q0 179 -14 406q195 -6 670 -6q473 0 667 6z" />
    <glyph glyph-name="tcaron" unicode="&#x165;" horiz-adv-x="717" 
d="M873 1604q10 -25 10 -84q0 -29 -14.5 -63.5t-53.5 -88.5t-70.5 -93t-101.5 -124l-28 8q41 237 41 297q0 43 -8.5 62.5t-32.5 19.5v43q20 -1 56 -1q93 0 202 24zM516 1061h201v-41h-201v-848q0 -40 14 -57t48 -17q61 0 110 60l31 -25q-94 -162 -291 -162q-141 0 -211 70
q-42 42 -56 106t-14 179v694h-155v41h155v244q217 0 369 90v-334z" />
    <glyph glyph-name="Tbar" unicode="&#x166;" horiz-adv-x="1432" 
d="M1384 1450q-14 -227 -14 -406q0 -94 6 -147h-47q-28 112 -65 200t-76 145t-84.5 93.5t-88.5 52t-89 15.5h-2v-653h233v-41h-233v-478q0 -65 8 -101t36 -57t67.5 -26.5t115.5 -5.5v-41q-288 6 -449 6q-145 0 -421 -6v41q76 0 115.5 5.5t67.5 26.5t36 57t8 101v478h-260v41
h260v653h-2q-59 0 -113.5 -25.5t-108 -81.5t-100.5 -157.5t-82 -241.5h-47q6 53 6 147q0 179 -14 406q195 -6 670 -6q473 0 667 6z" />
    <glyph glyph-name="tbar" unicode="&#x167;" horiz-adv-x="723" 
d="M692 158l31 -25q-94 -162 -291 -162q-141 0 -211 70q-42 42 -56 106t-14 179v495h-155v41h155v158h-155v41h155v244q217 0 369 90v-334h201v-41h-201v-158h201v-41h-201v-649q0 -40 14 -57t48 -17q61 0 110 60z" />
    <glyph glyph-name="Utilde" unicode="&#x168;" horiz-adv-x="1419" 
d="M549 1921q60 0 113 -14t91.5 -33.5t75 -39.5t81 -34t92.5 -14q115 0 198 108l29 -14q-39 -159 -120 -236t-183 -77q-74 0 -139.5 21.5t-105 47t-96 47t-114.5 21.5q-114 0 -199 -111l-28 15q39 159 120.5 236t184.5 77zM1395 1450v-41q-92 -20 -119 -81t-27 -238v-494
q0 -297 -84 -434q-114 -191 -440 -191q-247 0 -385 99q-99 72 -133.5 192.5t-34.5 327.5v643q0 59 -4.5 90t-21.5 51t-43 26.5t-76 8.5v41q115 -6 360 -6q241 0 367 6v-41q-56 -2 -85.5 -8.5t-49.5 -26.5t-25.5 -51.5t-5.5 -89.5v-836q0 -196 61.5 -275t194.5 -79
q100 0 171 37.5t111 110t58 166t18 216.5v476q0 58 -1 93.5t-4 74t-9 60t-16.5 44.5t-25 35t-37 23.5t-49.5 18t-65 11.5v41q84 -6 230 -6q109 0 170 6z" />
    <glyph glyph-name="utilde" unicode="&#x169;" horiz-adv-x="1274" 
d="M429 1634q60 0 113 -21t86 -46.5t79 -46.5t93 -21q92 0 158 109l28 -15q-34 -169 -103.5 -251t-158.5 -82q-60 0 -113.5 21.5t-86.5 47t-79 47t-93 21.5q-91 0 -158 -111l-29 14q34 170 104 252t160 82zM1122 1085v-862q0 -95 26 -137.5t89 -42.5v-43q-65 6 -127 6
q-215 0 -356 -29v148q-93 -154 -326 -154q-163 0 -231 82q-60 72 -60 264v523q0 95 -25.5 137.5t-88.5 42.5v43q64 -6 127 -6q212 0 356 28v-878q0 -66 24 -97.5t76 -31.5q59 0 103.5 42t44.5 105v615q0 95 -26 137.5t-89 42.5v43q64 -6 127 -6q213 0 356 28z" />
    <glyph glyph-name="Umacron" unicode="&#x16a;" horiz-adv-x="1419" 
d="M1181 1677h-885v52h885v-52zM1395 1450v-41q-92 -20 -119 -81t-27 -238v-494q0 -297 -84 -434q-114 -191 -440 -191q-247 0 -385 99q-99 72 -133.5 192.5t-34.5 327.5v643q0 59 -4.5 90t-21.5 51t-43 26.5t-76 8.5v41q115 -6 360 -6q241 0 367 6v-41q-56 -2 -85.5 -8.5
t-49.5 -26.5t-25.5 -51.5t-5.5 -89.5v-836q0 -196 61.5 -275t194.5 -79q100 0 171 37.5t111 110t58 166t18 216.5v476q0 58 -1 93.5t-4 74t-9 60t-16.5 44.5t-25 35t-37 23.5t-49.5 18t-65 11.5v41q84 -6 230 -6q109 0 170 6z" />
    <glyph glyph-name="umacron" unicode="&#x16b;" horiz-adv-x="1274" 
d="M958 1407h-721v51h721v-51zM1122 1085v-862q0 -95 26 -137.5t89 -42.5v-43q-65 6 -127 6q-215 0 -356 -29v148q-93 -154 -326 -154q-163 0 -231 82q-60 72 -60 264v523q0 95 -25.5 137.5t-88.5 42.5v43q64 -6 127 -6q212 0 356 28v-878q0 -66 24 -97.5t76 -31.5
q59 0 103.5 42t44.5 105v615q0 95 -26 137.5t-89 42.5v43q64 -6 127 -6q213 0 356 28z" />
    <glyph glyph-name="Ubreve" unicode="&#x16c;" horiz-adv-x="1419" 
d="M1183 1884l25 -22q-22 -55 -61.5 -105.5t-98.5 -95t-144.5 -71.5t-185.5 -27t-185.5 27t-144.5 71.5t-98.5 95t-60.5 105.5l24 22q187 -119 465 -119t465 119zM1395 1450v-41q-92 -20 -119 -81t-27 -238v-494q0 -297 -84 -434q-114 -191 -440 -191q-247 0 -385 99
q-99 72 -133.5 192.5t-34.5 327.5v643q0 59 -4.5 90t-21.5 51t-43 26.5t-76 8.5v41q115 -6 360 -6q241 0 367 6v-41q-56 -2 -85.5 -8.5t-49.5 -26.5t-25.5 -51.5t-5.5 -89.5v-836q0 -196 61.5 -275t194.5 -79q100 0 171 37.5t111 110t58 166t18 216.5v476q0 58 -1 93.5
t-4 74t-9 60t-16.5 44.5t-25 35t-37 23.5t-49.5 18t-65 11.5v41q84 -6 230 -6q109 0 170 6z" />
    <glyph glyph-name="ubreve" unicode="&#x16d;" horiz-adv-x="1274" 
d="M975 1614l35 -19q-15 -51 -36 -96t-55.5 -91t-77.5 -79t-105 -53.5t-134 -20.5q-89 0 -161.5 30t-120 82t-77 107.5t-48.5 120.5l35 19q142 -115 372 -115q231 0 373 115zM1122 1085v-862q0 -95 26 -137.5t89 -42.5v-43q-65 6 -127 6q-215 0 -356 -29v148
q-93 -154 -326 -154q-163 0 -231 82q-60 72 -60 264v523q0 95 -25.5 137.5t-88.5 42.5v43q64 -6 127 -6q212 0 356 28v-878q0 -66 24 -97.5t76 -31.5q59 0 103.5 42t44.5 105v615q0 95 -26 137.5t-89 42.5v43q64 -6 127 -6q213 0 356 28z" />
    <glyph glyph-name="Uring" unicode="&#x16e;" horiz-adv-x="1419" 
d="M739 2037q99 0 169.5 -57t70.5 -149q0 -94 -70.5 -151.5t-169.5 -57.5q-98 0 -167.5 57.5t-69.5 151.5q0 92 69.5 149t167.5 57zM739 1994q-70 0 -125 -45t-55 -120q0 -78 54.5 -121t125.5 -43q73 0 128 43t55 121q0 75 -56 120t-127 45zM1395 1450v-41q-92 -20 -119 -81
t-27 -238v-494q0 -297 -84 -434q-114 -191 -440 -191q-247 0 -385 99q-99 72 -133.5 192.5t-34.5 327.5v643q0 59 -4.5 90t-21.5 51t-43 26.5t-76 8.5v41q115 -6 360 -6q241 0 367 6v-41q-56 -2 -85.5 -8.5t-49.5 -26.5t-25.5 -51.5t-5.5 -89.5v-836q0 -196 61.5 -275
t194.5 -79q100 0 171 37.5t111 110t58 166t18 216.5v476q0 58 -1 93.5t-4 74t-9 60t-16.5 44.5t-25 35t-37 23.5t-49.5 18t-65 11.5v41q84 -6 230 -6q109 0 170 6z" />
    <glyph glyph-name="uring" unicode="&#x16f;" horiz-adv-x="1274" 
d="M604 1640q99 0 169.5 -57t70.5 -149q0 -94 -70.5 -151.5t-169.5 -57.5q-98 0 -167.5 57.5t-69.5 151.5q0 92 69.5 149t167.5 57zM604 1597q-70 0 -125 -45t-55 -120q0 -78 54.5 -121t125.5 -43q73 0 128 43t55 121q0 75 -56 120t-127 45zM1122 1085v-862q0 -95 26 -137.5
t89 -42.5v-43q-65 6 -127 6q-215 0 -356 -29v148q-93 -154 -326 -154q-163 0 -231 82q-60 72 -60 264v523q0 95 -25.5 137.5t-88.5 42.5v43q64 -6 127 -6q212 0 356 28v-878q0 -66 24 -97.5t76 -31.5q59 0 103.5 42t44.5 105v615q0 95 -26 137.5t-89 42.5v43q64 -6 127 -6
q213 0 356 28z" />
    <glyph glyph-name="Uhungarumlaut" unicode="&#x170;" horiz-adv-x="1419" 
d="M632 1931q36 24 79 24q76 0 118 -63q22 -34 22 -71q0 -68 -65 -111q-38 -25 -160 -59.5t-213 -69.5l-20 23q56 69 103.5 143t76.5 117.5t59 66.5zM1097 1931q36 24 79 24q76 0 118 -63q22 -34 22 -71q0 -68 -65 -111q-38 -25 -160 -59.5t-213 -69.5l-20 23q56 69 103 143
t76 117.5t60 66.5zM1395 1450v-41q-92 -20 -119 -81t-27 -238v-494q0 -297 -84 -434q-114 -191 -440 -191q-247 0 -385 99q-99 72 -133.5 192.5t-34.5 327.5v643q0 59 -4.5 90t-21.5 51t-43 26.5t-76 8.5v41q115 -6 360 -6q241 0 367 6v-41q-56 -2 -85.5 -8.5t-49.5 -26.5
t-25.5 -51.5t-5.5 -89.5v-836q0 -196 61.5 -275t194.5 -79q100 0 171 37.5t111 110t58 166t18 216.5v476q0 58 -1 93.5t-4 74t-9 60t-16.5 44.5t-25 35t-37 23.5t-49.5 18t-65 11.5v41q84 -6 230 -6q109 0 170 6z" />
    <glyph glyph-name="uhungarumlaut" unicode="&#x171;" horiz-adv-x="1274" 
d="M655 1673q56 -39 56 -102q0 -42 -26 -82q-20 -31 -59 -64t-106 -87t-127 -113l-27 12q27 97 47.5 226t44.5 169q40 65 118 65q42 0 79 -24zM1017 1673q57 -39 57 -103q0 -41 -26 -81q-20 -31 -59 -64t-106 -87.5t-128 -112.5l-27 12q28 98 48.5 226.5t44.5 168.5
q40 65 117 65q42 0 79 -24zM1122 1085v-862q0 -95 26 -137.5t89 -42.5v-43q-65 6 -127 6q-215 0 -356 -29v148q-93 -154 -326 -154q-163 0 -231 82q-60 72 -60 264v523q0 95 -25.5 137.5t-88.5 42.5v43q64 -6 127 -6q212 0 356 28v-878q0 -66 24 -97.5t76 -31.5
q59 0 103.5 42t44.5 105v615q0 95 -26 137.5t-89 42.5v43q64 -6 127 -6q213 0 356 28z" />
    <glyph glyph-name="Uogonek" unicode="&#x172;" horiz-adv-x="1419" 
d="M1225 1444q109 0 170 6v-41q-92 -20 -119 -81t-27 -238v-494q0 -297 -84 -434q-71 -118 -218 -163q-109 -39 -160.5 -88t-51.5 -95q0 -41 20 -59.5t62 -18.5q34 0 73 13.5t62 33.5l27 -31q-60 -74 -133.5 -106.5t-180.5 -32.5q-99 0 -150.5 37.5t-51.5 107.5
q0 68 68 121.5t195 89.5h-1q-247 0 -385 99q-99 72 -133.5 192.5t-34.5 327.5v643q0 59 -4.5 90t-21.5 51t-43 26.5t-76 8.5v41q115 -6 360 -6q241 0 367 6v-41q-56 -2 -85.5 -8.5t-49.5 -26.5t-25.5 -51.5t-5.5 -89.5v-836q0 -196 61.5 -275t194.5 -79q100 0 171 37.5
t111 110t58 166t18 216.5v476q0 58 -1 93.5t-4 74t-9 60t-16.5 44.5t-25 35t-37 23.5t-49.5 18t-65 11.5v41q84 -6 230 -6z" />
    <glyph glyph-name="uogonek" unicode="&#x173;" horiz-adv-x="1274" 
d="M1236 -215l26 -31q-59 -74 -132.5 -106.5t-180.5 -32.5q-99 0 -151 37.5t-52 107.5q0 88 94.5 150.5t269.5 95.5q-215 0 -356 -29v148q-93 -154 -326 -154q-163 0 -231 82q-60 72 -60 264v523q0 95 -25.5 137.5t-88.5 42.5v43q64 -6 127 -6q212 0 356 28v-878
q0 -66 24 -97.5t76 -31.5q59 0 103.5 42t44.5 105v615q0 95 -26 137.5t-89 42.5v43q64 -6 127 -6q213 0 356 28v-862q0 -95 26 -137.5t89 -42.5v-43q-20 2 -56 4q-3 -2 -11 -6l-12 -6q-74 -37 -106.5 -83.5t-32.5 -92.5q0 -78 82 -78q34 0 73 13.5t62 33.5z" />
    <glyph glyph-name="Wcircumflex" unicode="&#x174;" horiz-adv-x="2068" 
d="M1034 1700q-68 -34 -182 -68.5t-229 -56.5l-11 31q130 62 248.5 156.5t196.5 195.5h37q73 -98 192 -193.5t252 -158.5l-10 -31q-310 48 -494 125zM1927 1444q97 0 158 6v-41q-121 -59 -191 -287l-344 -1122q-64 4 -108 4q-41 0 -107 -4l-266 813l-289 -813q-64 4 -108 4
q-41 0 -107 -4l-475 1278q-24 65 -57 97t-64 34v41q149 -6 363 -6q186 0 272 6v-41q-54 -11 -54 -82q0 -46 17 -90l298 -835l179 486l-139 425q-16 50 -41 71.5t-63 24.5v41q138 -6 354 -6q213 0 318 6v-41q-75 -2 -107.5 -18t-32.5 -60q0 -34 21 -94l270 -821l158 506
q54 177 54 286q0 195 -177 201v41q153 -6 268 -6z" />
    <glyph glyph-name="wcircumflex" unicode="&#x175;" horiz-adv-x="1634" 
d="M801 1364q-132 -76 -344 -123l-17 29q112 73 213 189.5t170 244.5h37q65 -125 167 -242t216 -192l-16 -29q-122 22 -238.5 55.5t-187.5 67.5zM1483 1055q117 0 157 8v-43q-93 -34 -145 -199l-256 -821q-53 5 -99 5q-45 0 -100 -5l-244 708l-186 -708q-53 5 -99 5
q-44 0 -99 -5l-316 905q-41 115 -119 115v43q164 -12 365 -12q102 0 266 12v-43q-63 0 -90.5 -9.5t-27.5 -40.5q0 -13 4 -28l170 -567l176 686h2q43 -4 98 -4q41 0 119 4l233 -749l88 292q33 110 33 197q0 103 -45.5 157.5t-120.5 61.5v43q77 -8 236 -8z" />
    <glyph glyph-name="Ycircumflex" unicode="&#x176;" horiz-adv-x="1319" 
d="M672 1700q-68 -34 -182 -68.5t-229 -56.5l-11 31q130 62 248.5 156.5t196.5 195.5h37q73 -98 192 -193.5t252 -158.5l-10 -31q-310 48 -494 125zM1145 1446q97 0 158 6v-41q-106 -52 -218 -272l-190 -377v-545q0 -58 5 -89.5t22.5 -51.5t43 -26.5t74.5 -8.5v-41
q-118 6 -352 6q-243 0 -354 -6v41q50 2 76 8.5t43 26.5t21.5 51t4.5 90v377l-379 700q-63 115 -118 115v43q126 -12 282 -12q177 0 451 12v-43q-41 0 -63.5 -1t-50 -5t-39.5 -14.5t-12 -26.5q0 -13 9 -31l292 -562l93 185q97 194 97 305q0 145 -164 152v41q153 -6 268 -6z
" />
    <glyph glyph-name="ycircumflex" unicode="&#x177;" horiz-adv-x="1083" 
d="M491 1364q-132 -76 -344 -123l-17 29q112 73 213 189.5t170 244.5h37q65 -125 167 -242t216 -192l-16 -29q-122 22 -238.5 55.5t-187.5 67.5zM918 1055q116 0 157 8v-43q-89 -33 -145 -199l-256 -762l-86 -247q-38 -107 -90 -148q-63 -49 -191 -49q-45 0 -91 10.5
t-89.5 31.5t-70.5 60t-27 90q0 72 54.5 115t145.5 43q87 0 136 -38.5t49 -112.5q0 -49 -34 -93t-99 -65q20 -4 69 -4q141 0 195 164l11 33l-478 1056q-51 115 -119 115v43q163 -12 334 -12q133 0 297 12v-43q-30 0 -46.5 -1t-37 -5t-30 -14t-9.5 -26q0 -15 8 -32l253 -600
l85 262q39 116 39 210q0 96 -41.5 148.5t-108.5 57.5v43q77 -8 216 -8z" />
    <glyph glyph-name="Ydieresis" unicode="&#x178;" horiz-adv-x="1319" 
d="M449 1561q-74 0 -126 52t-52 126q0 71 52.5 124.5t125.5 53.5q71 0 124.5 -53.5t53.5 -124.5q0 -73 -53.5 -125.5t-124.5 -52.5zM977 1561q-74 0 -126 52t-52 126q0 71 52.5 124.5t125.5 53.5q71 0 124.5 -53.5t53.5 -124.5q0 -73 -53.5 -125.5t-124.5 -52.5zM1145 1446
q97 0 158 6v-41q-106 -52 -218 -272l-190 -377v-545q0 -58 5 -89.5t22.5 -51.5t43 -26.5t74.5 -8.5v-41q-118 6 -352 6q-243 0 -354 -6v41q50 2 76 8.5t43 26.5t21.5 51t4.5 90v377l-379 700q-63 115 -118 115v43q126 -12 282 -12q177 0 451 12v-43q-41 0 -63.5 -1t-50 -5
t-39.5 -14.5t-12 -26.5q0 -13 9 -31l292 -562l93 185q97 194 97 305q0 145 -164 152v41q153 -6 268 -6z" />
    <glyph glyph-name="Zacute" unicode="&#x179;" horiz-adv-x="1243" 
d="M785 1923q28 14 63 14q40 0 75 -19.5t54 -57.5q12 -27 12 -54q0 -37 -20.5 -70t-56.5 -50q-40 -21 -96 -31t-149 -26.5t-192 -47.5l-14 25q66 55 119.5 112.5t80 92t58.5 65.5t66 47zM1149 1409l-621 -1362h86q46 0 101.5 14.5t121.5 50.5t121.5 89t97.5 139.5t54 191.5
h47q-6 -74 -6 -188q0 -209 14 -344q-151 6 -510 6q-399 0 -579 -6v41l620 1362h-102q-54 0 -108 -12.5t-112.5 -44.5t-105.5 -80.5t-83 -128t-50 -179.5h-47q6 52 6 148q0 152 -14 344q127 -6 428 -6q442 0 641 6v-41z" />
    <glyph glyph-name="zacute" unicode="&#x17a;" horiz-adv-x="967" 
d="M744 1679q42 -33 42 -92q0 -54 -34 -94q-29 -34 -76 -65t-126 -82.5t-159 -118.5l-22 18q48 96 77.5 187.5t47.5 143.5t49 87q41 49 111 49q51 0 90 -33zM457 31h28q49 0 94 11t90.5 39.5t80 71.5t59 112t31.5 157h41q0 -307 8 -430q-169 8 -402 8q-206 0 -434 -10
l459 1040h-41q-49 0 -93 -11.5t-87 -39.5t-76 -71t-56 -112t-30 -157h-41q0 307 -8 430q169 -8 401 -8q206 0 434 10z" />
    <glyph glyph-name="Zdotaccent" unicode="&#x17b;" horiz-adv-x="1243" 
d="M627 1999q107 0 165 -45t58 -132q0 -86 -58 -131t-165 -45q-109 0 -166 44.5t-57 131.5t57 132t166 45zM1149 1409l-621 -1362h86q46 0 101.5 14.5t121.5 50.5t121.5 89t97.5 139.5t54 191.5h47q-6 -74 -6 -188q0 -209 14 -344q-151 6 -510 6q-399 0 -579 -6v41l620 1362
h-102q-54 0 -108 -12.5t-112.5 -44.5t-105.5 -80.5t-83 -128t-50 -179.5h-47q6 52 6 148q0 152 -14 344q127 -6 428 -6q442 0 641 6v-41z" />
    <glyph glyph-name="zdotaccent" unicode="&#x17c;" horiz-adv-x="967" 
d="M516 1602q107 0 165 -45t58 -132q0 -86 -58 -131t-165 -45q-109 0 -166 44.5t-57 131.5t57 132t166 45zM457 31h28q49 0 94 11t90.5 39.5t80 71.5t59 112t31.5 157h41q0 -307 8 -430q-169 8 -402 8q-206 0 -434 -10l459 1040h-41q-49 0 -93 -11.5t-87 -39.5t-76 -71
t-56 -112t-30 -157h-41q0 307 -8 430q169 -8 401 -8q206 0 434 10z" />
    <glyph glyph-name="Zcaron" unicode="&#x17d;" horiz-adv-x="1243" 
d="M1074 1937l10 -30q-131 -62 -249 -157t-195 -196h-37q-75 99 -193.5 194.5t-251.5 158.5l11 30q140 -21 276.5 -55.5t216.5 -69.5q68 35 182 69.5t230 55.5zM1149 1409l-621 -1362h86q46 0 101.5 14.5t121.5 50.5t121.5 89t97.5 139.5t54 191.5h47q-6 -74 -6 -188
q0 -209 14 -344q-151 6 -510 6q-399 0 -579 -6v41l620 1362h-102q-54 0 -108 -12.5t-112.5 -44.5t-105.5 -80.5t-83 -128t-50 -179.5h-47q6 52 6 148q0 152 -14 344q127 -6 428 -6q442 0 641 6v-41z" />
    <glyph glyph-name="zcaron" unicode="&#x17e;" horiz-adv-x="967" 
d="M881 1704l16 -29q-112 -73 -213 -189.5t-170 -244.5h-37q-65 125 -167 242t-216 192l17 29q121 -22 237.5 -55.5t188.5 -67.5q129 75 344 123zM457 31h28q49 0 94 11t90.5 39.5t80 71.5t59 112t31.5 157h41q0 -307 8 -430q-169 8 -402 8q-206 0 -434 -10l459 1040h-41
q-49 0 -93 -11.5t-87 -39.5t-76 -71t-56 -112t-30 -157h-41q0 307 -8 430q169 -8 401 -8q206 0 434 10z" />
    <glyph glyph-name="florin" unicode="&#x192;" horiz-adv-x="1253" 
d="M862 1354q0 66 35 115.5t98 72.5q-23 19 -80 19q-36 0 -72 -17.5t-55 -48.5q-25 -42 -30.5 -124.5t-5.5 -309.5h391v-41h-391v-856q0 -180 -32.5 -278.5t-113.5 -168.5q-116 -102 -387 -102q-41 0 -80 4t-86.5 16.5t-82.5 32.5t-59 56t-24 83q0 72 55 115t146 43
q86 0 135 -38.5t49 -112.5q0 -49 -29 -90.5t-89 -63.5q36 -4 55 -4q43 0 80 17t57 48q26 43 31.5 127t5.5 316v856h-299v41h299q1 176 33.5 272.5t111.5 165.5q52 46 140 74.5t186 28.5q47 0 93.5 -5.5t98.5 -21.5t91 -41t64.5 -68t25.5 -98q0 -76 -50 -127t-130 -51
q-84 0 -134.5 45.5t-50.5 118.5z" />
    <glyph glyph-name="Gacute" unicode="&#x1f4;" horiz-adv-x="1548" 
d="M983 1923q28 14 63 14q40 0 75 -19.5t54 -57.5q12 -27 12 -54q0 -37 -20.5 -70t-56.5 -50q-40 -21 -96 -31t-149 -26.5t-192 -47.5l-14 25q66 55 119.5 112.5t80 92t58.5 65.5t66 47zM868 1479q132 0 225.5 -35t172.5 -98q20 -19 41 -19q39 0 51 123h47q-8 -145 -8 -512
h-47q-16 162 -55 256.5t-134 159.5q-89 61 -211 61q-76 0 -139 -29.5t-106 -82.5t-75 -119.5t-50 -146.5t-26.5 -157.5t-8.5 -158.5q0 -357 87.5 -533t241.5 -176q64 0 101 25q43 30 43 102v205q0 103 -17 150.5t-58 65.5t-132 22v41q129 -7 391 -7q218 0 316 7v-41
q-54 -5 -69 -35t-15 -141v-406h-41q-2 43 -18.5 80t-45.5 37q-43 0 -139 -47q-204 -99 -346 -99q-380 0 -575 193t-195 549q0 226 100.5 400.5t281.5 270t412 95.5z" />
    <glyph glyph-name="gacute" unicode="&#x1f5;" horiz-adv-x="1147" 
d="M799 1493q-29 -34 -76 -65t-126 -82.5t-159 -118.5l-22 18q48 96 77.5 187.5t47.5 143.5t49 87q41 49 111 49q51 0 90 -33q42 -33 42 -92q0 -54 -34 -94zM362 287h465q135 0 218 -56.5t83 -183.5q0 -80 -37.5 -155t-109 -138t-191 -101t-268.5 -38q-135 0 -233 15
t-150 40.5t-75 54t-23 60.5q0 42 26.5 64t68.5 29t87 11t89 17.5t66 40.5h-67q-28 0 -57 4.5t-64 19t-61.5 36.5t-44.5 62t-18 91q0 100 59 168t206 138q-118 36 -183.5 110.5t-65.5 187.5q0 162 132 245t349 83q71 0 123 -8q-2 28 -2 42q0 122 57.5 196.5t173.5 74.5
q76 0 126.5 -36.5t50.5 -100.5q0 -58 -48.5 -96t-119.5 -38q-70 0 -112.5 26.5t-70.5 80.5q-14 -41 -14 -107q0 -24 3 -48q147 -28 230.5 -107t83.5 -207q0 -162 -131.5 -245t-349.5 -83q-103 0 -194 20q-43 -29 -61.5 -50t-18.5 -52q0 -67 73 -67zM563 1055
q-51 0 -77.5 -66.5t-26.5 -224.5t26.5 -224.5t77.5 -66.5q52 0 78.5 66.5t26.5 224.5t-26.5 224.5t-78.5 66.5zM578 -350q119 0 192.5 64t73.5 167q0 66 -94 66h-331q-26 -56 -26 -133q0 -78 47 -121t138 -43z" />
    <glyph glyph-name="Scommaaccent" unicode="&#x218;" horiz-adv-x="1255" 
d="M618 1479q83 0 151 -13.5t102.5 -28.5t78.5 -40q50 -29 70 -29q19 0 29 21.5t16 68.5h47q-10 -147 -10 -500h-47q-6 86 -33 168t-71 149t-110 107.5t-143 40.5q-93 0 -151 -50t-58 -140q0 -99 60.5 -162.5t252.5 -196.5q31 -22 48 -34q67 -47 106 -76.5t88 -76t75 -88.5
t44.5 -99.5t18.5 -122.5q0 -81 -29.5 -148.5t-80.5 -114.5t-121.5 -79.5t-152.5 -48t-173 -15.5q-207 0 -363 76q-46 29 -69 29q-19 0 -29 -21t-17 -69h-47q9 156 9 594h47q6 -115 28.5 -208.5t64.5 -172t113 -122.5t166 -44q114 0 180 53t66 147q0 50 -15.5 95t-39 80
t-65 73.5t-80.5 67.5t-99 69q-74 49 -114.5 78.5t-95.5 78.5t-83.5 91t-49.5 101t-21 125q0 97 41.5 173t113.5 121.5t161 69t191 23.5zM637 -94q87 0 138.5 -43.5t51.5 -124.5q0 -106 -71.5 -171.5t-204.5 -68.5l-4 45q89 11 132.5 34.5t55.5 68.5q-33 -31 -108 -31
q-83 0 -127.5 35.5t-44.5 105.5q0 73 46.5 111.5t135.5 38.5z" />
    <glyph glyph-name="scommaaccent" unicode="&#x219;" horiz-adv-x="967" 
d="M473 1092q81 0 150.5 -17.5t107.5 -38.5q21 -12 37 -12q41 0 51 66h41q-8 -107 -8 -369h-41q-7 61 -24 114.5t-45.5 102t-75.5 76.5t-107 28q-52 0 -86.5 -31t-34.5 -83q0 -30 11 -59t25.5 -50.5t43.5 -49t49.5 -44t59 -46.5t57.5 -46q57 -47 89 -77t66.5 -74t50 -91
t15.5 -104q0 -138 -120 -227t-293 -89q-128 0 -211 52q-66 34 -103 34q-39 0 -57 -71h-41q8 117 8 409h41q19 -168 90 -270t180 -102q52 0 85.5 28.5t33.5 83.5q0 42 -12.5 77.5t-38 69t-53.5 61t-70 65.5q-11 9 -16 14q-110 101 -147 145q-93 112 -93 230
q0 132 113.5 213.5t271.5 81.5zM479 -92q85 0 137.5 -44t52.5 -124q0 -106 -71.5 -171.5t-204.5 -68.5l-4 45q89 11 132.5 34.5t55.5 68.5q-33 -31 -108 -31q-83 0 -127.5 35.5t-44.5 105.5q0 73 46.5 111.5t135.5 38.5z" />
    <glyph glyph-name="uni021A" unicode="&#x21a;" horiz-adv-x="1432" 
d="M1384 1450q-14 -227 -14 -406q0 -94 6 -147h-47q-28 112 -65 200t-76 145t-84.5 93.5t-88.5 52t-89 15.5h-2v-1172q0 -65 8 -101t36 -57t67.5 -26.5t115.5 -5.5v-41q-288 6 -449 6q-145 0 -421 -6v41q76 0 115.5 5.5t67.5 26.5t36 57t8 101v1172h-2q-59 0 -113.5 -25.5
t-108 -81.5t-100.5 -157.5t-82 -241.5h-47q6 53 6 147q0 179 -14 406q195 -6 670 -6q473 0 667 6zM707 -94q87 0 138.5 -43.5t51.5 -124.5q0 -106 -71.5 -171.5t-204.5 -68.5l-4 45q89 11 132.5 34.5t55.5 68.5q-33 -31 -108 -31q-83 0 -127.5 35.5t-44.5 105.5
q0 73 46.5 111.5t135.5 38.5z" />
    <glyph glyph-name="uni021B" unicode="&#x21b;" horiz-adv-x="717" 
d="M516 1061h201v-41h-201v-848q0 -40 14 -57t48 -17q61 0 110 60l31 -25q-94 -162 -291 -162q-141 0 -211 70q-42 42 -56 106t-14 179v694h-155v41h155v244q217 0 369 90v-334zM438 -92q85 0 137.5 -44t52.5 -124q0 -106 -71.5 -171.5t-204.5 -68.5l-4 45q89 11 132.5 34.5
t55.5 68.5q-33 -31 -108 -31q-83 0 -127.5 35.5t-44.5 105.5q0 73 46.5 111.5t135.5 38.5z" />
    <glyph glyph-name="dotlessj" unicode="&#x237;" horiz-adv-x="649" 
d="M520 1085v-921q0 -180 -32.5 -278.5t-112.5 -168.5q-118 -102 -387 -102q-137 0 -228 41q-49 22 -76.5 62t-27.5 89q0 72 55 115t146 43q86 0 135 -38.5t49 -112.5q0 -48 -29.5 -90t-89.5 -64q38 -4 55 -4q44 0 81 17t57 48q26 43 31.5 127t5.5 316v676q0 95 -26 137.5
t-89 42.5v43q64 -6 127 -6q213 0 356 28z" />
    <glyph glyph-name="circumflex" unicode="&#x2c6;" horiz-adv-x="823" 
d="M393 1704h37q65 -125 167 -242t216 -192l-16 -29q-122 22 -238.5 55.5t-187.5 67.5q-132 -76 -344 -123l-17 29q112 73 213 189.5t170 244.5z" />
    <glyph glyph-name="caron" unicode="&#x2c7;" horiz-adv-x="823" 
d="M797 1704l16 -29q-112 -73 -213 -189.5t-170 -244.5h-37q-65 125 -167 242t-216 192l17 29q121 -22 237.5 -55.5t188.5 -67.5q129 75 344 123z" />
    <glyph glyph-name="breve" unicode="&#x2d8;" horiz-adv-x="877" 
d="M811 1614l35 -19q-15 -51 -36 -96t-55.5 -91t-77.5 -79t-105 -53.5t-134 -20.5q-89 0 -161.5 30t-120 82t-77 107.5t-48.5 120.5l35 19q142 -115 372 -115q231 0 373 115z" />
    <glyph glyph-name="dotaccent" unicode="&#x2d9;" horiz-adv-x="406" 
d="M203 1602q107 0 165 -45t58 -132q0 -86 -58 -131t-165 -45q-109 0 -166 44.5t-57 131.5t57 132t166 45z" />
    <glyph glyph-name="ring" unicode="&#x2da;" horiz-adv-x="539" 
d="M268 1640q99 0 169.5 -57t70.5 -149q0 -94 -70.5 -151.5t-169.5 -57.5q-98 0 -167.5 57.5t-69.5 151.5q0 92 69.5 149t167.5 57zM268 1597q-70 0 -125 -45t-55 -120q0 -78 54.5 -121t125.5 -43q73 0 128 43t55 121q0 75 -56 120t-127 45z" />
    <glyph glyph-name="ogonek" unicode="&#x2db;" horiz-adv-x="496" 
d="M334 6l98 21q-13 -17 -51 -35q-74 -37 -106.5 -83.5t-32.5 -92.5q0 -78 82 -78q34 0 73 13.5t62 33.5l26 -31q-59 -74 -132.5 -106.5t-180.5 -32.5q-99 0 -151 37.5t-52 107.5q0 88 95 150.5t270 95.5z" />
    <glyph glyph-name="tilde" unicode="&#x2dc;" horiz-adv-x="842" 
d="M274 1634q60 0 113 -21t86 -46.5t79 -46.5t93 -21q92 0 158 109l28 -15q-34 -169 -103.5 -251t-158.5 -82q-60 0 -113.5 21.5t-86.5 47t-79 47t-93 21.5q-91 0 -158 -111l-29 14q34 170 104 252t160 82z" />
    <glyph glyph-name="hungarumlaut" unicode="&#x2dd;" horiz-adv-x="842" 
d="M373 1673q56 -39 56 -102q0 -42 -26 -82q-20 -31 -59 -64t-106 -87t-127 -113l-27 12q27 97 47.5 226t44.5 169q40 65 118 65q42 0 79 -24zM735 1673q57 -39 57 -103q0 -41 -26 -81q-20 -31 -59 -64t-106 -87.5t-128 -112.5l-27 12q28 98 48.5 226.5t44.5 168.5
q40 65 117 65q42 0 79 -24z" />
    <glyph glyph-name="commaaccentcomb" unicode="&#x326;" horiz-adv-x="0" 
d="M213 -92q85 0 137.5 -44t52.5 -124q0 -106 -71.5 -171.5t-204.5 -68.5l-4 45q89 11 132.5 34.5t55.5 68.5q-33 -31 -108 -31q-83 0 -127.5 35.5t-44.5 105.5q0 73 46.5 111.5t135.5 38.5z" />
    <glyph glyph-name="Delta" unicode="&#x394;" horiz-adv-x="1020" 
d="M563 1479l395 -1479q-224 6 -450 6q-227 0 -455 -6l477 1479h33zM115 61h475l-219 803z" />
    <glyph glyph-name="Omega" unicode="&#x3a9;" horiz-adv-x="1610" 
d="M805 1479q330 0 511 -135.5t181 -376.5q0 -104 -34.5 -199.5t-96.5 -182t-128.5 -163t-152.5 -180t-145 -195.5h117q143 0 238.5 89.5t138.5 293.5h47q-6 -58 -6 -147q0 -125 14 -283q-90 6 -305 6q-48 0 -152 -2.5t-143 -3.5v33q34 67 67 149.5t70 199.5t59.5 260
t22.5 284q0 254 -70.5 385t-232.5 131t-232.5 -131t-70.5 -385q0 -141 22.5 -284t59.5 -260t70 -199.5t67 -149.5v-33q-39 1 -143 3.5t-152 2.5q-215 0 -305 -6q14 158 14 283q0 89 -6 147h47q43 -204 138.5 -293.5t238.5 -89.5h117q-59 92 -145.5 196t-152.5 180
t-128.5 162.5t-96.5 182t-34 199.5q0 241 181 376.5t511 135.5z" />
    <glyph glyph-name="mu" unicode="&#x3bc;" horiz-adv-x="1483" 
d="M1378 561l39 -8q-9 -59 -25 -127.5t-45.5 -151.5t-65 -148.5t-86 -110t-105.5 -44.5q-130 0 -130 183q0 36 7 92l9 101q-25 -74 -56 -135.5t-72.5 -118.5t-95.5 -89.5t-115 -32.5q-69 0 -108 76t-49 182q-16 -270 -27 -360t-41 -139q-28 -49 -86.5 -82t-132.5 -33
q-64 0 -104 34.5t-40 94.5q0 65 43 117.5t129 120.5q44 35 77 71.5t72 96.5t69 149t50 204q-19 102 -44 185t-39.5 126.5t-14.5 76.5q0 44 14 78.5t36 55.5t51.5 34.5t57 18.5t56.5 5q69 0 116.5 -33t47.5 -97q0 -19 -4 -38q-7 -36 -37 -76.5t-64.5 -77.5t-76 -113
t-68.5 -172q34 -101 152 -101q115 0 193 43t128 143q-12 90 -28.5 163t-26.5 110t-10 57q0 54 18.5 94t49 60t62 29t64.5 9q79 0 131.5 -34t52.5 -101q0 -15 -3 -33q-6 -29 -28.5 -56t-53 -54.5t-63.5 -60.5t-68 -87t-59 -120q-3 -24 -3 -45q0 -117 117 -117q83 0 138.5 43
t94.5 143z" />
    <glyph glyph-name="pi" unicode="&#x3c0;" horiz-adv-x="1227" 
d="M780 705l-30 -177q-2 -13 -2 -36q0 -117 102 -117q83 0 138.5 43t94.5 143l39 -8q-10 -63 -23.5 -127.5t-40 -150.5t-58.5 -150t-81 -109t-104 -45q-73 0 -110.5 50.5t-37.5 169.5q0 96 25 239l48 275h-173q-37 -444 -147 -619q-75 -115 -221 -115q-62 0 -102 33t-40 88
q0 77 46.5 120.5t150.5 88.5q43 19 65 29t52 26.5t44.5 30t34 36t29 46.5t21 59.5t19 78t14.5 98.5h-97q-67 0 -113.5 -6.5t-90 -25.5t-76.5 -55t-62 -92l-35 9q28 129 65.5 220.5t97.5 163t149 107t209 35.5h589v-356h-389z" />
    <glyph glyph-name="uni0401" unicode="&#x401;" horiz-adv-x="1331" 
d="M391 1561q-74 0 -126 52t-52 126q0 71 52.5 124.5t125.5 53.5q71 0 124.5 -53.5t53.5 -124.5q0 -73 -53.5 -125.5t-124.5 -52.5zM919 1561q-74 0 -126 52t-52 126q0 71 52.5 124.5t125.5 53.5q71 0 124.5 -53.5t53.5 -124.5q0 -73 -53.5 -125.5t-124.5 -52.5zM1229 344
q0 -209 14 -344q-139 6 -469 6q-479 0 -717 -6v41q50 2 76 8.5t43.5 26.5t22 51t4.5 90v1016q0 58 -5 89.5t-22.5 51.5t-43.5 26.5t-75 8.5v41q238 -6 717 -6q301 0 428 6q-14 -192 -14 -344q0 -96 6 -148h-47q-18 123 -56 212t-89.5 138.5t-108.5 72t-123 22.5h-27
q-80 0 -102.5 -23t-22.5 -106v-524h21q73 0 134.5 44t96.5 103t48 123h47q-8 -120 -8 -199q0 -18 0.5 -48t0.5 -44q0 -88 13 -291h-47q-19 118 -96 194.5t-189 76.5h-21v-533q0 -84 22.5 -106.5t102.5 -22.5h68q54 0 107.5 25t106.5 78t96 151.5t67 230.5h47q-6 -74 -6 -188
z" />
    <glyph glyph-name="uni0402" unicode="&#x402;" horiz-adv-x="2011" 
d="M1415 852q163 0 289.5 -49t203.5 -153t77 -251q0 -104 -44.5 -187t-122 -135t-178.5 -79t-219 -27q-75 0 -144.5 18t-127.5 52.5t-92.5 91.5t-34.5 129q0 93 64 148t157 55q88 0 139.5 -50.5t51.5 -138.5t-54 -144.5t-149 -82.5q65 -26 131 -26q104 0 169.5 93.5
t65.5 280.5q0 88 -16 156.5t-52 122t-99.5 82t-151.5 28.5q-103 0 -204.5 -34t-149.5 -82v-693q-124 29 -316 29q-171 0 -327 -6v41q76 0 115.5 5.5t67.5 26.5t36 57t8 101v1172h-2q-59 0 -113.5 -25.5t-108 -81.5t-100.5 -157.5t-82 -241.5h-47q6 53 6 147q0 179 -14 406
q195 -6 670 -6q473 0 667 6q-14 -203 -14 -365q0 -95 6 -147h-47q-71 217 -180.5 341t-222.5 124h-2v-690q185 139 491 139z" />
    <glyph glyph-name="uni0403" unicode="&#x403;" horiz-adv-x="1233" 
d="M748 1923q28 14 63 14q40 0 75 -19.5t54 -57.5q12 -27 12 -54q0 -37 -20.5 -70t-56.5 -50q-40 -21 -96 -31t-149 -26.5t-192 -47.5l-14 25q66 55 119.5 112.5t80 92t58.5 65.5t66 47zM1202 1450q-14 -192 -14 -344q0 -96 6 -148h-47q-26 123 -68 212.5t-93 138.5
t-104 71.5t-112 22.5h-27q-80 0 -102.5 -23t-22.5 -106v-1057q0 -77 13.5 -112t46 -48t106.5 -16v-41q-126 6 -362 6q-248 0 -365 -6v41q49 2 75 8.5t43.5 26.5t22.5 51.5t5 89.5v1016q0 59 -4.5 90t-22 51t-43.5 26.5t-76 8.5v41q238 -6 717 -6q301 0 428 6z" />
    <glyph glyph-name="uni0404" unicode="&#x404;" horiz-adv-x="1473" 
d="M1309 532h47q0 -381 8 -532h-47q-5 64 -16.5 92.5t-33.5 28.5q-16 0 -42 -17q-93 -65 -176.5 -99t-202.5 -34q-352 0 -562 197.5t-210 544.5q0 226 98 400.5t274 270t402 95.5q122 0 208.5 -35t168.5 -98q23 -18 40 -18q42 0 52 122h47q-8 -112 -8 -389h-47
q-30 113 -66 172.5t-123 120.5q-86 61 -190 61q-65 0 -120 -22.5t-94 -61t-69.5 -93.5t-49 -115t-31 -130.5t-17 -136t-4.5 -135.5q0 -49 3 -100q33 149 97.5 228t136.5 79q42 0 86 -21t74.5 -46.5t70.5 -46.5t74 -21q36 0 72 30.5t51 100.5l35 -6q-24 -197 -86 -300.5
t-143 -103.5q-42 0 -85 21t-73 46.5t-71 46.5t-80 21q-44 0 -86 -25.5t-68 -75.5q10 -106 34.5 -193.5t67 -164t113 -120t162.5 -43.5q96 0 190 61q96 59 134.5 159.5t54.5 284.5z" />
    <glyph glyph-name="uni0405" unicode="&#x405;" horiz-adv-x="1255" 
d="M618 1479q83 0 151 -13.5t102.5 -28.5t78.5 -40q50 -29 70 -29q19 0 29 21.5t16 68.5h47q-10 -147 -10 -500h-47q-6 86 -33 168t-71 149t-110 107.5t-143 40.5q-93 0 -151 -50t-58 -140q0 -99 60.5 -162.5t252.5 -196.5q31 -22 48 -34q67 -47 106 -76.5t88 -76t75 -88.5
t44.5 -99.5t18.5 -122.5q0 -81 -29.5 -148.5t-80.5 -114.5t-121.5 -79.5t-152.5 -48t-173 -15.5q-207 0 -363 76q-46 29 -69 29q-19 0 -29 -21t-17 -69h-47q9 156 9 594h47q6 -115 28.5 -208.5t64.5 -172t113 -122.5t166 -44q114 0 180 53t66 147q0 50 -15.5 95t-39 80
t-65 73.5t-80.5 67.5t-99 69q-74 49 -114.5 78.5t-95.5 78.5t-83.5 91t-49.5 101t-21 125q0 97 41.5 173t113.5 121.5t161 69t191 23.5z" />
    <glyph glyph-name="uni0406" unicode="&#x406;" horiz-adv-x="821" 
d="M764 1450v-41q-50 -2 -76 -8.5t-43.5 -26.5t-22 -51t-4.5 -90v-1016q0 -58 5 -89.5t22.5 -51.5t43.5 -26.5t75 -8.5v-41q-120 6 -342 6q-248 0 -365 -6v41q50 2 76 8.5t43.5 26.5t22 51t4.5 90v1016q0 58 -5 89.5t-22.5 51.5t-43.5 26.5t-75 8.5v41q117 -6 365 -6
q222 0 342 6z" />
    <glyph glyph-name="uni0407" unicode="&#x407;" horiz-adv-x="821" 
d="M158 1917q70 0 124 -53.5t54 -124.5q0 -73 -53.5 -125.5t-124.5 -52.5q-74 0 -126 52t-52 126q0 71 52.5 124.5t125.5 53.5zM686 1917q70 0 124 -53.5t54 -124.5q0 -73 -53.5 -125.5t-124.5 -52.5q-74 0 -126 52t-52 126q0 71 52.5 124.5t125.5 53.5zM764 1450v-41
q-50 -2 -76 -8.5t-43.5 -26.5t-22 -51t-4.5 -90v-1016q0 -58 5 -89.5t22.5 -51.5t43.5 -26.5t75 -8.5v-41q-120 6 -342 6q-248 0 -365 -6v41q50 2 76 8.5t43.5 26.5t22 51t4.5 90v1016q0 58 -5 89.5t-22.5 51.5t-43.5 26.5t-75 8.5v41q117 -6 365 -6q222 0 342 6z" />
    <glyph glyph-name="uni0408" unicode="&#x408;" horiz-adv-x="799" 
d="M754 1450v-41q-50 -2 -76 -8.5t-43.5 -26.5t-22 -51t-4.5 -90v-750q0 -25 0.5 -81.5t0.5 -86.5q0 -252 -36 -366q-47 -147 -200 -240.5t-375 -93.5q-150 0 -229 39q-103 52 -103 153q0 72 55 115t146 43q86 0 135 -38.5t49 -112.5q0 -48 -29.5 -90t-89.5 -64q13 -2 37 -2
q65 0 112 36.5t69 92.5q30 83 36.5 177t6.5 333v936q0 58 -5 89.5t-22.5 51.5t-43.5 26.5t-75 8.5v41q111 -6 344 -6q237 0 363 6z" />
    <glyph glyph-name="uni0409" unicode="&#x409;" horiz-adv-x="2089" 
d="M2044 449q0 -197 -145.5 -318.5t-425.5 -130.5h-9h-34q-170 0 -259 6h-79q-241 0 -367 -6v41q74 3 106.5 16t46 48t13.5 112v1016q0 106 -29 141t-96 35h-6q-56 0 -87 -37t-38 -139q-5 -58 -11.5 -151.5t-11.5 -165.5t-14 -167t-19 -169t-27 -158t-37 -146t-50 -122.5
t-66.5 -98.5t-85 -61t-106.5 -23q-108 0 -179 65t-71 159q0 96 65.5 155.5t163.5 59.5q84 0 133.5 -40.5t49.5 -111.5q0 -90 -60 -153t-153 -78q15 -17 51 -17q191 0 280 334q60 222 90 701q3 49 11 188q2 32 2 45q0 76 -34 101.5t-134 29.5v41q85 -6 211 -6q31 0 91 3t89 3
q51 0 142 -3t151 -3q244 0 367 6v-41q-56 -2 -85.5 -8.5t-49.5 -26.5t-25.5 -51.5t-5.5 -89.5v-369h75q662 0 662 -415zM1453 42q88 9 124.5 100t36.5 274q0 72 -6 128t-22.5 110t-43.5 90t-73 57.5t-107 21.5h-55v-606q0 -106 27 -138t119 -37z" />
    <glyph glyph-name="uni040A" unicode="&#x40a;" horiz-adv-x="2265" 
d="M2232 389q0 -172 -151 -278.5t-441 -110.5h-2h-20q-170 0 -259 6h-63q-236 0 -362 -6v41q50 2 76 8.5t43 26.5t21.5 51t4.5 90v492h-461v-492q0 -58 5 -89.5t22.5 -51.5t43.5 -26.5t75 -8.5v-41q-120 6 -342 6q-248 0 -365 -6v41q50 2 76 8.5t43.5 26.5t22 51t4.5 90
v1016q0 58 -5 89.5t-22.5 51.5t-43.5 26.5t-75 8.5v41q117 -6 365 -6q222 0 342 6v-41q-50 -2 -76 -8.5t-43.5 -26.5t-22 -51t-4.5 -90v-483h461v483q0 59 -5 90t-22 51t-43 26.5t-75 8.5v41q126 -6 362 -6q234 0 344 6v-41q-50 -2 -75.5 -8.5t-43 -26.5t-22 -51t-4.5 -90
v-483h76q152 0 269 -20t190 -53t119.5 -80.5t64.5 -98t18 -109.5zM1633 41q92 6 130.5 86t38.5 235q0 78 -11 135.5t-39.5 108t-84 77t-137.5 26.5h-35v-492q0 -108 25 -139.5t113 -36.5z" />
    <glyph glyph-name="uni040B" unicode="&#x40b;" horiz-adv-x="1948" 
d="M1792 403v-186q0 -59 4.5 -90t21.5 -51t43 -26.5t76 -8.5v-41q-115 6 -356 6q-230 0 -350 -6v41q49 2 75 8.5t43 26.5t22 51t5 90v252q0 140 -34 188t-146 48q-153 0 -272 -50v-424q0 -65 8 -101t36 -57t67.5 -26.5t115.5 -5.5v-41q-288 6 -449 6q-145 0 -421 -6v41
q76 0 115.5 5.5t67.5 26.5t36 57t8 101v1172h-2q-59 0 -113.5 -25.5t-108 -81.5t-100.5 -157.5t-82 -241.5h-47q6 53 6 147q0 179 -14 406q195 -6 670 -6q473 0 667 6q-14 -227 -14 -406q0 -94 6 -147h-47q-28 112 -65 200t-76 145t-84.5 93.5t-88.5 52t-89 15.5h-2v-707
q181 74 399 74q204 0 330 -72q77 -44 108 -113t31 -182z" />
    <glyph glyph-name="uni040C" unicode="&#x40c;" horiz-adv-x="1536" 
d="M1168 1686q-40 -21 -96 -31t-149 -26.5t-192 -47.5l-14 25q66 55 119.5 112.5t80 92t58.5 65.5t66 47q28 14 63 14q40 0 75 -19.5t54 -57.5q12 -27 12 -54q0 -37 -20.5 -70t-56.5 -50zM1501 109l27 -27q-61 -61 -135 -86t-172 -25q-143 0 -220.5 51t-95.5 171l-53 352
q-19 108 -69 150.5t-165 46.5v-525q0 -58 5 -89.5t22.5 -51.5t43.5 -26.5t75 -8.5v-41q-120 6 -342 6q-248 0 -365 -6v41q50 2 76 8.5t43.5 26.5t22 51t4.5 90v1016q0 58 -5 89.5t-22.5 51.5t-43.5 26.5t-75 8.5v41q117 -6 365 -6q222 0 342 6v-41q-50 -2 -76 -8.5
t-43.5 -26.5t-22 -51t-4.5 -90v-456q83 5 161 58.5t190 178.5l69 78q91 102 91 184q0 60 -47 96t-121 39v39q171 -6 346 -6q123 0 206 6v-39q-172 -47 -335 -225l-375 -415q222 -13 338.5 -75t144.5 -196l60 -285q13 -75 34.5 -104t59.5 -29q35 0 61 27z" />
    <glyph glyph-name="uni040D" unicode="&#x40d;" horiz-adv-x="1739" 
d="M557 1686q-36 18 -57 50.5t-21 69.5q0 27 12 54q19 38 54 57.5t76 19.5q33 0 63 -14q34 -16 66 -47t58 -65.5t80 -92t119 -112.5l-14 -25q-99 31 -192 47.5t-148.5 26.5t-95.5 31zM1681 1450v-41q-49 -2 -74.5 -8.5t-43 -26.5t-22.5 -51.5t-5 -89.5v-1016q0 -58 5 -89.5
t22.5 -51.5t43 -26.5t74.5 -8.5v-41q-115 6 -364 6q-222 0 -342 -6v41q49 2 75 8.5t43 26.5t22 51t5 90v942l-502 -975q2 -46 8.5 -72t24.5 -41.5t42.5 -21.5t70.5 -8v-41q-120 6 -342 6q-248 0 -365 -6v41q49 2 75 8.5t43.5 26.5t22.5 51.5t5 89.5v1016q0 58 -5 89.5
t-22.5 51.5t-43.5 26.5t-75 8.5v41q117 -6 365 -6q222 0 342 6v-41q-49 -2 -75 -8.5t-43.5 -26.5t-22.5 -51.5t-5 -89.5v-948l502 975q-1 48 -7 75t-24 43.5t-43 22.5t-71 8v41q120 -6 342 -6q249 0 364 6z" />
    <glyph glyph-name="uni040E" unicode="&#x40e;" horiz-adv-x="1368" 
d="M316 1628q-135 60 -135 160q0 63 55 107t142 44q86 0 143 -44t57 -111q0 -58 -42.5 -96.5t-108.5 -55.5q132 -30 278 -30q149 0 277 32q-68 18 -108 56.5t-40 93.5q0 67 56 111t143 44q86 0 142.5 -43.5t56.5 -107.5q0 -97 -140 -160q-148 -67 -387 -67q-241 0 -389 67z
M1249 1444q97 0 158 6v-41q-47 -23 -96.5 -86t-118.5 -186l-383 -775l-96 -194q-44 -91 -90 -137q-60 -60 -183 -60q-131 0 -206.5 58t-75.5 145t66.5 141t162.5 54q102 0 162.5 -40.5t60.5 -111.5q0 -73 -52.5 -122.5t-137.5 -71.5q12 -11 59 -11q61 0 107 40t84 120l43 88
l-598 1018q-71 118 -146 131v41q84 -6 332 -6q263 0 354 6v-41q-80 -7 -80 -77q0 -41 25 -95l324 -551l133 266q94 189 94 301q0 149 -170 156v41q153 -6 268 -6z" />
    <glyph glyph-name="uni040F" unicode="&#x40f;" horiz-adv-x="1698" 
d="M1640 1450v-41q-49 -2 -74.5 -8.5t-43 -26.5t-22.5 -51.5t-5 -89.5v-1016q0 -58 5 -89.5t22.5 -51.5t43 -26.5t74.5 -8.5v-41q-116 6 -364 6h-8q-70 0 -132.5 -20.5t-118.5 -63t-94.5 -120t-50.5 -181.5h-47q-12 104 -50 181.5t-94.5 120t-118.5 63t-132 20.5h-8
q-248 0 -365 -6v41q49 2 75 8.5t43.5 26.5t22.5 51.5t5 89.5v1016q0 58 -5 89.5t-22.5 51.5t-43.5 26.5t-75 8.5v41q117 -6 365 -6q222 0 342 6v-41q-49 -2 -75 -8.5t-43.5 -26.5t-22.5 -51.5t-5 -89.5v-1016q0 -111 30.5 -143.5t135.5 -32.5h129q105 0 135.5 32t30.5 144
v1016q0 59 -5 90t-22 51t-43 26.5t-75 8.5v41q120 -6 342 -6q248 0 364 6z" />
    <glyph glyph-name="uni0410" unicode="&#x410;" horiz-adv-x="1417" 
d="M815 1450l496 -1278q26 -66 58 -97.5t63 -33.5v-41q-148 6 -373 6q-235 0 -344 -6v41q77 3 110.5 19t33.5 56q0 31 -25 97l-122 336h-413l-35 -92q-66 -172 -66 -267q0 -84 46.5 -115t138.5 -34v-41q-153 6 -268 6q-97 0 -158 -6v41q50 8 95.5 63t92.5 177l455 1169
q44 -4 108 -4t107 4zM698 590l-186 512l-197 -512h383z" />
    <glyph glyph-name="uni0411" unicode="&#x411;" horiz-adv-x="1399" 
d="M618 864h76q151 0 269 -26t190.5 -67.5t119.5 -100t65 -117.5t18 -125q0 -194 -157 -310t-458 -116q-19 0 -135 2t-209 2q-223 0 -340 -6v41q49 2 75 8.5t43.5 26.5t22.5 51.5t5 89.5v1016q0 59 -4.5 90t-22 51t-43.5 26.5t-76 8.5v41q238 -6 717 -6q301 0 428 6
q-14 -192 -14 -344q0 -96 6 -148h-47q-26 123 -68 212.5t-93 138.5t-104 71.5t-112 22.5h-27q-80 0 -102.5 -23t-22.5 -106v-410zM723 41q110 0 156.5 91.5t46.5 283.5q0 72 -6 128t-22.5 110t-43.5 90t-73 57.5t-107 21.5h-56v-606q0 -103 21 -139.5t84 -36.5z" />
    <glyph glyph-name="uni0412" unicode="&#x412;" horiz-adv-x="1442" 
d="M821 764v-4q152 -8 267.5 -42t181.5 -85.5t98.5 -111t32.5 -124.5q0 -200 -160.5 -298.5t-454.5 -98.5q-18 0 -143.5 3t-228.5 3q-240 0 -357 -6v41q50 2 76 8.5t43.5 26.5t22 51t4.5 90v1016q0 58 -5 89.5t-22.5 51.5t-43.5 26.5t-75 8.5v41q117 -6 353 -6q79 0 196 2
t133 2q271 0 413 -87.5t142 -234.5q0 -56 -29 -112.5t-85 -107.5t-149 -89t-210 -53zM729 1409q-68 0 -89.5 -34.5t-21.5 -141.5v-463h56q58 0 98 26.5t61 75t30 104.5t9 128q0 155 -33 230t-110 75zM752 47q219 0 219 359q0 161 -77.5 245t-246.5 84h-29v-518
q0 -107 25 -138.5t109 -31.5z" />
    <glyph glyph-name="uni0413" unicode="&#x413;" horiz-adv-x="1233" 
d="M1202 1450q-14 -192 -14 -344q0 -96 6 -148h-47q-26 123 -68 212.5t-93 138.5t-104 71.5t-112 22.5h-27q-80 0 -102.5 -23t-22.5 -106v-1057q0 -77 13.5 -112t46 -48t106.5 -16v-41q-126 6 -362 6q-248 0 -365 -6v41q49 2 75 8.5t43.5 26.5t22.5 51.5t5 89.5v1016
q0 59 -4.5 90t-22 51t-43.5 26.5t-76 8.5v41q238 -6 717 -6q301 0 428 6z" />
    <glyph glyph-name="uni0414" unicode="&#x414;" horiz-adv-x="1368" 
d="M1284 41h62q-15 -154 -15 -283q0 -84 6 -137h-47q-19 105 -59 181t-94.5 118t-114 61t-129.5 19h-438q-70 0 -129.5 -19t-114.5 -61t-94.5 -118t-59.5 -181h-47q6 53 6 137q0 125 -14 283h37q56 0 102.5 26.5t80.5 77t61.5 116.5t46.5 150.5t33 174t23.5 193t16.5 200.5
t14 203l3 51q2 32 2 45q0 76 -34 101.5t-134 29.5v41q86 -6 211 -6q31 0 91 3t89 3q51 0 142 -3t151 -3q244 0 367 6v-41q-56 -2 -85.5 -8.5t-49.5 -26.5t-25.5 -51.5t-5.5 -89.5v-1016q0 -112 26.5 -144t118.5 -32zM723 217v1016q0 106 -29 141t-96 35h-27q-94 0 -104 -176
q-5 -59 -12.5 -159t-13 -175.5t-16 -175.5t-22.5 -177t-32.5 -161.5t-46 -146.5t-63.5 -115t-84 -82h380q105 0 135.5 32.5t30.5 143.5z" />
    <glyph glyph-name="uni0415" unicode="&#x415;" horiz-adv-x="1331" 
d="M1229 344q0 -209 14 -344q-139 6 -469 6q-479 0 -717 -6v41q50 2 76 8.5t43.5 26.5t22 51t4.5 90v1016q0 58 -5 89.5t-22.5 51.5t-43.5 26.5t-75 8.5v41q238 -6 717 -6q301 0 428 6q-14 -192 -14 -344q0 -96 6 -148h-47q-18 123 -56 212t-89.5 138.5t-108.5 72t-123 22.5
h-27q-80 0 -102.5 -23t-22.5 -106v-524h21q73 0 134.5 44t96.5 103t48 123h47q-8 -120 -8 -199q0 -18 0.5 -48t0.5 -44q0 -88 13 -291h-47q-19 118 -96 194.5t-189 76.5h-21v-533q0 -84 22.5 -106.5t102.5 -22.5h68q54 0 107.5 25t106.5 78t96 151.5t67 230.5h47
q-6 -74 -6 -188z" />
    <glyph glyph-name="uni0416" unicode="&#x416;" horiz-adv-x="2169" 
d="M2175 109l27 -27q-61 -61 -135 -86t-173 -25q-142 0 -219.5 51t-95.5 171l-53 352q-19 108 -69 150.5t-165 46.5v-525q0 -59 4.5 -90t22 -51t43.5 -26.5t76 -8.5v-41q-117 6 -365 6q-222 0 -342 -6v41q49 2 75 8.5t43.5 26.5t22.5 51.5t5 89.5v525q-115 -4 -165 -46.5
t-69 -150.5l-53 -352q-18 -120 -95.5 -171t-220.5 -51q-98 0 -172.5 25.5t-134.5 85.5l27 27q26 -27 61 -27q38 0 59.5 29t35.5 104l59 285q29 134 145 196t338 75l-362 415q-157 176 -336 225v39q82 -6 207 -6q173 0 346 6v-39q-74 -3 -121.5 -39t-47.5 -96q0 -82 91 -184
l70 -78q115 -129 185.5 -180.5t152.5 -56.5v456q0 59 -4.5 90t-22 51t-43.5 26.5t-76 8.5v41q120 -6 342 -6q248 0 365 6v-41q-49 -2 -75 -8.5t-43.5 -26.5t-22.5 -51.5t-5 -89.5v-456q82 5 152.5 56.5t185.5 180.5l70 78q91 102 91 184q0 60 -47.5 96t-121.5 39v39
q172 -6 346 -6q124 0 207 6v-39q-179 -49 -336 -225l-362 -415q222 -13 338.5 -75t144.5 -196l59 -285q14 -75 35.5 -104t59.5 -29q35 0 61 27z" />
    </font>
</defs>
</svg>
